  0
SECTION
  2
HEADER
  9
$ACADVER
  1
AC1018
  9
$ACADMAINTVER
 70
   104
  9
$DWGCODEPAGE
  3
ANSI_1252
  9
$AUTHOR
  1
D. Fischer
  9
$LASTSAVEDBY
  1
DFischer
  9
$CUSTOMPROPERTYTAG
  1
Manager
  9
$CUSTOMPROPERTY
  1

  9
$CUSTOMPROPERTYTAG
  1
Firma
  9
$CUSTOMPROPERTY
  1

  9
$CUSTOMPROPERTYTAG
  1
Kategorie
  9
$CUSTOMPROPERTY
  1

  9
$CUSTOMPROPERTYTAG
  1
Bauteilnummer
  9
$CUSTOMPROPERTY
  1
WKZ-0328
  9
$CUSTOMPROPERTYTAG
  1
Bezeichnung
  9
$CUSTOMPROPERTY
  1
456
  9
$CUSTOMPROPERTYTAG
  1
Projekt
  9
$CUSTOMPROPERTY
  1

  9
$CUSTOMPROPERTYTAG
  1
Konstrukteur
  9
$CUSTOMPROPERTY
  1
D. Fischer
  9
$CUSTOMPROPERTYTAG
  1
Ingenieur
  9
$CUSTOMPROPERTY
  1

  9
$CUSTOMPROPERTYTAG
  1
Bevollmächtigter
  9
$CUSTOMPROPERTY
  1

  9
$CUSTOMPROPERTYTAG
  1
Kostenstelle
  9
$CUSTOMPROPERTY
  1

  9
$CUSTOMPROPERTYTAG
  1
Zulieferer
  9
$CUSTOMPROPERTY
  1

  9
$CUSTOMPROPERTYTAG
  1
Benutzerstatus
  9
$CUSTOMPROPERTY
  1

  9
$CUSTOMPROPERTYTAG
  1
Konstruktionsstatus
  9
$CUSTOMPROPERTY
  1
InBearbeitung
  9
$CUSTOMPROPERTYTAG
  1
Kontrolliert von
  9
$CUSTOMPROPERTY
  1

  9
$CUSTOMPROPERTYTAG
  1
Konstruktion genehmigt von
  9
$CUSTOMPROPERTY
  1

  9
$CUSTOMPROPERTYTAG
  1
Fertigung genehmigt von
  9
$CUSTOMPROPERTY
  1
Freigabe
  9
$INSBASE
 10
0.0
 20
0.0
 30
0.0
  9
$EXTMIN
 10
4.994110454851011
 20
9.983689057621745
 30
-0.0015258207003583
  9
$EXTMAX
 10
200.018924579752
 20
287.0163123253923
 30
0.0000000349246037
  9
$LIMMIN
 10
0.0
 20
0.0
  9
$LIMMAX
 10
210.0
 20
297.0
  9
$ORTHOMODE
 70
     0
  9
$REGENMODE
 70
     1
  9
$FILLMODE
 70
     1
  9
$QTEXTMODE
 70
     0
  9
$MIRRTEXT
 70
     0
  9
$LTSCALE
 40
1.0
  9
$ATTMODE
 70
     1
  9
$TEXTSIZE
 40
0.2
  9
$TRACEWID
 40
0.05
  9
$TEXTSTYLE
  7
Standard
  9
$CLAYER
  8
0
  9
$CELTYPE
  6
ByLayer
  9
$CECOLOR
 62
   256
  9
$CELTSCALE
 40
1.0
  9
$DISPSILH
 70
     0
  9
$DIMSCALE
 40
1.0
  9
$DIMASZ
 40
1.799999999999999
  9
$DIMEXO
 40
0.0625
  9
$DIMDLI
 40
0.38
  9
$DIMRND
 40
0.0
  9
$DIMDLE
 40
0.0
  9
$DIMEXE
 40
0.18
  9
$DIMTP
 40
0.0
  9
$DIMTM
 40
0.0
  9
$DIMTXT
 40
0.3499999940395355
  9
$DIMCEN
 40
0.09
  9
$DIMTSZ
 40
0.0
  9
$DIMTOL
 70
     0
  9
$DIMLIM
 70
     0
  9
$DIMTIH
 70
     1
  9
$DIMTOH
 70
     1
  9
$DIMSE1
 70
     0
  9
$DIMSE2
 70
     0
  9
$DIMTAD
 70
     0
  9
$DIMZIN
 70
     0
  9
$DIMBLK
  1

  9
$DIMASO
 70
     1
  9
$DIMSHO
 70
     1
  9
$DIMPOST
  1

  9
$DIMAPOST
  1

  9
$DIMALT
 70
     0
  9
$DIMALTD
 70
     2
  9
$DIMALTF
 40
25.4
  9
$DIMLFAC
 40
1.0
  9
$DIMTOFL
 70
     0
  9
$DIMTVP
 40
0.0
  9
$DIMTIX
 70
     0
  9
$DIMSOXD
 70
     0
  9
$DIMSAH
 70
     0
  9
$DIMBLK1
  1

  9
$DIMBLK2
  1

  9
$DIMSTYLE
  2
Standard
  9
$DIMCLRD
 70
     0
  9
$DIMCLRE
 70
     0
  9
$DIMCLRT
 70
     0
  9
$DIMTFAC
 40
1.0
  9
$DIMGAP
 40
0.09
  9
$DIMJUST
 70
     0
  9
$DIMSD1
 70
     0
  9
$DIMSD2
 70
     0
  9
$DIMTOLJ
 70
     1
  9
$DIMTZIN
 70
     0
  9
$DIMALTZ
 70
     0
  9
$DIMALTTZ
 70
     0
  9
$DIMUPT
 70
     0
  9
$DIMDEC
 70
     4
  9
$DIMTDEC
 70
     4
  9
$DIMALTU
 70
     2
  9
$DIMALTTD
 70
     2
  9
$DIMTXSTY
  7
Standard
  9
$DIMAUNIT
 70
     0
  9
$DIMADEC
 70
     0
  9
$DIMALTRND
 40
0.0
  9
$DIMAZIN
 70
     0
  9
$DIMDSEP
 70
    46
  9
$DIMATFIT
 70
     3
  9
$DIMFRAC
 70
     0
  9
$DIMLDRBLK
  1

  9
$DIMLUNIT
 70
     2
  9
$DIMLWD
 70
    -2
  9
$DIMLWE
 70
    -2
  9
$DIMTMOVE
 70
     0
  9
$LUNITS
 70
     2
  9
$LUPREC
 70
     4
  9
$SKETCHINC
 40
0.1
  9
$FILLETRAD
 40
0.0
  9
$AUNITS
 70
     0
  9
$AUPREC
 70
     0
  9
$MENU
  1
.
  9
$ELEVATION
 40
0.0
  9
$PELEVATION
 40
0.0
  9
$THICKNESS
 40
0.0
  9
$LIMCHECK
 70
     0
  9
$CHAMFERA
 40
0.0
  9
$CHAMFERB
 40
0.0
  9
$CHAMFERC
 40
0.0
  9
$CHAMFERD
 40
0.0
  9
$SKPOLY
 70
     0
  9
$TDCREATE
 40
2456821.524340753
  9
$TDUCREATE
 40
2456821.441007419
  9
$TDUPDATE
 40
2456821.528427917
  9
$TDUUPDATE
 40
2456821.445094583
  9
$TDINDWG
 40
0.0013472454
  9
$TDUSRTIMER
 40
0.0013472454
  9
$USRTIMER
 70
     1
  9
$ANGBASE
 50
0.0
  9
$ANGDIR
 70
     0
  9
$PDMODE
 70
     0
  9
$PDSIZE
 40
0.0
  9
$PLINEWID
 40
0.0
  9
$SPLFRAME
 70
     0
  9
$SPLINETYPE
 70
     6
  9
$SPLINESEGS
 70
     8
  9
$HANDSEED
  5
1562
  9
$SURFTAB1
 70
     6
  9
$SURFTAB2
 70
     6
  9
$SURFTYPE
 70
     6
  9
$SURFU
 70
     6
  9
$SURFV
 70
     6
  9
$UCSBASE
  2

  9
$UCSNAME
  2

  9
$UCSORG
 10
0.0
 20
0.0
 30
0.0
  9
$UCSXDIR
 10
1.0
 20
0.0
 30
0.0
  9
$UCSYDIR
 10
0.0
 20
1.0
 30
0.0
  9
$UCSORTHOREF
  2

  9
$UCSORTHOVIEW
 70
     0
  9
$UCSORGTOP
 10
0.0
 20
0.0
 30
0.0
  9
$UCSORGBOTTOM
 10
0.0
 20
0.0
 30
0.0
  9
$UCSORGLEFT
 10
0.0
 20
0.0
 30
0.0
  9
$UCSORGRIGHT
 10
0.0
 20
0.0
 30
0.0
  9
$UCSORGFRONT
 10
0.0
 20
0.0
 30
0.0
  9
$UCSORGBACK
 10
0.0
 20
0.0
 30
0.0
  9
$PUCSBASE
  2

  9
$PUCSNAME
  2

  9
$PUCSORG
 10
0.0
 20
0.0
 30
0.0
  9
$PUCSXDIR
 10
1.0
 20
0.0
 30
0.0
  9
$PUCSYDIR
 10
0.0
 20
1.0
 30
0.0
  9
$PUCSORTHOREF
  2

  9
$PUCSORTHOVIEW
 70
     0
  9
$PUCSORGTOP
 10
0.0
 20
0.0
 30
0.0
  9
$PUCSORGBOTTOM
 10
0.0
 20
0.0
 30
0.0
  9
$PUCSORGLEFT
 10
0.0
 20
0.0
 30
0.0
  9
$PUCSORGRIGHT
 10
0.0
 20
0.0
 30
0.0
  9
$PUCSORGFRONT
 10
0.0
 20
0.0
 30
0.0
  9
$PUCSORGBACK
 10
0.0
 20
0.0
 30
0.0
  9
$USERI1
 70
     0
  9
$USERI2
 70
     0
  9
$USERI3
 70
     0
  9
$USERI4
 70
     0
  9
$USERI5
 70
     0
  9
$USERR1
 40
0.0
  9
$USERR2
 40
0.0
  9
$USERR3
 40
0.0
  9
$USERR4
 40
0.0
  9
$USERR5
 40
0.0
  9
$WORLDVIEW
 70
     1
  9
$SHADEDGE
 70
     3
  9
$SHADEDIF
 70
    70
  9
$TILEMODE
 70
     1
  9
$MAXACTVP
 70
    64
  9
$PINSBASE
 10
0.0
 20
0.0
 30
0.0
  9
$PLIMCHECK
 70
     0
  9
$PEXTMIN
 10
0.0
 20
0.0
 30
0.0
  9
$PEXTMAX
 10
210.0
 20
297.0
 30
0.0
  9
$PLIMMIN
 10
0.0
 20
0.0
  9
$PLIMMAX
 10
210.0
 20
297.0
  9
$UNITMODE
 70
     0
  9
$VISRETAIN
 70
     1
  9
$PLINEGEN
 70
     0
  9
$PSLTSCALE
 70
     1
  9
$TREEDEPTH
 70
  3020
  9
$CMLSTYLE
  2
Standard
  9
$CMLJUST
 70
     0
  9
$CMLSCALE
 40
1.0
  9
$PROXYGRAPHICS
 70
     1
  9
$MEASUREMENT
 70
     1
  9
$CELWEIGHT
370
    -1
  9
$ENDCAPS
280
     0
  9
$JOINSTYLE
280
     0
  9
$LWDISPLAY
290
     0
  9
$INSUNITS
 70
     4
  9
$HYPERLINKBASE
  1

  9
$STYLESHEET
  1

  9
$XEDIT
290
     1
  9
$CEPSNTYPE
380
     0
  9
$PSTYLEMODE
290
     1
  9
$FINGERPRINTGUID
  2
{835C53AF-E9EF-4D17-86B7-F6567CC8A460}
  9
$VERSIONGUID
  2
{FC2945C7-6642-4D29-8430-74D65D28AF8E}
  9
$EXTNAMES
290
     1
  9
$PSVPSCALE
 40
0.0
  9
$OLESTARTUP
290
     0
  9
$SORTENTS
280
   127
  9
$INDEXCTL
280
     0
  9
$HIDETEXT
280
     1
  9
$XCLIPFRAME
290
     0
  9
$HALOGAP
280
     0
  9
$OBSCOLOR
 70
   257
  9
$OBSLTYPE
280
     0
  9
$INTERSECTIONDISPLAY
280
     0
  9
$INTERSECTIONCOLOR
 70
   257
  9
$DIMASSOC
280
     1
  9
$PROJECTNAME
  1

  0
ENDSEC
  0
SECTION
  2
CLASSES
  0
CLASS
  1
ACDBDICTIONARYWDFLT
  2
AcDbDictionaryWithDefault
  3
ObjectDBX Classes
 90
        0
 91
        1
280
     0
281
     0
  0
CLASS
  1
MATERIAL
  2
AcDbMaterial
  3
ObjectDBX Classes
 90
     1153
 91
        3
280
     0
281
     0
  0
CLASS
  1
VISUALSTYLE
  2
AcDbVisualStyle
  3
ObjectDBX Classes
 90
     4095
 91
       24
280
     0
281
     0
  0
CLASS
  1
SCALE
  2
AcDbScale
  3
ObjectDBX Classes
 90
     1153
 91
       17
280
     0
281
     0
  0
CLASS
  1
TABLESTYLE
  2
AcDbTableStyle
  3
ObjectDBX Classes
 90
     4095
 91
        1
280
     0
281
     0
  0
CLASS
  1
MLEADERSTYLE
  2
AcDbMLeaderStyle
  3
ACDB_MLEADERSTYLE_CLASS
 90
     4095
 91
        1
280
     0
281
     0
  0
CLASS
  1
ACDBSECTIONVIEWSTYLE
  2
AcDbSectionViewStyle
  3
ObjectDBX Classes
 90
     1025
 91
        2
280
     0
281
     0
  0
CLASS
  1
ACDBDETAILVIEWSTYLE
  2
AcDbDetailViewStyle
  3
ObjectDBX Classes
 90
     1025
 91
        2
280
     0
281
     0
  0
CLASS
  1
IMAGE
  2
AcDbRasterImage
  3
ISM
 90
     2175
 91
        3
280
     0
281
     1
  0
CLASS
  1
IMAGEDEF
  2
AcDbRasterImageDef
  3
ISM
 90
        0
 91
        2
280
     0
281
     0
  0
CLASS
  1
IMAGEDEF_REACTOR
  2
AcDbRasterImageDefReactor
  3
ISM
 90
        1
 91
        3
280
     0
281
     0
  0
CLASS
  1
RASTERVARIABLES
  2
AcDbRasterVariables
  3
ISM
 90
        0
 91
        1
280
     0
281
     0
  0
CLASS
  1
SORTENTSTABLE
  2
AcDbSortentsTable
  3
ObjectDBX Classes
 90
        0
 91
        2
280
     0
281
     0
  0
CLASS
  1
CELLSTYLEMAP
  2
AcDbCellStyleMap
  3
ObjectDBX Classes
 90
     1152
 91
        3
280
     0
281
     0
  0
CLASS
  1
DICTIONARYVAR
  2
AcDbDictionaryVar
  3
ObjectDBX Classes
 90
        0
 91
       12
280
     0
281
     0
  0
CLASS
  1
ACME_DOCUMENT
  2
AcMeDbDoc
  3
AcMeServices
 90
     1024
 91
        2
280
     0
281
     0
  0
CLASS
  1
AMGSETTINGSOBJ
  2
AmgSettingsObj
  3
"AcadM|Product Description: AutoCAD Mechanical|Company: Autodesk, Inc."
 90
     1024
 91
        2
280
     0
281
     0
  0
CLASS
  1
ACMESCOPE
  2
AcMeScope
  3
AcMeServices
 90
     1024
 91
        1
280
     0
281
     0
  0
CLASS
  1
ACMECOMMANDHISTORY
  2
AcMeCommandHistory
  3
AcMeServices
 90
     1024
 91
        1
280
     0
281
     0
  0
CLASS
  1
ACIMSYSVARMAN
  2
AcImSysVarManager
  3
AcMeServices
 90
     1024
 91
        3
280
     0
281
     0
  0
CLASS
  1
ACIMINTSYSVAR
  2
AcImIntSysVar
  3
AcMeServices
 90
     1024
 91
        2
280
     0
281
     0
  0
CLASS
  1
ACMESTATEMGR
  2
AcMeStateMgr
  3
AcMeServices
 90
     1024
 91
        1
280
     0
281
     0
  0
CLASS
  1
ACDBENTITYCACHE
  2
AcMeEntityCache
  3
AcMeServices
 90
     1024
 91
        1
280
     0
281
     0
  0
CLASS
  1
ACGREFMASTER
  2
AcGrefMaster
  3
AcAttribServices
 90
     1024
 91
        1
280
     0
281
     0
  0
CLASS
  1
ACME_DATABASE
  2
AcMeDbDatabase
  3
AcMeServices
 90
     1024
 91
        2
280
     0
281
     0
  0
CLASS
  1
ACRFINSADJUSTERMGR
  2
AcRfInsAdjusterMgr
  3
AcMeServices
 90
     1024
 91
        1
280
     0
281
     0
  0
CLASS
  1
ACGREFACADMASTER
  2
AcGrefacadMaster
  3
AcGrefServices
 90
     1024
 91
        1
280
     0
281
     0
  0
CLASS
  1
AMDTMENUSTATEMGR
  2
AmdtMenuStateMgr
  3
McadcomServices
 90
     1024
 91
        1
280
     0
281
     0
  0
CLASS
  1
AMDTMCOMMENUSTATE
  2
AmdtMcomMenuState
  3
McadcomServices
 90
     1024
 91
        1
280
     0
281
     0
  0
CLASS
  1
AMIMASTER
  2
AmiMaster
  3
AmiServices
 90
     1024
 91
        1
280
     0
281
     0
  0
CLASS
  1
MAPIAMMOUDLE
  2
MApiAmModule
  3
MApiAmServices
 90
     1024
 91
        1
280
     0
281
     0
  0
CLASS
  1
ACIMSTRSYSVAR
  2
AcImStrSysVar
  3
AcMeServices
 90
     1024
 91
        5
280
     0
281
     0
  0
CLASS
  1
AMDTAMMENUSTATE
  2
AmdtAmMenuState
  3
DesignerAssemblies
 90
     1024
 91
        1
280
     0
281
     0
  0
CLASS
  1
ACAMPROJECT
  2
AcAmProject
  3
DesignerAssemblies
 90
     1024
 91
        1
280
     0
281
     0
  0
CLASS
  1
ACAMGRCOMPDEF
  2
AcAmGrCompDef
  3
DesignerAssemblies
 90
     1024
 91
        1
280
     0
281
     0
  0
CLASS
  1
ACAMCOMPDEF
  2
AcAmCompDef
  3
DesignerAssemblies
 90
     1024
 91
        1
280
     0
281
     0
  0
CLASS
  1
ACAMCOMPDEFMGR
  2
AcAmCompDefMgr
  3
DesignerAssemblies
 90
     1024
 91
        1
280
     0
281
     0
  0
CLASS
  1
AMCONTEXTMGR
  2
AcAmContextMgr
  3
DesignerAssemblies
 90
     1024
 91
        1
280
     0
281
     0
  0
CLASS
  1
ACAMCONTEXTMODELER
  2
AcAmContextModeler
  3
DesignerAssemblies
 90
     1024
 91
        1
280
     0
281
     0
  0
CLASS
  1
ACMDATADICTIONARY
  2
AcmDataDictionary
  3
"AcmSymBB|Product Description: AutoCAD Mechanical|Company: Autodesk, Inc."
 90
     1024
 91
        1
280
     0
281
     0
  0
CLASS
  1
ACAMGRCOMPDEFSET
  2
AcAmGrCompDefSet
  3
DesignerAssemblies
 90
     1024
 91
        1
280
     0
281
     0
  0
CLASS
  1
AMDTBROWSERDBTAB
  2
AmdtBrowserDbTab
  3
McadcomServices
 90
     1024
 91
        1
280
     0
281
     0
  0
CLASS
  1
CBROWSERAPPOBJECT
  2
CBrowserAppObject
  3
McadcomServices
 90
     1024
 91
        2
280
     0
281
     0
  0
CLASS
  1
DM_PLACEHOLDER
  2
AcDmSelsetPlaceholder
  3
McadcomServices
 90
     1024
 91
        1
280
     0
281
     0
  0
CLASS
  1
EXACXREFPANELOBJECT
  2
ExAcXREFPanelObject
  3
EXAC_ESW
 90
     1025
 91
        1
280
     0
281
     0
  0
CLASS
  1
NPOCOLLECTION
  2
AcDbImpNonPersistentObjectsCollection
  3
ObjectDBX Classes
 90
     1153
 91
        1
280
     0
281
     0
  0
CLASS
  1
ACMSTANDARDDIN
  2
AcmStandardDIN
  3
"Amdt_StdImp|Product Description: AutoCAD Mechanical|Company: Autodesk, Inc."
 90
     1024
 91
        1
280
     0
281
     0
  0
CLASS
  1
AMDTEDGESTANDARDDIN13715
  2
AmdtEdgeStdDIN13715
  3
"Amdt_StdImp|Product Description: AutoCAD Mechanical|Company: Autodesk, Inc."
 90
     1024
 91
        1
280
     0
281
     0
  0
CLASS
  1
ACMSURFSTANDARDDIN2002
  2
AcmSurfTextStdDIN2002
  3
"Amdt_StdImp|Product Description: AutoCAD Mechanical|Company: Autodesk, Inc."
 90
     1024
 91
        1
280
     0
281
     0
  0
CLASS
  1
ACMFCFSTANDARDDIN2008
  2
AcmFCFStdDIN2008
  3
"Amdt_StdImp|Product Description: AutoCAD Mechanical|Company: Autodesk, Inc."
 90
     1024
 91
        1
280
     0
281
     0
  0
CLASS
  1
ACMWELDSTANDARDDIN
  2
AcmWeldingStdDIN
  3
"Amdt_StdImp|Product Description: AutoCAD Mechanical|Company: Autodesk, Inc."
 90
     1024
 91
        1
280
     0
281
     0
  0
CLASS
  1
ACMIDSTANDARDDIN2008
  2
AcmIdStdDIN2008
  3
"Amdt_StdImp|Product Description: AutoCAD Mechanical|Company: Autodesk, Inc."
 90
     1024
 91
        1
280
     0
281
     0
  0
CLASS
  1
ACMDATUMSTANDARDDIN
  2
AcmDatumStdDIN
  3
"Amdt_StdImp|Product Description: AutoCAD Mechanical|Company: Autodesk, Inc."
 90
     1024
 91
        1
280
     0
281
     0
  0
CLASS
  1
ACMBOMSTANDARDDIN
  2
AcmBOMStdDIN
  3
"Amdt_StdImp|Product Description: AutoCAD Mechanical|Company: Autodesk, Inc."
 90
     1024
 91
        1
280
     0
281
     0
  0
CLASS
  1
ACMDETAILSTANDARDDIN
  2
AmdtDetailSymStdDIN
  3
"Amdt_StdImp|Product Description: AutoCAD Mechanical|Company: Autodesk, Inc."
 90
     1024
 91
        1
280
     0
281
     0
  0
CLASS
  1
ACMSECTIONSTANDARDDIN
  2
AmdtSectionSymStdDIN
  3
"Amdt_StdImp|Product Description: AutoCAD Mechanical|Company: Autodesk, Inc."
 90
     1024
 91
        1
280
     0
281
     0
  0
CLASS
  1
ACMCENTERLINESTANDARDDIN
  2
AmdtCenterLineStdDIN
  3
"Amdt_StdImp|Product Description: AutoCAD Mechanical|Company: Autodesk, Inc."
 90
     1024
 91
        1
280
     0
281
     0
  0
CLASS
  1
ACMTHREADLINESTANDARDDIN
  2
AmdtThreadLineStdDIN
  3
"Amdt_StdImp|Product Description: AutoCAD Mechanical|Company: Autodesk, Inc."
 90
     1024
 91
        1
280
     0
281
     0
  0
CLASS
  1
ACMNOTESTANDARDDIN
  2
AmdtNoteStdDIN
  3
"Amdt_StdImp|Product Description: AutoCAD Mechanical|Company: Autodesk, Inc."
 90
     1024
 91
        1
280
     0
281
     0
  0
CLASS
  1
ACMTAPERSTANDARDDIN
  2
AcmTaperStdDIN
  3
"Amdt_StdImp|Product Description: AutoCAD Mechanical|Company: Autodesk, Inc."
 90
     1024
 91
        1
280
     0
281
     0
  0
CLASS
  1
ACMANOOTATIONVIEWSTANDARDDIN
  2
AmdtAnViewStdDIN
  3
"Amdt_StdImp|Product Description: AutoCAD Mechanical|Company: Autodesk, Inc."
 90
     1024
 91
        1
280
     0
281
     0
  0
CLASS
  1
ACAMGLAYSTD
  2
AcAmgLayStd
  3
"AmgLay|Product Description: AutoCAD Mechanical|Company: Autodesk, Inc."
 90
     1024
 91
        1
280
     0
281
     0
  0
CLASS
  1
ACAMGDIMSTD
  2
AcAmgDimStd
  3
"AmgDim|Product Description: AutoCAD Mechanical|Company: Autodesk, Inc."
 90
     1024
 91
        1
280
     0
281
     0
  0
CLASS
  1
AMGOBJPROPCFG
  2
AmgObjPropCfg
  3
"AmgLay|Product Description: AutoCAD Mechanical|Company: Autodesk, Inc."
 90
     1024
 91
        1
280
     0
281
     0
  0
CLASS
  1
ACAMGHOLECHARTSTDDIN
  2
AcAmgHoleChartStdDIN
  3
AmgDim|Product Description: AutoCAD Mechanical|Company: Autodesk, Inc.
 90
     1024
 91
        1
280
     0
281
     0
  0
CLASS
  1
ACAMGTITLESTD
  2
AcAmgTitleStd
  3
"AmgTitle|Product Description: AutoCAD Mechanical|Company: Autodesk, Inc."
 90
     1024
 91
        1
280
     0
281
     0
  0
CLASS
  1
AMDTNOTETEMPLATEDB
  2
AmdtNoteTemplateDB
  3
AcmSymBB|Product Description: AutoCAD Mechanical|Company: Autodesk, Inc.
 90
     1024
 91
        7
280
     0
281
     0
  0
CLASS
  1
ACAD_EVALUATION_GRAPH
  2
AcDbEvalGraph
  3
ObjectDBX Classes
 90
     1153
 91
        1
280
     0
281
     0
  0
CLASS
  1
ACAECUSTOBJ
  2
AcAeEditorObj
  3
AcAeEditorObj
 90
     1024
 91
        1
280
     0
281
     0
  0
CLASS
  1
ACAMGFILTERDAT
  2
AcAmgFilterDat
  3
"AcadM|Product Description: AutoCAD Mechanical|Company: Autodesk, Inc."
 90
     1024
 91
        6
280
     0
281
     0
  0
CLASS
  1
ACDB_DYNAMICBLOCKPURGEPREVENTER_VERSION
  2
AcDbDynamicBlockPurgePreventer
  3
ObjectDBX Classes
 90
     1153
 91
        1
280
     0
281
     0
  0
ENDSEC
  0
SECTION
  2
TABLES
  0
TABLE
  2
VPORT
  5
8
102
{ACAD_XDICTIONARY
360
136D
102
}
330
0
100
AcDbSymbolTable
 70
     1
  0
VPORT
  5
57
330
8
100
AcDbSymbolTableRecord
100
AcDbViewportTableRecord
  2
*Active
 70
     0
 10
0.0
 20
0.0
 11
1.0
 21
1.0
 12
102.5065175173015
 22
148.500000691507
 13
0.0
 23
0.0
 14
1.0
 24
1.0
 15
0.0
 25
0.0
 16
0.0
 26
0.0
 36
1.0
 17
0.0
 27
0.0
 37
0.0
 40
278.6654285129637
 41
1.778761061946902
 42
50.0
 43
0.0
 44
0.0
 50
0.0
 51
0.0
 71
     0
 72
   100
 73
     1
 74
     1
 75
     0
 76
     0
 77
     0
 78
     0
281
     0
 65
     1
110
0.0
120
0.0
130
0.0
111
1.0
121
0.0
131
0.0
112
0.0
122
1.0
132
0.0
 79
     0
146
0.0
1001
ACAD_NAV_VCDISPLAY
1070
     3
  0
ENDTAB
  0
TABLE
  2
LTYPE
  5
5
330
0
100
AcDbSymbolTable
 70
    62
  0
LTYPE
  5
5B
330
5
100
AcDbSymbolTableRecord
100
AcDbLinetypeTableRecord
  2
ByBlock
 70
     0
  3

 72
    65
 73
     0
 40
0.0
  0
LTYPE
  5
5C
330
5
100
AcDbSymbolTableRecord
100
AcDbLinetypeTableRecord
  2
ByLayer
 70
     0
  3

 72
    65
 73
     0
 40
0.0
  0
LTYPE
  5
5D
330
5
100
AcDbSymbolTableRecord
100
AcDbLinetypeTableRecord
  2
Continuous
 70
     0
  3
Solid line
 72
    65
 73
     0
 40
0.0
  0
LTYPE
  5
69
330
5
100
AcDbSymbolTableRecord
100
AcDbLinetypeTableRecord
  2
PHANTOM2
 70
     0
  3
Phantom (.5x) ___ _ _ ___ _ _ ___ _ _ ___ _ _
 72
    65
 73
     6
 40
1.25
 49
0.625
 74
     0
 49
-0.125
 74
     0
 49
0.125
 74
     0
 49
-0.125
 74
     0
 49
0.125
 74
     0
 49
-0.125
 74
     0
  0
LTYPE
  5
79
330
5
100
AcDbSymbolTableRecord
100
AcDbLinetypeTableRecord
  2
Section_View_Lines
 70
     0
  3
Section View Lines
 72
    65
 73
     4
 40
0.8406
 49
0.6614
 74
     0
 49
-0.0827
 74
     0
 49
0.0138
 74
     0
 49
-0.0827
 74
     0
  0
LTYPE
  5
7A
330
5
100
AcDbSymbolTableRecord
100
AcDbLinetypeTableRecord
  2
CHAIN
 70
     0
  3
Chain ____ _ ____ _ ____ _ ____ _ ____ _ ____
 72
    65
 73
     4
 40
0.3543
 49
0.2362
 74
     0
 49
-0.0295
 74
     0
 49
0.0591
 74
     0
 49
-0.0295
 74
     0
  0
LTYPE
  5
7B
330
5
100
AcDbSymbolTableRecord
100
AcDbLinetypeTableRecord
  2
DASH_DOT
 70
     0
  3
Dash dot _._._._._._._._._._._._._._._.
 72
    65
 73
     4
 40
0.37
 49
0.24
 74
     0
 49
-0.06
 74
     0
 49
0.01
 74
     0
 49
-0.06
 74
     0
  0
LTYPE
  5
7C
330
5
100
AcDbSymbolTableRecord
100
AcDbLinetypeTableRecord
  2
DASH_DOUBLE_DOT
 70
     0
  3
Dash Double Dot __ __ . __ __ . __ __ . __ _
 72
    65
 73
     6
 40
0.4398
 49
0.24
 74
     0
 49
-0.06
 74
     0
 49
0.0098
 74
     0
 49
-0.06
 74
     0
 49
0.01
 74
     0
 49
-0.06
 74
     0
  0
LTYPE
  5
7D
330
5
100
AcDbSymbolTableRecord
100
AcDbLinetypeTableRecord
  2
DASH_TRIPLE_DOT
 70
     0
  3
Dash Triple-Dot _ . . . _ . . . _ . . . _
 72
    65
 73
     8
 40
0.51
 49
0.24
 74
     0
 49
-0.06
 74
     0
 49
0.01
 74
     0
 49
-0.06
 74
     0
 49
0.01
 74
     0
 49
-0.06
 74
     0
 49
0.01
 74
     0
 49
-0.06
 74
     0
  0
LTYPE
  5
7E
330
5
100
AcDbSymbolTableRecord
100
AcDbLinetypeTableRecord
  2
DASHED
 70
     0
  3
Dashed __ __ __ __ __ __ __ __ __ __ __ __ __ _
 72
    65
 73
     2
 40
0.2067
 49
0.1654
 74
     0
 49
-0.0413
 74
     0
  0
LTYPE
  5
7F
330
5
100
AcDbSymbolTableRecord
100
AcDbLinetypeTableRecord
  2
DASHED_SPACE
 70
     0
  3
Dashed Space _._._._._._._._._._._._._._._.
 72
    65
 73
     2
 40
0.2067
 49
0.1654
 74
     0
 49
-0.0413
 74
     0
  0
LTYPE
  5
80
330
5
100
AcDbSymbolTableRecord
100
AcDbLinetypeTableRecord
  2
DOTTED
 70
     0
  3
Dotted . . . . . . . . . . . . . . . . . . . . 
 72
    65
 73
     2
 40
0.0482
 49
0.0069
 74
     0
 49
-0.0413
 74
     0
  0
LTYPE
  5
81
330
5
100
AcDbSymbolTableRecord
100
AcDbLinetypeTableRecord
  2
DOUBLE_DASH_CHAIN
 70
     0
  3
Double Dash Chain ___ _ _ ___ _ _ ___ _ _ ___ _
 72
    65
 73
     6
 40
1.240299999999999
 49
0.6614
 74
     0
 49
-0.0827
 74
     0
 49
0.1654
 74
     0
 49
-0.0827
 74
     0
 49
0.1654
 74
     0
 49
-0.0827
 74
     0
  0
LTYPE
  5
82
330
5
100
AcDbSymbolTableRecord
100
AcDbLinetypeTableRecord
  2
DOUBLE_DASH_DOT
 70
     0
  3
Double Dash Dot __ __ . __ __ . __ __ . __ _
 72
    65
 73
     6
 40
0.67
 49
0.24
 74
     0
 49
-0.06
 74
     0
 49
0.24
 74
     0
 49
-0.06
 74
     0
 49
0.01
 74
     0
 49
-0.06
 74
     0
  0
LTYPE
  5
83
330
5
100
AcDbSymbolTableRecord
100
AcDbLinetypeTableRecord
  2
DOUBLE_DASH_DOUBLE_DOT
 70
     0
  3
Double-dash double-dot _ _ . . _ _ . . _
 72
    65
 73
     8
 40
0.7400000000000001
 49
0.24
 74
     0
 49
-0.06
 74
     0
 49
0.24
 74
     0
 49
-0.06
 74
     0
 49
0.01
 74
     0
 49
-0.06
 74
     0
 49
0.01
 74
     0
 49
-0.06
 74
     0
  0
LTYPE
  5
84
330
5
100
AcDbSymbolTableRecord
100
AcDbLinetypeTableRecord
  2
DOUBLE_DASH_TRIPLE_DOT
 70
     0
  3
Double Dash Triple Dot __ __ . . . __ __ . . .
 72
    65
 73
    10
 40
0.8100000000000001
 49
0.24
 74
     0
 49
-0.06
 74
     0
 49
0.24
 74
     0
 49
-0.06
 74
     0
 49
0.01
 74
     0
 49
-0.06
 74
     0
 49
0.01
 74
     0
 49
-0.06
 74
     0
 49
0.01
 74
     0
 49
-0.06
 74
     0
  0
LTYPE
  5
85
330
5
100
AcDbSymbolTableRecord
100
AcDbLinetypeTableRecord
  2
LONG_DASH_DOTTED
 70
     0
  3
Long-Dash Dot ____ . ____ . ____ . ____ . _
 72
    65
 73
     4
 40
0.3001
 49
0.2362
 74
     0
 49
-0.0295
 74
     0
 49
0.0049
 74
     0
 49
-0.0295
 74
     0
  0
LTYPE
  5
86
330
5
100
AcDbSymbolTableRecord
100
AcDbLinetypeTableRecord
  2
LONG_DASH_DOUBLE_DOT
 70
     0
  3
Long Dash Double Dot ____ . . ____ . . ____ . .
 72
    65
 73
     6
 40
0.3345
 49
0.2362
 74
     0
 49
-0.0295
 74
     0
 49
0.0049
 74
     0
 49
-0.0295
 74
     0
 49
0.0049
 74
     0
 49
-0.0295
 74
     0
  0
LTYPE
  5
87
330
5
100
AcDbSymbolTableRecord
100
AcDbLinetypeTableRecord
  2
LONG_DASH_TRIPLE_DOT
 70
     0
  3
Long Dash Triple Dot ____ ... ____ ... ____
 72
    65
 73
     8
 40
0.75
 49
0.48
 74
     0
 49
-0.06
 74
     0
 49
0.01
 74
     0
 49
-0.06
 74
     0
 49
0.01
 74
     0
 49
-0.06
 74
     0
 49
0.01
 74
     0
 49
-0.06
 74
     0
  0
LTYPE
  5
88
330
5
100
AcDbSymbolTableRecord
100
AcDbLinetypeTableRecord
  2
BORDER
 70
     0
  3
Border __ __ . __ __ . __ __ . __ __ . __ __ .
 72
    65
 73
     6
 40
44.45
 49
12.7
 74
     0
 49
-6.349999999999999
 74
     0
 49
12.7
 74
     0
 49
-6.349999999999999
 74
     0
 49
0.0
 74
     0
 49
-6.349999999999999
 74
     0
  0
LTYPE
  5
89
330
5
100
AcDbSymbolTableRecord
100
AcDbLinetypeTableRecord
  2
BORDER2
 70
     0
  3
Border (.5x) __.__.__.__.__.__.__.__.__.__.__.
 72
    65
 73
     6
 40
22.225
 49
6.349999999999999
 74
     0
 49
-3.174999999999999
 74
     0
 49
6.349999999999999
 74
     0
 49
-3.174999999999999
 74
     0
 49
0.0
 74
     0
 49
-3.174999999999999
 74
     0
  0
LTYPE
  5
8A
330
5
100
AcDbSymbolTableRecord
100
AcDbLinetypeTableRecord
  2
BORDERX2
 70
     0
  3
Border (2x) ____  ____  .  ____  ____  .  ___
 72
    65
 73
     6
 40
88.9
 49
25.4
 74
     0
 49
-12.7
 74
     0
 49
25.4
 74
     0
 49
-12.7
 74
     0
 49
0.0
 74
     0
 49
-12.7
 74
     0
  0
LTYPE
  5
8B
330
5
100
AcDbSymbolTableRecord
100
AcDbLinetypeTableRecord
  2
CENTER
 70
     0
  3
Center ____ _ ____ _ ____ _ ____ _ ____ _ ____
 72
    65
 73
     4
 40
50.8
 49
31.75
 74
     0
 49
-6.349999999999999
 74
     0
 49
6.349999999999999
 74
     0
 49
-6.349999999999999
 74
     0
  0
LTYPE
  5
8C
330
5
100
AcDbSymbolTableRecord
100
AcDbLinetypeTableRecord
  2
CENTER2
 70
     0
  3
Center (.5x) ___ _ ___ _ ___ _ ___ _ ___ _ ___
 72
    65
 73
     4
 40
28.575
 49
19.05
 74
     0
 49
-3.174999999999999
 74
     0
 49
3.174999999999999
 74
     0
 49
-3.174999999999999
 74
     0
  0
LTYPE
  5
8D
330
5
100
AcDbSymbolTableRecord
100
AcDbLinetypeTableRecord
  2
CENTERX2
 70
     0
  3
Center (2x) ________  __  ________  __  _____
 72
    65
 73
     4
 40
101.6
 49
63.5
 74
     0
 49
-12.7
 74
     0
 49
12.7
 74
     0
 49
-12.7
 74
     0
  0
LTYPE
  5
8E
330
5
100
AcDbSymbolTableRecord
100
AcDbLinetypeTableRecord
  2
DASHDOT2
 70
     0
  3
Dash dot (.5x) _._._._._._._._._._._._._._._.
 72
    65
 73
     4
 40
12.7
 49
6.349999999999999
 74
     0
 49
-3.174999999999999
 74
     0
 49
0.0
 74
     0
 49
-3.174999999999999
 74
     0
  0
LTYPE
  5
8F
330
5
100
AcDbSymbolTableRecord
100
AcDbLinetypeTableRecord
  2
DASHDOTX2
 70
     0
  3
Dash dot (2x) ____  .  ____  .  ____  .  ___
 72
    65
 73
     4
 40
50.8
 49
25.4
 74
     0
 49
-12.7
 74
     0
 49
0.0
 74
     0
 49
-12.7
 74
     0
  0
LTYPE
  5
90
330
5
100
AcDbSymbolTableRecord
100
AcDbLinetypeTableRecord
  2
DASHED2
 70
     0
  3
Dashed (.5x) _ _ _ _ _ _ _ _ _ _ _ _ _ _ _ _ _
 72
    65
 73
     2
 40
9.524999999999998
 49
6.349999999999999
 74
     0
 49
-3.174999999999999
 74
     0
  0
LTYPE
  5
91
330
5
100
AcDbSymbolTableRecord
100
AcDbLinetypeTableRecord
  2
DASHEDX2
 70
     0
  3
Dashed (2x) ____  ____  ____  ____  ____  ___
 72
    65
 73
     2
 40
38.1
 49
25.4
 74
     0
 49
-12.7
 74
     0
  0
LTYPE
  5
92
330
5
100
AcDbSymbolTableRecord
100
AcDbLinetypeTableRecord
  2
DIVIDE
 70
     0
  3
Divide ____ . . ____ . . ____ . . ____ . . ____
 72
    65
 73
     6
 40
31.75
 49
12.7
 74
     0
 49
-6.349999999999999
 74
     0
 49
0.0
 74
     0
 49
-6.349999999999999
 74
     0
 49
0.0
 74
     0
 49
-6.349999999999999
 74
     0
  0
LTYPE
  5
93
330
5
100
AcDbSymbolTableRecord
100
AcDbLinetypeTableRecord
  2
DIVIDE2
 70
     0
  3
Divide (.5x) __..__..__..__..__..__..__..__.._
 72
    65
 73
     6
 40
15.875
 49
6.349999999999999
 74
     0
 49
-3.174999999999999
 74
     0
 49
0.0
 74
     0
 49
-3.174999999999999
 74
     0
 49
0.0
 74
     0
 49
-3.174999999999999
 74
     0
  0
LTYPE
  5
94
330
5
100
AcDbSymbolTableRecord
100
AcDbLinetypeTableRecord
  2
DIVIDEX2
 70
     0
  3
Divide (2x) ________  .  .  ________  .  .  _
 72
    65
 73
     6
 40
63.49999999999999
 49
25.4
 74
     0
 49
-12.7
 74
     0
 49
0.0
 74
     0
 49
-12.7
 74
     0
 49
0.0
 74
     0
 49
-12.7
 74
     0
  0
LTYPE
  5
95
330
5
100
AcDbSymbolTableRecord
100
AcDbLinetypeTableRecord
  2
DOT
 70
     0
  3
Dot . . . . . . . . . . . . . . . . . . . . . .
 72
    65
 73
     2
 40
6.349999999999999
 49
0.0
 74
     0
 49
-6.349999999999999
 74
     0
  0
LTYPE
  5
96
330
5
100
AcDbSymbolTableRecord
100
AcDbLinetypeTableRecord
  2
DOT2
 70
     0
  3
Dot (.5x) .....................................
 72
    65
 73
     2
 40
3.174999999999999
 49
0.0
 74
     0
 49
-3.174999999999999
 74
     0
  0
LTYPE
  5
97
330
5
100
AcDbSymbolTableRecord
100
AcDbLinetypeTableRecord
  2
DOTX2
 70
     0
  3
Dot (2x) .  .  .  .  .  .  .  .  .  .  .  .  . 
 72
    65
 73
     2
 40
12.7
 49
0.0
 74
     0
 49
-12.7
 74
     0
  0
LTYPE
  5
98
330
5
100
AcDbSymbolTableRecord
100
AcDbLinetypeTableRecord
  2
HIDDEN
 70
     0
  3
Hidden __ __ __ __ __ __ __ __ __ __ __ __ __ _
 72
    65
 73
     2
 40
9.524999999999998
 49
6.349999999999999
 74
     0
 49
-3.174999999999999
 74
     0
  0
LTYPE
  5
99
330
5
100
AcDbSymbolTableRecord
100
AcDbLinetypeTableRecord
  2
HIDDEN2
 70
     0
  3
Hidden (.5x) _ _ _ _ _ _ _ _ _ _ _ _ _ _ _ _ _
 72
    65
 73
     2
 40
4.762499999999999
 49
3.174999999999999
 74
     0
 49
-1.587499999999999
 74
     0
  0
LTYPE
  5
9A
330
5
100
AcDbSymbolTableRecord
100
AcDbLinetypeTableRecord
  2
HIDDENX2
 70
     0
  3
Hidden (2x) ____ ____ ____ ____ ____ ____ ____
 72
    65
 73
     2
 40
19.05
 49
12.7
 74
     0
 49
-6.349999999999999
 74
     0
  0
LTYPE
  5
9B
330
5
100
AcDbSymbolTableRecord
100
AcDbLinetypeTableRecord
  2
PHANTOM
 70
     0
  3
Phantom ______  __  __  ______  __  __  ______
 72
    65
 73
     6
 40
63.5
 49
31.75
 74
     0
 49
-6.349999999999999
 74
     0
 49
6.349999999999999
 74
     0
 49
-6.349999999999999
 74
     0
 49
6.349999999999999
 74
     0
 49
-6.349999999999999
 74
     0
  0
LTYPE
  5
9D
330
5
100
AcDbSymbolTableRecord
100
AcDbLinetypeTableRecord
  2
PHANTOMX2
 70
     0
  3
Phantom (2x) ____________    ____    ____   _
 72
    65
 73
     6
 40
127.0
 49
63.5
 74
     0
 49
-12.7
 74
     0
 49
12.7
 74
     0
 49
-12.7
 74
     0
 49
12.7
 74
     0
 49
-12.7
 74
     0
  0
LTYPE
  5
9E
330
5
100
AcDbSymbolTableRecord
100
AcDbLinetypeTableRecord
  2
ACAD_ISO02W100
 70
     0
  3
ISO dash __ __ __ __ __ __ __ __ __ __ __ __ __
 72
    65
 73
     2
 40
15.0
 49
12.0
 74
     0
 49
-3.0
 74
     0
  0
LTYPE
  5
9F
330
5
100
AcDbSymbolTableRecord
100
AcDbLinetypeTableRecord
  2
ACAD_ISO03W100
 70
     0
  3
ISO dash space __    __    __    __    __    __
 72
    65
 73
     2
 40
30.0
 49
12.0
 74
     0
 49
-18.0
 74
     0
  0
LTYPE
  5
A0
330
5
100
AcDbSymbolTableRecord
100
AcDbLinetypeTableRecord
  2
ACAD_ISO04W100
 70
     0
  3
ISO long-dash dot ____ . ____ . ____ . ____ . _
 72
    65
 73
     4
 40
30.0
 49
24.0
 74
     0
 49
-3.0
 74
     0
 49
0.0
 74
     0
 49
-3.0
 74
     0
  0
LTYPE
  5
A1
330
5
100
AcDbSymbolTableRecord
100
AcDbLinetypeTableRecord
  2
ACAD_ISO05W100
 70
     0
  3
ISO long-dash double-dot ____ .. ____ .. ____ .
 72
    65
 73
     6
 40
33.0
 49
24.0
 74
     0
 49
-3.0
 74
     0
 49
0.0
 74
     0
 49
-3.0
 74
     0
 49
0.0
 74
     0
 49
-3.0
 74
     0
  0
LTYPE
  5
A2
330
5
100
AcDbSymbolTableRecord
100
AcDbLinetypeTableRecord
  2
ACAD_ISO06W100
 70
     0
  3
ISO long-dash triple-dot ____ ... ____ ... ____
 72
    65
 73
     8
 40
36.0
 49
24.0
 74
     0
 49
-3.0
 74
     0
 49
0.0
 74
     0
 49
-3.0
 74
     0
 49
0.0
 74
     0
 49
-3.0
 74
     0
 49
0.0
 74
     0
 49
-3.0
 74
     0
  0
LTYPE
  5
A3
330
5
100
AcDbSymbolTableRecord
100
AcDbLinetypeTableRecord
  2
ACAD_ISO07W100
 70
     0
  3
ISO dot . . . . . . . . . . . . . . . . . . . .
 72
    65
 73
     2
 40
3.0
 49
0.0
 74
     0
 49
-3.0
 74
     0
  0
LTYPE
  5
A4
330
5
100
AcDbSymbolTableRecord
100
AcDbLinetypeTableRecord
  2
ACAD_ISO08W100
 70
     0
  3
ISO long-dash short-dash ____ __ ____ __ ____ _
 72
    65
 73
     4
 40
36.0
 49
24.0
 74
     0
 49
-3.0
 74
     0
 49
6.0
 74
     0
 49
-3.0
 74
     0
  0
LTYPE
  5
A5
330
5
100
AcDbSymbolTableRecord
100
AcDbLinetypeTableRecord
  2
ACAD_ISO09W100
 70
     0
  3
ISO long-dash double-short-dash ____ __ __ ____
 72
    65
 73
     6
 40
45.0
 49
24.0
 74
     0
 49
-3.0
 74
     0
 49
6.0
 74
     0
 49
-3.0
 74
     0
 49
6.0
 74
     0
 49
-3.0
 74
     0
  0
LTYPE
  5
A6
330
5
100
AcDbSymbolTableRecord
100
AcDbLinetypeTableRecord
  2
ACAD_ISO10W100
 70
     0
  3
ISO dash dot __ . __ . __ . __ . __ . __ . __ .
 72
    65
 73
     4
 40
18.0
 49
12.0
 74
     0
 49
-3.0
 74
     0
 49
0.0
 74
     0
 49
-3.0
 74
     0
  0
LTYPE
  5
A7
330
5
100
AcDbSymbolTableRecord
100
AcDbLinetypeTableRecord
  2
ACAD_ISO11W100
 70
     0
  3
ISO double-dash dot __ __ . __ __ . __ __ . __ 
 72
    65
 73
     6
 40
33.0
 49
12.0
 74
     0
 49
-3.0
 74
     0
 49
12.0
 74
     0
 49
-3.0
 74
     0
 49
0.0
 74
     0
 49
-3.0
 74
     0
  0
LTYPE
  5
A8
330
5
100
AcDbSymbolTableRecord
100
AcDbLinetypeTableRecord
  2
ACAD_ISO12W100
 70
     0
  3
ISO dash double-dot __ . . __ . . __ . . __ . .
 72
    65
 73
     6
 40
21.0
 49
12.0
 74
     0
 49
-3.0
 74
     0
 49
0.0
 74
     0
 49
-3.0
 74
     0
 49
0.0
 74
     0
 49
-3.0
 74
     0
  0
LTYPE
  5
A9
330
5
100
AcDbSymbolTableRecord
100
AcDbLinetypeTableRecord
  2
ACAD_ISO13W100
 70
     0
  3
ISO double-dash double-dot __ __ . . __ __ . . 
 72
    65
 73
     8
 40
36.0
 49
12.0
 74
     0
 49
-3.0
 74
     0
 49
12.0
 74
     0
 49
-3.0
 74
     0
 49
0.0
 74
     0
 49
-3.0
 74
     0
 49
0.0
 74
     0
 49
-3.0
 74
     0
  0
LTYPE
  5
AA
330
5
100
AcDbSymbolTableRecord
100
AcDbLinetypeTableRecord
  2
ACAD_ISO14W100
 70
     0
  3
ISO dash triple-dot __ . . . __ . . . __ . . . 
 72
    65
 73
     8
 40
24.0
 49
12.0
 74
     0
 49
-3.0
 74
     0
 49
0.0
 74
     0
 49
-3.0
 74
     0
 49
0.0
 74
     0
 49
-3.0
 74
     0
 49
0.0
 74
     0
 49
-3.0
 74
     0
  0
LTYPE
  5
AB
330
5
100
AcDbSymbolTableRecord
100
AcDbLinetypeTableRecord
  2
ACAD_ISO15W100
 70
     0
  3
ISO double-dash triple-dot __ __ . . . __ __ . 
 72
    65
 73
    10
 40
39.0
 49
12.0
 74
     0
 49
-3.0
 74
     0
 49
12.0
 74
     0
 49
-3.0
 74
     0
 49
0.0
 74
     0
 49
-3.0
 74
     0
 49
0.0
 74
     0
 49
-3.0
 74
     0
 49
0.0
 74
     0
 49
-3.0
 74
     0
  0
LTYPE
  5
AE
330
5
100
AcDbSymbolTableRecord
100
AcDbLinetypeTableRecord
  2
FENCELINE1
 70
     0
  3
Fenceline circle ----0-----0----0-----0----0---
 72
    65
 73
     4
 40
36.83
 49
6.349999999999999
 74
     0
 49
-2.54
 74
     4
 75
   133
340
AD
 46
2.54
 50
0.0
 44
-2.54
 45
0.0
 49
-2.54
 74
     0
 49
25.4
 74
     0
  0
LTYPE
  5
AF
330
5
100
AcDbSymbolTableRecord
100
AcDbLinetypeTableRecord
  2
FENCELINE2
 70
     0
  3
Fenceline square ----[]-----[]----[]-----[]----
 72
    65
 73
     4
 40
36.83
 49
6.349999999999999
 74
     0
 49
-2.54
 74
     4
 75
   132
340
AD
 46
2.54
 50
0.0
 44
-2.54
 45
0.0
 49
-2.54
 74
     0
 49
25.4
 74
     0
  0
LTYPE
  5
B0
330
5
100
AcDbSymbolTableRecord
100
AcDbLinetypeTableRecord
  2
TRACKS
 70
     0
  3
Tracks -|-|-|-|-|-|-|-|-|-|-|-|-|-|-|-|-|-|-|-|
 72
    65
 73
     2
 40
7.62
 49
3.81
 74
     4
 75
   130
340
AD
 46
6.349999999999999
 50
0.0
 44
0.0
 45
0.0
 49
3.81
 74
     0
  0
LTYPE
  5
B1
330
5
100
AcDbSymbolTableRecord
100
AcDbLinetypeTableRecord
  2
BATTING
 70
     0
  3
Batting SSSSSSSSSSSSSSSSSSSSSSSSSSSSSSSSSSSSSSS
 72
    65
 73
     4
 40
10.16254
 49
0.00254
 74
     0
 49
-2.54
 74
     4
 75
   134
340
AD
 46
2.54
 50
0.0
 44
-2.54
 45
0.0
 49
-5.08
 74
     4
 75
   134
340
AD
 46
2.54
 50
180.0
 44
2.54
 45
0.0
 49
-2.54
 74
     0
  0
LTYPE
  5
B2
330
5
100
AcDbSymbolTableRecord
100
AcDbLinetypeTableRecord
  2
HOT_WATER_SUPPLY
 70
     0
  3
Hot water supply ---- HW ---- HW ---- HW ----
 72
    65
 73
     3
 40
22.86
 49
12.7
 74
     0
 49
-5.08
 74
     2
 75
     0
340
55
 46
2.54
 50
0.0
 44
-2.54
 45
-1.27
  9
HW
 49
-5.08
 74
     0
  0
LTYPE
  5
B3
330
5
100
AcDbSymbolTableRecord
100
AcDbLinetypeTableRecord
  2
GAS_LINE
 70
     0
  3
Gas line ----GAS----GAS----GAS----GAS----GAS---
 72
    65
 73
     3
 40
24.13
 49
12.7
 74
     0
 49
-5.08
 74
     2
 75
     0
340
55
 46
2.54
 50
0.0
 44
-2.54
 45
-1.27
  9
GAS
 49
-6.349999999999999
 74
     0
  0
LTYPE
  5
B4
330
5
100
AcDbSymbolTableRecord
100
AcDbLinetypeTableRecord
  2
ZIGZAG
 70
     0
  3
Zig zag /\/\/\/\/\/\/\/\/\/\/\/\/\/\/\/\/\/\/\/
 72
    65
 73
     4
 40
20.32254
 49
0.00254
 74
     0
 49
-5.08
 74
     4
 75
   131
340
AD
 46
5.08
 50
0.0
 44
-5.08
 45
0.0
 49
-10.16
 74
     4
 75
   131
340
AD
 46
5.08
 50
180.0
 44
5.08
 45
0.0
 49
-5.08
 74
     0
  0
LTYPE
  5
141A
330
5
100
AcDbSymbolTableRecord
100
AcDbLinetypeTableRecord
  2
ACDINWELD
 70
     0
  3
_ _ _ _ _
 72
    65
 73
     2
 40
2.0
 49
2.0
 74
     0
 49
-1.0
 74
     0
  0
LTYPE
  5
141B
330
5
100
AcDbSymbolTableRecord
100
AcDbLinetypeTableRecord
  2
ACDINTGL
 70
     0
  3
_ _ _ _ _
 72
    65
 73
     2
 40
3.0
 49
2.0
 74
     0
 49
-1.0
 74
     0
  0
LTYPE
  5
141C
330
5
100
AcDbSymbolTableRecord
100
AcDbLinetypeTableRecord
  2
ACDINTGB
 70
     0
  3
__ . . __ . .
 72
    65
 73
     6
 40
9.0
 49
4.0
 74
     0
 49
-1.0
 74
     0
 49
1.0
 74
     0
 49
-1.0
 74
     0
 49
1.0
 74
     0
 49
-1.0
 74
     0
  0
ENDTAB
  0
TABLE
  2
LAYER
  5
2
102
{ACAD_XDICTIONARY
360
147C
102
}
330
0
100
AcDbSymbolTable
 70
    10
  0
LAYER
  5
54
330
2
100
AcDbSymbolTableRecord
100
AcDbLayerTableRecord
  2
0
 70
     0
 62
     7
  6
Continuous
370
    -3
390
F
  0
LAYER
  5
BD
330
2
100
AcDbSymbolTableRecord
100
AcDbLayerTableRecord
  2
Bemaßung (ISO)
 70
     0
 62
     7
  6
Continuous
370
    25
390
F
  0
LAYER
  5
D9
330
2
100
AcDbSymbolTableRecord
100
AcDbLayerTableRecord
  2
Rahmen (ISO)
 70
     0
 62
     7
  6
Continuous
370
    70
390
F
  0
LAYER
  5
E3
330
2
100
AcDbSymbolTableRecord
100
AcDbLayerTableRecord
  2
Sichtbar (ISO)
 70
     0
 62
     7
  6
Continuous
370
    50
390
F
  0
LAYER
  5
E4
330
2
100
AcDbSymbolTableRecord
100
AcDbLayerTableRecord
  2
Sichtbar schmal (ISO)
 70
     0
 62
     7
  6
Continuous
370
    35
390
F
  0
LAYER
  5
ED
330
2
100
AcDbSymbolTableRecord
100
AcDbLayerTableRecord
  2
Symbol (ISO)
 70
     0
 62
     7
  6
Continuous
370
    25
390
F
  0
LAYER
  5
F1
330
2
100
AcDbSymbolTableRecord
100
AcDbLayerTableRecord
  2
Titel (ISO)
 70
     0
 62
     7
  6
Continuous
370
    50
390
F
  0
LAYER
  5
F2
330
2
100
AcDbSymbolTableRecord
100
AcDbLayerTableRecord
  2
Titel 0_35
 70
     0
 62
     7
  6
Continuous
370
    35
390
F
  0
LAYER
  5
F5
330
2
100
AcDbSymbolTableRecord
100
AcDbLayerTableRecord
  2
Verdeckt (ISO)
 70
     0
 62
     7
  6
DASHED
370
    35
390
F
  0
LAYER
  5
1F9
330
2
100
AcDbSymbolTableRecord
100
AcDbLayerTableRecord
  2
Defpoints
 70
     0
 62
     7
  6
Continuous
290
     0
370
    -3
390
F
  0
ENDTAB
  0
TABLE
  2
STYLE
  5
3
330
0
100
AcDbSymbolTable
 70
    25
  0
STYLE
  5
55
330
3
100
AcDbSymbolTableRecord
100
AcDbTextStyleTableRecord
  2
Standard
 70
     0
 40
0.0
 41
1.0
 50
0.0
 71
     0
 42
0.2
  3
isocpeur.ttf
  4

1001
ACAD
1000
ISOCPEUR
1071
      256
  0
STYLE
  5
5A
330
3
100
AcDbSymbolTableRecord
100
AcDbTextStyleTableRecord
  2
Annotative
 70
     0
 40
0.0
 41
1.0
 50
0.0
 71
     0
 42
0.2
  3
txt
  4

1001
AcadAnnotative
1000
AnnotativeData
1002
{
1070
     1
1070
     1
1002
}
  0
STYLE
  5
AD
330
3
100
AcDbSymbolTableRecord
100
AcDbTextStyleTableRecord
  2

 70
     1
 40
0.0
 41
1.0
 50
0.0
 71
     0
 42
0.2
  3
ltypeshp.shx
  4

  0
STYLE
  5
F9
330
3
100
AcDbSymbolTableRecord
100
AcDbTextStyleTableRecord
  2
Aktuell-DIN-Laser
 70
     0
 40
0.0
 41
1.0
 50
0.0
 71
     0
 42
0.2
  3
arial.ttf
  4

1001
ACAD
1000
Arial
1071
      256
  0
STYLE
  5
FA
330
3
100
AcDbSymbolTableRecord
100
AcDbTextStyleTableRecord
  2
Aktuell-DIN-LaserGroßer Text
 70
     0
 40
0.0
 41
1.0
 50
0.0
 71
     0
 42
0.2
  3
arial.ttf
  4

1001
ACAD
1000
Arial
1071
      256
  0
STYLE
  5
FB
330
3
100
AcDbSymbolTableRecord
100
AcDbTextStyleTableRecord
  2
Aktuell-DIN-LaserNach Layer
 70
     0
 40
0.0
 41
1.0
 50
0.0
 71
     0
 42
0.2
  3
arial.ttf
  4

1001
ACAD
1000
Arial
1071
      256
  0
STYLE
  5
FC
330
3
100
AcDbSymbolTableRecord
100
AcDbTextStyleTableRecord
  2
Beschriftungen
 70
     0
 40
0.0
 41
1.0
 50
0.0
 71
     0
 42
0.2
  3
arial.ttf
  4

1001
ACAD
1000
Arial
1071
      256
  0
STYLE
  5
FD
330
3
100
AcDbSymbolTableRecord
100
AcDbTextStyleTableRecord
  2
Beschriftungen-Autocad-Farbe
 70
     0
 40
0.0
 41
1.0
 50
0.0
 71
     0
 42
0.2
  3
swissl.ttf
  4

1001
ACAD
1000
Swis721 Lt BT
1071
      256
  0
STYLE
  5
FE
330
3
100
AcDbSymbolTableRecord
100
AcDbTextStyleTableRecord
  2
BeschriftungenNach Layer
 70
     0
 40
0.0
 41
1.0
 50
0.0
 71
     0
 42
0.2
  3
arial.ttf
  4

1001
ACAD
1000
Arial
1071
      256
  0
STYLE
  5
FF
330
3
100
AcDbSymbolTableRecord
100
AcDbTextStyleTableRecord
  2
Bezeichnungstext (DIN)
 70
     0
 40
0.0
 41
1.0
 50
0.0
 71
     0
 42
0.2
  3
isocpeur.ttf
  4

1001
ACAD
1000
ISOCPEUR
1071
      256
  0
STYLE
  5
100
330
3
100
AcDbSymbolTableRecord
100
AcDbTextStyleTableRecord
  2
DIN - Andere-Laser
 70
     0
 40
0.0
 41
1.0
 50
0.0
 71
     0
 42
0.2
  3
arial.ttf
  4

1001
ACAD
1000
Arial
1071
      256
  0
STYLE
  5
101
330
3
100
AcDbSymbolTableRecord
100
AcDbTextStyleTableRecord
  2
Notiztext (DIN)
 70
     0
 40
0.0
 41
1.0
 50
0.0
 71
     0
 42
0.2
  3
isocpeur.ttf
  4

1001
ACAD
1000
ISOCPEUR
1071
      256
  0
STYLE
  5
102
330
3
100
AcDbSymbolTableRecord
100
AcDbTextStyleTableRecord
  2
Notiztext(DIN) 2_5 mm
 70
     0
 40
0.0
 41
1.0
 50
0.0
 71
     0
 42
0.2
  3
isocpeur.ttf
  4

1001
ACAD
1000
ISOCPEUR
1071
      256
  0
STYLE
  5
103
330
3
100
AcDbSymbolTableRecord
100
AcDbTextStyleTableRecord
  2
Notiztext(DIN) 3mm
 70
     0
 40
0.0
 41
1.0
 50
0.0
 71
     0
 42
0.2
  3
isocpeur.ttf
  4

1001
ACAD
1000
ISOCPEUR
1071
      256
  0
STYLE
  5
104
330
3
100
AcDbSymbolTableRecord
100
AcDbTextStyleTableRecord
  2
STANDARD-Laser
 70
     0
 40
0.0
 41
1.0
 50
0.0
 71
     0
 42
0.2
  3
arial.ttf
  4

1001
ACAD
1000
Arial
1071
      256
  0
STYLE
  5
105
330
3
100
AcDbSymbolTableRecord
100
AcDbTextStyleTableRecord
  2
STANDARD-LaserNach Layer
 70
     0
 40
0.0
 41
1.0
 50
0.0
 71
     0
 42
0.2
  3
arial.ttf
  4

1001
ACAD
1000
Arial
1071
      256
  0
STYLE
  5
15F
330
3
100
AcDbSymbolTableRecord
100
AcDbTextStyleTableRecord
  2
Textstil13
 70
     0
 40
0.0
 41
1.0
 50
0.0
 71
     0
 42
0.2
  3
isocpeur.ttf
  4

1001
ACAD
1000
ISOCPEUR
1071
      256
  0
STYLE
  5
165
330
3
100
AcDbSymbolTableRecord
100
AcDbTextStyleTableRecord
  2
Textstil26
 70
     0
 40
0.0
 41
1.0
 50
0.0
 71
     0
 42
0.2
  3
isocpeur.ttf
  4

1001
ACAD
1000
ISOCPEUR
1071
      256
  0
STYLE
  5
169
330
3
100
AcDbSymbolTableRecord
100
AcDbTextStyleTableRecord
  2
Textstil14
 70
     0
 40
0.0
 41
1.0
 50
0.0
 71
     0
 42
0.2
  3
isocpeur.ttf
  4

1001
ACAD
1000
ISOCPEUR
1071
      256
  0
STYLE
  5
177
330
3
100
AcDbSymbolTableRecord
100
AcDbTextStyleTableRecord
  2
Textstil12
 70
     0
 40
0.0
 41
1.0
 50
0.0
 71
     0
 42
0.2
  3
isocpeur.ttf
  4

1001
ACAD
1000
ISOCPEUR
1071
      256
  0
STYLE
  5
17A
330
3
100
AcDbSymbolTableRecord
100
AcDbTextStyleTableRecord
  2
Textstil11
 70
     0
 40
0.0
 41
1.0
 50
0.0
 71
     0
 42
0.2
  3
isocpeur.ttf
  4

1001
ACAD
1000
ISOCPEUR
1071
      256
  0
STYLE
  5
181
330
3
100
AcDbSymbolTableRecord
100
AcDbTextStyleTableRecord
  2
Textstil30
 70
     0
 40
0.0
 41
1.0
 50
0.0
 71
     0
 42
0.2
  3
isocpeur.ttf
  4

1001
ACAD
1000
ISOCPEUR
1071
      256
  0
STYLE
  5
1418
330
3
100
AcDbSymbolTableRecord
100
AcDbTextStyleTableRecord
  2
ACDINTS
 70
     0
 40
1.0
 41
1.0
 50
0.0
 71
     0
 42
0.2
  3
isocp.shx
  4

  0
STYLE
  5
1419
330
3
100
AcDbSymbolTableRecord
100
AcDbTextStyleTableRecord
  2
ACDINGDT
 70
     0
 40
0.0
 41
1.0
 50
0.0
 71
     0
 42
0.2
  3
amgdt.shx
  4

  0
STYLE
  5
147A
330
3
100
AcDbSymbolTableRecord
100
AcDbTextStyleTableRecord
  2
Huxaria_Ecobelt
 70
     0
 40
0.0
 41
1.0
 50
0.0
 71
     0
 42
0.2
  3
arial.ttf
  4

1001
ACAD
1000
Arial
1071
      256
  0
ENDTAB
  0
TABLE
  2
VIEW
  5
6
330
0
100
AcDbSymbolTable
 70
     0
  0
ENDTAB
  0
TABLE
  2
UCS
  5
7
330
0
100
AcDbSymbolTable
 70
     0
  0
ENDTAB
  0
TABLE
  2
APPID
  5
9
330
0
100
AcDbSymbolTable
 70
    19
  0
APPID
  5
56
330
9
100
AcDbSymbolTableRecord
100
AcDbRegAppTableRecord
  2
ACAD
 70
     0
  0
APPID
  5
5E
330
9
100
AcDbSymbolTableRecord
100
AcDbRegAppTableRecord
  2
AcadAnnotative
 70
     0
  0
APPID
  5
179
330
9
100
AcDbSymbolTableRecord
100
AcDbRegAppTableRecord
  2
AcadAnnoPO
 70
     0
  0
APPID
  5
AAC
330
9
100
AcDbSymbolTableRecord
100
AcDbRegAppTableRecord
  2
ACAD_DSTYLE_DIMRADIAL_EXTENSION
 70
     0
  0
APPID
  5
13A3
330
9
100
AcDbSymbolTableRecord
100
AcDbRegAppTableRecord
  2
ACAD_MLEADERVER
 70
     0
  0
APPID
  5
13C9
330
9
100
AcDbSymbolTableRecord
100
AcDbRegAppTableRecord
  2
MCAD_NO_VIS
 70
     0
  0
APPID
  5
13CA
330
9
100
AcDbSymbolTableRecord
100
AcDbRegAppTableRecord
  2
ACAD_TEMP_GRAPHIC
 70
     0
  0
APPID
  5
13D4
330
9
100
AcDbSymbolTableRecord
100
AcDbRegAppTableRecord
  2
ACATTRIBSERVICES
 70
     0
  0
APPID
  5
13EC
330
9
100
AcDbSymbolTableRecord
100
AcDbRegAppTableRecord
  2
DESIGNERASSEMBLIES
 70
     0
  0
APPID
  5
1409
330
9
100
AcDbSymbolTableRecord
100
AcDbRegAppTableRecord
  2
ACAD_DSTYLE_DIMJAG
 70
     0
  0
APPID
  5
140A
330
9
100
AcDbSymbolTableRecord
100
AcDbRegAppTableRecord
  2
ACAD_DSTYLE_DIMBREAK
 70
     0
  0
APPID
  5
1424
330
9
100
AcDbSymbolTableRecord
100
AcDbRegAppTableRecord
  2
ACAD_NAV_VCDISPLAY
 70
     0
  0
APPID
  5
1475
330
9
100
AcDbSymbolTableRecord
100
AcDbRegAppTableRecord
  2
ACAUTHENVIRON
 70
     0
  0
APPID
  5
1490
330
9
100
AcDbSymbolTableRecord
100
AcDbRegAppTableRecord
  2
AcDbDynamicBlockTrueName
 70
     0
  0
APPID
  5
1491
330
9
100
AcDbSymbolTableRecord
100
AcDbRegAppTableRecord
  2
AcDbDynamicBlockGUID
 70
     0
  0
APPID
  5
155B
330
9
100
AcDbSymbolTableRecord
100
AcDbRegAppTableRecord
  2
ACAD_DSTYLE_DIMJOGGED_JOGANGLE_SYMBOL
 70
     0
  0
APPID
  5
155C
330
9
100
AcDbSymbolTableRecord
100
AcDbRegAppTableRecord
  2
ACAD_DSTYLE_DIM_LINETYPE
 70
     0
  0
APPID
  5
155D
330
9
100
AcDbSymbolTableRecord
100
AcDbRegAppTableRecord
  2
ACAD_DSTYLE_DIM_EXT1_LINETYPE
 70
     0
  0
APPID
  5
155E
330
9
100
AcDbSymbolTableRecord
100
AcDbRegAppTableRecord
  2
ACAD_DSTYLE_DIM_EXT2_LINETYPE
 70
     0
  0
ENDTAB
  0
TABLE
  2
DIMSTYLE
  5
A
330
0
100
AcDbSymbolTable
 70
    32
100
AcDbDimStyleTable
 71
     2
340
123
340
58
  0
DIMSTYLE
105
58
330
A
100
AcDbSymbolTableRecord
100
AcDbDimStyleTableRecord
  2
Standard
 70
     0
340
55
  0
DIMSTYLE
105
59
330
A
100
AcDbSymbolTableRecord
100
AcDbDimStyleTableRecord
  2
Annotative
 70
     0
340
55
1001
AcadAnnotative
1000
AnnotativeData
1002
{
1070
     1
1070
     1
1002
}
  0
DIMSTYLE
105
106
330
A
100
AcDbSymbolTableRecord
100
AcDbDimStyleTableRecord
  2
DIN - Andere-Laser
 70
     0
 41
2.5
 42
0.0
 43
7.0
 44
2.0
 45
0.00000001
 46
8.0
 73
     0
 74
     0
 77
     1
 78
     8
 79
     2
140
2.5
143
0.03937
147
0.8
171
     3
172
     1
176
     8
177
     8
178
     9
179
     1
271
     1
272
     2
274
     3
278
    44
284
     8
286
     8
340
100
371
    25
372
    25
  0
DIMSTYLE
105
107
330
A
100
AcDbSymbolTableRecord
100
AcDbDimStyleTableRecord
  2
DIN - Andere-Laser$7
 70
     0
 41
2.5
 42
0.0
 43
7.0
 44
2.0
 45
0.00000001
 46
8.0
 73
     0
 74
     0
 77
     1
 78
     8
 79
     2
140
2.5
143
0.03937
147
0.8
171
     3
172
     1
176
     7
177
     8
178
     9
179
     1
271
     1
272
     2
274
     3
278
    44
284
     8
286
     8
340
100
371
     9
372
    25
  0
DIMSTYLE
105
108
330
A
100
AcDbSymbolTableRecord
100
AcDbDimStyleTableRecord
  2
DIN - Andere-Laser-Autocad-Farbe_Beschriftungen-Autocad-Farbe
 70
     0
 41
2.5
 42
0.0
 43
6.5
 44
2.25
 45
0.00000001
 46
10.0
 73
     0
 74
     0
 77
     1
 78
     8
 79
     2
140
2.5
143
0.03937
146
1.399999976158142
147
0.8
171
     3
172
     1
176
     8
177
     8
178
     9
179
     1
271
     2
272
     2
274
     3
278
    44
284
     8
286
     8
340
FD
371
    25
372
    25
  0
DIMSTYLE
105
109
330
A
100
AcDbSymbolTableRecord
100
AcDbDimStyleTableRecord
  2
DIN - Andere-Laser-Autocad-Farbe_Beschriftungen-Autocad-Farbe$7
 70
     0
 41
2.5
 42
0.0
 43
6.5
 44
2.25
 45
0.00000001
 46
10.0
 73
     0
 74
     0
 77
     1
 78
     8
 79
     2
140
2.5
143
0.03937
146
1.399999976158142
147
0.8
171
     3
172
     1
176
     8
177
     8
178
     9
179
     1
271
     2
272
     2
274
     3
278
    44
284
     8
286
     8
340
FD
371
     9
372
    25
  0
DIMSTYLE
105
10A
330
A
100
AcDbSymbolTableRecord
100
AcDbDimStyleTableRecord
  2
DIN - Andere-Laser_Aktuell-DIN-Laser
 70
     0
 41
2.5
 42
0.0
 43
7.0
 44
2.0
 45
0.00000001
 46
8.0
 73
     0
 74
     0
 77
     1
 78
     8
 79
     2
140
2.5
143
0.03937
147
0.8
171
     3
172
     1
176
     8
177
     8
178
     7
179
     1
271
     2
272
     2
274
     3
278
    44
284
     8
286
     8
340
F9
371
    25
372
    25
  0
DIMSTYLE
105
10B
330
A
100
AcDbSymbolTableRecord
100
AcDbDimStyleTableRecord
  2
DIN - Andere-Laser_Aktuell-DIN-Laser$7
 70
     0
 41
2.5
 42
0.0
 43
7.0
 44
2.0
 45
0.00000001
 46
8.0
 73
     0
 74
     0
 77
     1
 78
     8
 79
     2
140
2.5
143
0.03937
147
0.8
171
     3
172
     1
176
     7
177
     8
178
     7
179
     1
271
     2
272
     2
274
     3
278
    44
284
     8
286
     8
340
F9
371
     9
372
    25
  0
DIMSTYLE
105
10C
330
A
100
AcDbSymbolTableRecord
100
AcDbDimStyleTableRecord
  2
DIN - Andere-LaserGroßer Text
 70
     0
 41
5.0
 42
0.0
 43
7.0
 44
2.0
 45
0.00000001
 46
10.0
 73
     0
 74
     0
 77
     1
 78
     8
 79
     2
140
3.75
143
0.03937
146
0.6666666865348816
147
0.8
171
     3
172
     1
176
     8
177
     8
178
     7
179
     1
271
     2
272
     2
274
     3
278
    44
284
     8
286
     8
340
FA
371
    25
372
    25
  0
DIMSTYLE
105
10D
330
A
100
AcDbSymbolTableRecord
100
AcDbDimStyleTableRecord
  2
DIN - Andere-LaserGroßer Text$7
 70
     0
 41
5.0
 42
0.0
 43
7.0
 44
2.0
 45
0.00000001
 46
10.0
 73
     0
 74
     0
 77
     1
 78
     8
 79
     2
140
3.75
143
0.03937
146
0.6666666865348816
147
0.8
171
     3
172
     1
176
     7
177
     8
178
     7
179
     1
271
     2
272
     2
274
     3
278
    44
284
     8
286
     8
340
FA
371
     9
372
    25
  0
DIMSTYLE
105
11D
330
A
100
AcDbSymbolTableRecord
100
AcDbDimStyleTableRecord
  2
Sonstiges Objekt (DIN)
 70
     0
 41
5.0
 42
0.0
 43
5.999999999999999
 44
3.174999999999999
 45
0.00000001
 46
10.0
 77
     1
 78
     8
 79
     2
140
5.25
143
0.03937
146
0.6666666865348816
147
0.8
171
     3
172
     1
176
   256
177
   256
178
   256
271
     2
272
     2
274
     3
278
    44
286
     8
340
FF
341
10E
371
    -1
372
    -1
  0
DIMSTYLE
105
11E
330
A
100
AcDbSymbolTableRecord
100
AcDbDimStyleTableRecord
  2
Sonstiges Objekt (DIN)$7
 70
     0
 41
5.0
 42
0.0
 43
5.999999999999999
 44
3.174999999999999
 45
0.00000001
 46
10.0
 77
     1
 78
     8
 79
     2
140
5.25
143
0.03937
146
0.6666666865348816
147
0.8
171
     3
172
     1
176
   256
177
   256
178
   256
271
     2
272
     2
274
     3
278
    44
286
     8
340
FF
341
10E
371
    25
372
    -1
  0
DIMSTYLE
105
11F
330
A
100
AcDbSymbolTableRecord
100
AcDbDimStyleTableRecord
  2
Standard - Methode 2a (DIN)
 70
     0
 41
2.5
 42
0.8
 43
5.999999999999999
 44
3.174999999999999
 45
0.00000001
 46
10.0
 77
     1
 78
     8
 79
     2
140
3.5
143
0.03937
147
0.8
170
     1
171
     3
172
     1
176
   256
177
   256
178
   256
179
     2
271
     2
272
     2
274
     3
278
    44
284
     8
286
     8
340
101
371
    -1
372
    -1
  0
DIMSTYLE
105
120
330
A
100
AcDbSymbolTableRecord
100
AcDbDimStyleTableRecord
  2
Standard - Methode 2a (DIN)$7
 70
     0
 41
2.5
 42
0.8
 43
5.999999999999999
 44
3.174999999999999
 45
0.00000001
 46
10.0
 77
     1
 78
     8
 79
     2
140
3.5
143
0.03937
147
0.8
170
     1
171
     3
172
     1
176
   256
177
   256
178
   256
179
     2
271
     2
272
     2
274
     3
278
    44
284
     8
286
     8
340
101
371
    -1
372
    -1
  0
DIMSTYLE
105
121
330
A
100
AcDbSymbolTableRecord
100
AcDbDimStyleTableRecord
  2
Standard - Methode 2b (DIN)
 70
     0
 41
2.5
 42
0.0
 43
5.999999999999999
 44
3.174999999999999
 45
0.00000001
 46
10.0
 77
     1
 78
     8
 79
     2
140
3.5
143
0.03937
147
0.8
171
     3
172
     1
176
   256
177
   256
178
   256
271
     2
272
     2
274
     3
278
    44
284
     8
286
     8
340
101
371
    -1
372
    -1
  0
DIMSTYLE
105
122
330
A
100
AcDbSymbolTableRecord
100
AcDbDimStyleTableRecord
  2
Standard - Methode 2b (DIN)$7
 70
     0
 41
2.5
 42
0.0
 43
5.999999999999999
 44
3.174999999999999
 45
0.00000001
 46
10.0
 77
     1
 78
     8
 79
     2
140
3.5
143
0.03937
147
0.8
171
     3
172
     1
176
   256
177
   256
178
   256
271
     2
272
     2
274
     3
278
    44
284
     8
286
     8
340
101
371
    -1
372
    -1
  0
DIMSTYLE
105
123
102
{ACAD_REACTORS
330
1F8
330
2DB
330
3D9
330
4B7
330
599
330
675
330
773
330
855
330
937
330
A2D
330
AB7
330
B99
330
C97
330
D79
330
E4F
330
F4F
330
104F
330
114F
330
124D
102
}
330
A
100
AcDbSymbolTableRecord
100
AcDbDimStyleTableRecord
  2
Standard (DIN)
 70
     0
 41
2.5
 42
0.8
 43
5.999999999999999
 44
3.174999999999999
 45
0.00000001
 46
10.0
 73
     0
 74
     0
 77
     1
 78
     8
 79
     2
140
3.5
143
0.03937
147
0.8
171
     3
172
     1
176
   256
177
   256
178
   256
179
     2
271
     2
272
     2
274
     3
278
    44
340
101
371
    -1
372
    -1
  0
DIMSTYLE
105
124
330
A
100
AcDbSymbolTableRecord
100
AcDbDimStyleTableRecord
  2
Standard (DIN)$7
 70
     0
 41
2.5
 42
0.8
 43
5.999999999999999
 44
3.174999999999999
 45
0.00000001
 46
10.0
 73
     0
 74
     0
 77
     1
 78
     8
 79
     2
140
3.5
143
0.03937
147
0.8
171
     3
172
     1
176
   256
177
   256
178
   256
179
     2
271
     2
272
     2
274
     3
278
    44
340
101
371
    -1
372
    -1
  0
DIMSTYLE
105
125
330
A
100
AcDbSymbolTableRecord
100
AcDbDimStyleTableRecord
  2
Alternativ (ISO)
 70
     0
 41
2.5
340
55
  0
DIMSTYLE
105
130
330
A
100
AcDbSymbolTableRecord
100
AcDbDimStyleTableRecord
  2
Bezug (ISO)
 70
     0
 41
2.5
340
55
  0
DIMSTYLE
105
131
330
A
100
AcDbSymbolTableRecord
100
AcDbDimStyleTableRecord
  2
Führungslinie-Ursprungsindikator(Laser)
 70
     0
 41
2.5
340
55
  0
DIMSTYLE
105
132
330
A
100
AcDbSymbolTableRecord
100
AcDbDimStyleTableRecord
  2
Führungslinie - Bezugsstelle(Laser)
 70
     0
 41
2.5
340
55
  0
DIMSTYLE
105
133
330
A
100
AcDbSymbolTableRecord
100
AcDbDimStyleTableRecord
  2
Führungslinie - Punkt(Laser)
 70
     0
 41
2.5
340
55
  0
DIMSTYLE
105
134
330
A
100
AcDbSymbolTableRecord
100
AcDbDimStyleTableRecord
  2
Führungslinie(Laser)
 70
     0
 41
2.5
340
55
  0
DIMSTYLE
105
1408
102
{ACAD_REACTORS
330
13F7
102
}
330
A
100
AcDbSymbolTableRecord
100
AcDbDimStyleTableRecord
  2
AM_DIN
 70
     0
  4
"
 41
3.5
 42
1.0
 43
10.0
 44
1.0
 47
0.1
 48
0.1
 73
     0
 74
     0
 77
     1
 78
     8
 79
     2
140
3.5
141
0.0
143
0.0393701
146
0.71
147
1.5
172
     1
176
   256
177
   256
178
   140
271
     2
272
     3
274
     4
283
     0
284
     8
340
55
371
    -1
372
    -1
1001
ACAD_DSTYLE_DIMJAG
1070
   388
1040
1.5
1001
ACAD_DSTYLE_DIMBREAK
1070
   391
1040
3.75
1001
ACAD_DSTYLE_DIMJOGGED_JOGANGLE_SYMBOL
1070
   384
1040
1.570796326794896
1001
ACAD_DSTYLE_DIM_LINETYPE
1070
   380
1005
5B
1001
ACAD_DSTYLE_DIM_EXT1_LINETYPE
1070
   381
1005
5B
1001
ACAD_DSTYLE_DIM_EXT2_LINETYPE
1070
   382
1005
5B
  0
DIMSTYLE
105
140C
330
A
100
AcDbSymbolTableRecord
100
AcDbDimStyleTableRecord
  2
AM_DIN$3
 70
     0
  4
"
 41
3.5
 42
1.0
 43
10.0
 44
1.0
 47
0.1
 48
0.1
 73
     0
 77
     1
 78
     8
 79
     2
140
3.5
141
0.0
143
0.0393701
146
0.71
147
1.5
176
   256
177
   256
178
   140
271
     2
272
     3
274
     4
283
     0
284
     8
288
     1
289
     0
340
55
371
    -1
372
    -1
1001
ACAD_DSTYLE_DIMBREAK
1070
   391
1040
3.75
1001
ACAD_DSTYLE_DIMJAG
1070
   388
1040
1.5
1001
ACAD_DSTYLE_DIMJOGGED_JOGANGLE_SYMBOL
1070
   384
1040
1.570796326794896
1001
ACAD_DSTYLE_DIM_LINETYPE
1070
   380
1005
5B
1001
ACAD_DSTYLE_DIM_EXT1_LINETYPE
1070
   381
1005
5B
1001
ACAD_DSTYLE_DIM_EXT2_LINETYPE
1070
   382
1005
5B
  0
DIMSTYLE
105
140D
330
A
100
AcDbSymbolTableRecord
100
AcDbDimStyleTableRecord
  2
AM_DIN$4
 70
     0
  4
"
 41
3.5
 42
1.0
 43
10.0
 44
1.0
 47
0.1
 48
0.1
 73
     0
 77
     1
 78
     8
 79
     2
140
3.5
141
0.0
143
0.0393701
146
0.71
147
1.5
176
   256
177
   256
178
   140
271
     2
272
     3
274
     4
283
     0
284
     8
288
     1
289
     0
340
55
371
    -1
372
    -1
1001
ACAD_DSTYLE_DIMBREAK
1070
   391
1040
3.75
1001
ACAD_DSTYLE_DIMJAG
1070
   388
1040
1.5
1001
ACAD_DSTYLE_DIMJOGGED_JOGANGLE_SYMBOL
1070
   384
1040
1.570796326794896
1001
ACAD_DSTYLE_DIM_LINETYPE
1070
   380
1005
5B
1001
ACAD_DSTYLE_DIM_EXT1_LINETYPE
1070
   381
1005
5B
1001
ACAD_DSTYLE_DIM_EXT2_LINETYPE
1070
   382
1005
5B
  0
DIMSTYLE
105
140E
330
A
100
AcDbSymbolTableRecord
100
AcDbDimStyleTableRecord
  2
AM_DIN$6
 70
     0
  4
"
 41
3.5
 42
1.0
 43
10.0
 44
1.0
 47
0.1
 48
0.1
 73
     0
 74
     0
 78
     8
 79
     2
140
3.5
141
0.0
143
0.0393701
146
0.71
147
1.5
172
     1
176
   256
177
   256
178
   140
271
     2
272
     3
274
     4
283
     0
284
     8
340
55
371
    -1
372
    -1
1001
ACAD_DSTYLE_DIMBREAK
1070
   391
1040
3.75
1001
ACAD_DSTYLE_DIMJAG
1070
   388
1040
1.5
1001
ACAD_DSTYLE_DIMJOGGED_JOGANGLE_SYMBOL
1070
   384
1040
1.570796326794896
1001
ACAD_DSTYLE_DIM_LINETYPE
1070
   380
1005
5B
1001
ACAD_DSTYLE_DIM_EXT1_LINETYPE
1070
   381
1005
5B
1001
ACAD_DSTYLE_DIM_EXT2_LINETYPE
1070
   382
1005
5B
  0
DIMSTYLE
105
140F
330
A
100
AcDbSymbolTableRecord
100
AcDbDimStyleTableRecord
  2
AM_DIN$7
 70
     0
  4
"
 41
3.5
 42
1.0
 43
10.0
 44
1.0
 47
0.1
 48
0.1
 73
     0
 74
     0
 77
     1
 78
     8
 79
     2
140
3.5
141
0.0
143
0.0393701
146
0.71
147
1.5
172
     1
176
   256
177
   256
178
   140
271
     2
272
     3
274
     4
283
     0
284
     8
340
55
371
    -1
372
    -1
1001
ACAD_DSTYLE_DIMBREAK
1070
   391
1040
3.75
1001
ACAD_DSTYLE_DIMJAG
1070
   388
1040
1.5
1001
ACAD_DSTYLE_DIMJOGGED_JOGANGLE_SYMBOL
1070
   384
1040
1.570796326794896
1001
ACAD_DSTYLE_DIM_LINETYPE
1070
   380
1005
5B
1001
ACAD_DSTYLE_DIM_EXT1_LINETYPE
1070
   381
1005
5B
1001
ACAD_DSTYLE_DIM_EXT2_LINETYPE
1070
   382
1005
5B
  0
DIMSTYLE
105
1410
330
A
100
AcDbSymbolTableRecord
100
AcDbDimStyleTableRecord
  2
AM_DIN$SF
 70
     0
  4
"
 41
3.5
 42
1.0
 43
10.0
 44
1.0
 47
0.1
 48
0.1
 73
     0
 74
     0
 75
     1
 76
     1
 77
     1
 78
     8
 79
     2
140
3.5
141
0.0
143
0.0393701
146
0.71
147
1.5
172
     1
176
   256
177
   256
178
   140
271
     2
272
     3
274
     4
283
     0
284
     8
340
55
371
    -1
372
    -1
1001
ACAD_DSTYLE_DIMBREAK
1070
   391
1040
3.75
1001
ACAD_DSTYLE_DIMJAG
1070
   388
1040
1.5
1001
ACAD_DSTYLE_DIMJOGGED_JOGANGLE_SYMBOL
1070
   384
1040
1.570796326794896
1001
ACAD_DSTYLE_DIM_LINETYPE
1070
   380
1005
5B
1001
ACAD_DSTYLE_DIM_EXT1_LINETYPE
1070
   381
1005
5B
1001
ACAD_DSTYLE_DIM_EXT2_LINETYPE
1070
   382
1005
5B
  0
DIMSTYLE
105
1415
330
A
100
AcDbSymbolTableRecord
100
AcDbDimStyleTableRecord
  2
AM_DIN$SH
 70
     0
  4
"
 41
3.5
 42
1.0
 43
10.0
 44
1.0
 47
0.1
 48
0.1
 73
     0
 74
     0
 75
     1
 76
     1
 77
     1
 78
     8
 79
     2
140
3.5
141
0.0
143
0.0393701
144
2.0
146
0.71
147
1.5
172
     1
173
     1
176
   256
177
   256
178
   140
271
     2
272
     3
274
     4
283
     0
284
     8
340
55
343
1411
371
    -1
372
    -1
1001
ACAD_DSTYLE_DIMBREAK
1070
   391
1040
3.75
1001
ACAD_DSTYLE_DIMJAG
1070
   388
1040
1.5
1001
ACAD_DSTYLE_DIMJOGGED_JOGANGLE_SYMBOL
1070
   384
1040
1.570796326794896
1001
ACAD_DSTYLE_DIM_LINETYPE
1070
   380
1005
5B
1001
ACAD_DSTYLE_DIM_EXT1_LINETYPE
1070
   381
1005
5B
1001
ACAD_DSTYLE_DIM_EXT2_LINETYPE
1070
   382
1005
5B
  0
DIMSTYLE
105
147B
330
A
100
AcDbSymbolTableRecord
100
AcDbDimStyleTableRecord
  2
Huxaria_Ecobelt
 70
     0
 40
0.5
 41
2.5
 42
0.0
 43
6.999999999999999
 44
2.0
 45
0.00000001
 46
8.0
 73
     0
 74
     0
 77
     1
 78
     8
 79
     2
140
2.5
143
0.03937
147
0.8
171
     3
172
     1
176
     7
177
     7
178
     7
179
     1
271
     1
272
     2
274
     3
278
    44
284
     8
286
     8
340
147A
371
    25
372
    25
  0
ENDTAB
  0
TABLE
  2
BLOCK_RECORD
  5
1
330
0
100
AcDbSymbolTable
 70
    29
  0
BLOCK_RECORD
  5
71
102
{ACAD_XDICTIONARY
360
1330
102
}
330
1
100
AcDbSymbolTableRecord
100
AcDbBlockTableRecord
  2
*Model_Space
340
74
  0
BLOCK_RECORD
  5
6D
330
1
100
AcDbSymbolTableRecord
100
AcDbBlockTableRecord
  2
*Paper_Space
340
70
  0
BLOCK_RECORD
  5
75
330
1
100
AcDbSymbolTableRecord
100
AcDbBlockTableRecord
  2
*Paper_Space0
340
78
  0
BLOCK_RECORD
  5
10E
330
1
100
AcDbSymbolTableRecord
100
AcDbBlockTableRecord
  2
Filled-1
340
0
  0
BLOCK_RECORD
  5
126
330
1
100
AcDbSymbolTableRecord
100
AcDbBlockTableRecord
  2
DatumFilled45
340
0
  0
BLOCK_RECORD
  5
135
102
{ACAD_XDICTIONARY
360
1476
102
}
330
1
100
AcDbSymbolTableRecord
100
AcDbBlockTableRecord
  2
Schriftfelder Schriftfeld Nocke
340
0
102
{BLKREFS
331
184
102
}
1001
AcDbDynamicBlockGUID
1000
{ECE63AF5-7B7E-4D44-AC29-E4E19C2DAD6D}
  0
BLOCK_RECORD
  5
1ED
330
1
100
AcDbSymbolTableRecord
100
AcDbBlockTableRecord
  2
Ränder Rahmen A4 hoch
340
0
102
{BLKREFS
331
1F7
102
}
  0
BLOCK_RECORD
  5
1FA
330
1
100
AcDbSymbolTableRecord
100
AcDbBlockTableRecord
  2
*D5
340
0
  0
BLOCK_RECORD
  5
2DC
330
1
100
AcDbSymbolTableRecord
100
AcDbBlockTableRecord
  2
*D6
340
0
  0
BLOCK_RECORD
  5
3DA
330
1
100
AcDbSymbolTableRecord
100
AcDbBlockTableRecord
  2
*D7
340
0
  0
BLOCK_RECORD
  5
4B8
330
1
100
AcDbSymbolTableRecord
100
AcDbBlockTableRecord
  2
*D8
340
0
  0
BLOCK_RECORD
  5
59A
330
1
100
AcDbSymbolTableRecord
100
AcDbBlockTableRecord
  2
*D9
340
0
  0
BLOCK_RECORD
  5
676
330
1
100
AcDbSymbolTableRecord
100
AcDbBlockTableRecord
  2
*D10
340
0
  0
BLOCK_RECORD
  5
774
330
1
100
AcDbSymbolTableRecord
100
AcDbBlockTableRecord
  2
*D11
340
0
  0
BLOCK_RECORD
  5
856
330
1
100
AcDbSymbolTableRecord
100
AcDbBlockTableRecord
  2
*D12
340
0
  0
BLOCK_RECORD
  5
938
330
1
100
AcDbSymbolTableRecord
100
AcDbBlockTableRecord
  2
*D13
340
0
  0
BLOCK_RECORD
  5
A19
330
1
100
AcDbSymbolTableRecord
100
AcDbBlockTableRecord
  2
Schweißsymbol1
340
0
102
{BLKREFS
331
A2C
102
}
  0
BLOCK_RECORD
  5
A2E
330
1
100
AcDbSymbolTableRecord
100
AcDbBlockTableRecord
  2
*D15
340
0
  0
BLOCK_RECORD
  5
AB8
330
1
100
AcDbSymbolTableRecord
100
AcDbBlockTableRecord
  2
*D16
340
0
  0
BLOCK_RECORD
  5
B9A
330
1
100
AcDbSymbolTableRecord
100
AcDbBlockTableRecord
  2
*D17
340
0
  0
BLOCK_RECORD
  5
C98
330
1
100
AcDbSymbolTableRecord
100
AcDbBlockTableRecord
  2
*D18
340
0
  0
BLOCK_RECORD
  5
D7A
330
1
100
AcDbSymbolTableRecord
100
AcDbBlockTableRecord
  2
*D19
340
0
  0
BLOCK_RECORD
  5
E50
330
1
100
AcDbSymbolTableRecord
100
AcDbBlockTableRecord
  2
*D20
340
0
  0
BLOCK_RECORD
  5
F50
330
1
100
AcDbSymbolTableRecord
100
AcDbBlockTableRecord
  2
*D21
340
0
  0
BLOCK_RECORD
  5
1050
330
1
100
AcDbSymbolTableRecord
100
AcDbBlockTableRecord
  2
*D22
340
0
  0
BLOCK_RECORD
  5
1150
330
1
100
AcDbSymbolTableRecord
100
AcDbBlockTableRecord
  2
*D23
340
0
  0
BLOCK_RECORD
  5
124E
330
1
100
AcDbSymbolTableRecord
100
AcDbBlockTableRecord
  2
*D24
340
0
  0
BLOCK_RECORD
  5
1411
330
1
100
AcDbSymbolTableRecord
100
AcDbBlockTableRecord
  2
GENAXEH
340
0
  0
BLOCK_RECORD
  5
147E
102
{ACAD_XDICTIONARY
360
1481
102
}
330
1
100
AcDbSymbolTableRecord
100
AcDbBlockTableRecord
  2
logo-Optibelt
340
0
102
{BLKREFS
331
148F
102
}
1001
ACAD
1000
DesignCenter Data
1002
{
1070
     1
1070
     4
1002
}
  0
ENDTAB
  0
ENDSEC
  0
SECTION
  2
BLOCKS
  0
BLOCK
  5
72
330
71
100
AcDbEntity
  8
0
100
AcDbBlockBegin
  2
*Model_Space
 70
     0
 10
0.0
 20
0.0
 30
0.0
  3
*Model_Space
  1

  0
ENDBLK
  5
73
330
71
100
AcDbEntity
  8
0
100
AcDbBlockEnd
  0
BLOCK
  5
6E
330
6D
100
AcDbEntity
 67
     1
  8
0
100
AcDbBlockBegin
  2
*Paper_Space
 70
     0
 10
0.0
 20
0.0
 30
0.0
  3
*Paper_Space
  1

  0
ENDBLK
  5
6F
330
6D
100
AcDbEntity
 67
     1
  8
0
100
AcDbBlockEnd
  0
BLOCK
  5
76
330
75
100
AcDbEntity
 67
     1
  8
0
100
AcDbBlockBegin
  2
*Paper_Space0
 70
     0
 10
0.0
 20
0.0
 30
0.0
  3
*Paper_Space0
  1

  0
ENDBLK
  5
77
330
75
100
AcDbEntity
 67
     1
  8
0
100
AcDbBlockEnd
  0
BLOCK
  5
10F
330
10E
100
AcDbEntity
  8
0
100
AcDbBlockBegin
  2
Filled-1
 70
     0
 10
0.0
 20
0.0
 30
0.0
  3
Filled-1
  1

  0
LINE
  5
111
330
10E
100
AcDbEntity
  8
0
 62
     0
100
AcDbLine
 10
-1.0
 20
0.0
 30
0.0
 11
0.0
 21
0.0
 31
0.0
  0
POLYLINE
  5
113
330
10E
100
AcDbEntity
  8
0
 62
     0
100
AcDb2dPolyline
 66
     1
 10
0.0
 20
0.0
 30
0.0
 70
   128
  0
VERTEX
  5
114
330
113
100
AcDbEntity
  8
0
 62
     0
100
AcDbVertex
100
AcDb2dVertex
 10
-1.0
 20
-0.1
 30
0.0
  0
VERTEX
  5
115
330
113
100
AcDbEntity
  8
0
 62
     0
100
AcDbVertex
100
AcDb2dVertex
 10
0.0
 20
0.0
 30
0.0
  0
VERTEX
  5
117
330
113
100
AcDbEntity
  8
0
 62
     0
100
AcDbVertex
100
AcDb2dVertex
 10
-1.0
 20
0.1
 30
0.0
  0
VERTEX
  5
118
330
113
100
AcDbEntity
  8
0
 62
     0
100
AcDbVertex
100
AcDb2dVertex
 10
-1.0
 20
-0.1
 30
0.0
  0
SEQEND
  5
116
330
113
100
AcDbEntity
  8
0
 62
     0
  0
SOLID
  5
119
330
10E
100
AcDbEntity
  8
0
 62
     0
100
AcDbTrace
 10
-1.0
 20
-0.1
 30
0.0
 11
0.0
 21
0.0
 31
0.0
 12
-1.0
 22
0.1
 32
0.0
 13
-1.0
 23
-0.1
 33
0.0
  0
LINE
  5
11A
330
10E
100
AcDbEntity
  8
0
 62
     0
100
AcDbLine
 10
-1.0
 20
-0.1
 30
0.0
 11
0.0
 21
0.0
 31
0.0
  0
LINE
  5
11B
330
10E
100
AcDbEntity
  8
0
 62
     0
100
AcDbLine
 10
0.0
 20
0.0
 30
0.0
 11
-1.0
 21
0.1
 31
0.0
  0
LINE
  5
11C
330
10E
100
AcDbEntity
  8
0
 62
     0
100
AcDbLine
 10
-1.0
 20
0.1
 30
0.0
 11
-1.0
 21
-0.1
 31
0.0
  0
ENDBLK
  5
110
330
10E
100
AcDbEntity
  8
0
100
AcDbBlockEnd
  0
BLOCK
  5
127
330
126
100
AcDbEntity
  8
0
100
AcDbBlockBegin
  2
DatumFilled45
 70
     0
 10
0.0
 20
0.0
 30
0.0
  3
DatumFilled45
  1

  0
POLYLINE
  5
129
330
126
100
AcDbEntity
  8
0
 62
     0
100
AcDb2dPolyline
 66
     1
 10
0.0
 20
0.0
 30
0.0
 70
   128
  0
VERTEX
  5
12A
330
129
100
AcDbEntity
  8
0
 62
     0
100
AcDbVertex
100
AcDb2dVertex
 10
0.0
 20
1.0
 30
0.0
  0
VERTEX
  5
12B
330
129
100
AcDbEntity
  8
0
 62
     0
100
AcDbVertex
100
AcDb2dVertex
 10
0.0
 20
-1.0
 30
0.0
  0
VERTEX
  5
12D
330
129
100
AcDbEntity
  8
0
 62
     0
100
AcDbVertex
100
AcDb2dVertex
 10
-1.0
 20
0.0
 30
0.0
  0
VERTEX
  5
12E
330
129
100
AcDbEntity
  8
0
 62
     0
100
AcDbVertex
100
AcDb2dVertex
 10
0.0
 20
1.0
 30
0.0
  0
SEQEND
  5
12C
330
129
100
AcDbEntity
  8
0
 62
     0
  0
SOLID
  5
12F
330
126
100
AcDbEntity
  8
0
 62
     0
100
AcDbTrace
 10
0.0
 20
1.0
 30
0.0
 11
0.0
 21
-1.0
 31
0.0
 12
-1.0
 22
0.0
 32
0.0
 13
0.0
 23
1.0
 33
0.0
  0
ENDBLK
  5
128
330
126
100
AcDbEntity
  8
0
100
AcDbBlockEnd
  0
BLOCK
  5
136
330
135
100
AcDbEntity
  8
0
100
AcDbBlockBegin
  2
Schriftfelder Schriftfeld Nocke
 70
     2
 10
0.0
 20
0.0
 30
0.0
  3
Schriftfelder Schriftfeld Nocke
  1

  0
LINE
  5
142A
330
135
100
AcDbEntity
  8
Titel (ISO)
100
AcDbLine
 10
105.4009205960757
 20
99.828060382812
 30
0.0
 11
285.4009205960757
 21
99.82806038281204
 31
0.0
  0
LINE
  5
142B
330
135
100
AcDbEntity
  8
Titel (ISO)
100
AcDbLine
 10
285.4009205960757
 20
99.82806038281204
 30
0.0
 11
285.4009205960757
 21
155.078060382812
 31
0.0
  0
LINE
  5
142C
330
135
100
AcDbEntity
  8
Titel (ISO)
100
AcDbLine
 10
285.4009205960757
 20
155.078060382812
 30
0.0
 11
105.4009205960757
 21
155.0780603828119
 31
0.0
  0
LINE
  5
142D
330
135
100
AcDbEntity
  8
Titel (ISO)
100
AcDbLine
 10
105.4009205960757
 20
155.0780603828119
 30
0.0
 11
105.4009205960757
 21
99.828060382812
 31
0.0
  0
LINE
  5
142E
330
135
100
AcDbEntity
  8
Titel (ISO)
100
AcDbLine
 10
160.0009205960756
 20
99.828060382812
 30
0.0
 11
160.0009205960756
 21
155.078060382812
 31
0.0
  0
LINE
  5
142F
330
135
100
AcDbEntity
  8
Titel (ISO)
100
AcDbLine
 10
204.2009205960757
 20
99.828060382812
 30
0.0
 11
204.2009205960757
 21
155.078060382812
 31
0.0
  0
LINE
  5
1430
330
135
100
AcDbEntity
  8
Titel (ISO)
100
AcDbLine
 10
105.4009205960757
 20
138.078060382812
 30
0.0
 11
285.4009205960757
 21
138.0780603828121
 31
0.0
  0
LINE
  5
1431
330
135
100
AcDbEntity
  8
Titel (ISO)
100
AcDbLine
 10
153.0009205960757
 20
116.828060382812
 30
0.0
 11
285.4009205960757
 21
116.8280603828121
 31
0.0
  0
LINE
  5
1432
330
135
100
AcDbEntity
  8
Titel (ISO)
100
AcDbLine
 10
204.2009205960757
 20
148.3280603828119
 30
0.0
 11
285.4009205960757
 21
148.328060382812
 31
0.0
  0
LINE
  5
1433
330
135
100
AcDbEntity
  8
Titel (ISO)
100
AcDbLine
 10
256.2267694444178
 20
138.0780603828121
 30
0.0
 11
256.2267694444179
 21
155.0780603828119
 31
0.0
  0
LINE
  5
1434
330
135
100
AcDbEntity
  8
Titel (ISO)
100
AcDbLine
 10
105.4009205960757
 20
104.0780603828119
 30
0.0
 11
160.0009205960756
 21
104.0780603828119
 31
0.0
  0
LINE
  5
1435
330
135
100
AcDbEntity
  8
Titel (ISO)
100
AcDbLine
 10
160.0009205960756
 20
104.0780603828119
 30
0.0
 11
204.2009205960757
 21
104.078060382812
 31
0.0
  0
LINE
  5
1436
330
135
100
AcDbEntity
  8
Titel (ISO)
100
AcDbLine
 10
197.2009205960756
 20
104.078060382812
 30
0.0
 11
285.4009205960757
 21
104.078060382812
 31
0.0
  0
LINE
  5
1437
330
135
100
AcDbEntity
  8
Titel (ISO)
100
AcDbLine
 10
269.6009205960757
 20
104.078060382812
 30
0.0
 11
269.6009205960757
 21
116.8280603828121
 31
0.0
  0
LINE
  5
1438
330
135
100
AcDbEntity
  8
Titel (ISO)
100
AcDbLine
 10
269.6009205960757
 20
108.2190860238377
 30
0.0
 11
285.4009205960757
 21
108.2190860238377
 31
0.0
  0
LINE
  5
1439
330
135
100
AcDbEntity
  8
Titel (ISO)
100
AcDbLine
 10
160.0009205960757
 20
108.328060382812
 30
0.0
 11
105.4009205960757
 21
108.328060382812
 31
0.0
  0
LINE
  5
143A
330
135
100
AcDbEntity
  8
Titel (ISO)
100
AcDbLine
 10
105.4009205960757
 20
112.578060382812
 30
0.0
 11
160.0009205960756
 21
112.578060382812
 31
0.0
  0
LINE
  5
143B
330
135
100
AcDbEntity
  8
Titel (ISO)
100
AcDbLine
 10
105.4009205960757
 20
116.8280603828121
 30
0.0
 11
160.0009205960756
 21
116.828060382812
 31
0.0
  0
LINE
  5
143C
330
135
100
AcDbEntity
  8
Titel (ISO)
100
AcDbLine
 10
105.4009205960757
 20
121.078060382812
 30
0.0
 11
160.0009205960756
 21
121.078060382812
 31
0.0
  0
LINE
  5
143D
330
135
100
AcDbEntity
  8
Titel (ISO)
100
AcDbLine
 10
160.0009205960756
 20
121.078060382812
 30
0.0
 11
204.2009205960757
 21
121.078060382812
 31
0.0
  0
LINE
  5
143E
330
135
100
AcDbEntity
  8
Titel (ISO)
100
AcDbLine
 10
105.4009205960757
 20
125.328060382812
 30
0.0
 11
160.0009205960756
 21
125.3280603828121
 31
0.0
  0
LINE
  5
143F
330
135
100
AcDbEntity
  8
Titel (ISO)
100
AcDbLine
 10
160.0009205960756
 20
125.3280603828121
 30
0.0
 11
204.2009205960757
 21
125.3280603828121
 31
0.0
  0
LINE
  5
1440
330
135
100
AcDbEntity
  8
Titel (ISO)
100
AcDbLine
 10
105.4009205960757
 20
129.578060382812
 30
0.0
 11
160.0009205960756
 21
129.5780603828121
 31
0.0
  0
LINE
  5
1441
330
135
100
AcDbEntity
  8
Titel (ISO)
100
AcDbLine
 10
160.0009205960756
 20
129.5780603828121
 30
0.0
 11
204.2009205960757
 21
129.578060382812
 31
0.0
  0
LINE
  5
1442
330
135
100
AcDbEntity
  8
Titel (ISO)
100
AcDbLine
 10
105.4009205960757
 20
133.828060382812
 30
0.0
 11
160.0009205960756
 21
133.828060382812
 31
0.0
  0
LINE
  5
1443
330
135
100
AcDbEntity
  8
Titel (ISO)
100
AcDbLine
 10
160.0009205960756
 20
133.828060382812
 30
0.0
 11
204.2009205960757
 21
133.828060382812
 31
0.0
  0
LINE
  5
1444
330
135
100
AcDbEntity
  8
Titel (ISO)
100
AcDbLine
 10
115.4009205960757
 20
99.828060382812
 30
0.0
 11
115.4009205960756
 21
138.078060382812
 31
0.0
  0
LINE
  5
1445
330
135
100
AcDbEntity
  8
Titel (ISO)
100
AcDbLine
 10
143.0009205960756
 20
99.828060382812
 30
0.0
 11
143.0009205960756
 21
138.078060382812
 31
0.0
  0
LINE
  5
1446
330
135
100
AcDbEntity
  8
Titel (ISO)
100
AcDbLine
 10
153.0009205960757
 20
99.828060382812
 30
0.0
 11
153.0009205960757
 21
138.078060382812
 31
0.0
  0
LINE
  5
1447
330
135
100
AcDbEntity
  8
Titel (ISO)
100
AcDbLine
 10
170.4009205960756
 20
121.078060382812
 30
0.0
 11
170.4009205960756
 21
138.078060382812
 31
0.0
  0
LINE
  5
1448
330
135
100
AcDbEntity
  8
Titel (ISO)
100
AcDbLine
 10
186.0009205960756
 20
116.828060382812
 30
0.0
 11
186.0009205960756
 21
138.078060382812
 31
0.0
  0
LINE
  5
1449
330
135
100
AcDbEntity
  8
Titel (ISO)
100
AcDbLine
 10
186.0009205960756
 20
138.078060382812
 30
0.0
 11
186.0009205960756
 21
155.0780603828119
 31
0.0
  0
LINE
  5
144A
330
135
100
AcDbEntity
  8
Titel 0_35
100
AcDbLine
 10
186.0009205960756
 20
146.578060382812
 30
0.0
 11
160.0009205960756
 21
146.578060382812
 31
0.0
  0
MTEXT
  5
144B
330
135
100
AcDbEntity
  8
Titel (ISO)
100
AcDbMText
 10
208.1286315367894
 20
108.4906372233135
 30
0.0
 40
3.000000119209289
 41
59.64910682955274
 71
     4
 72
     1
  1
\fISOCPEUR|b0|i0;\H3.0000;E_3_01_06_07_00_WKZ-0328\P
  7
Notiztext (DIN)
 73
     2
 44
1.0
  0
TEXT
  5
144C
330
135
100
AcDbEntity
  8
Titel (ISO)
100
AcDbText
 10
107.7996846182284
 20
101.2030603530097
 30
0.0
 40
1.500000059604644
  1
Status
  7
Textstil13
 72
     1
 11
110.8746847404179
 21
101.953060382812
 31
0.0
100
AcDbText
 73
     2
  0
TEXT
  5
144D
330
135
100
AcDbEntity
  8
Titel (ISO)
100
AcDbText
 10
123.4276722178859
 20
101.2030603530097
 30
0.0
 40
1.500000059604644
  1
Änderungen
  7
Textstil13
 72
     1
 11
128.7526724294824
 21
101.953060382812
 31
0.0
100
AcDbText
 73
     2
  0
TEXT
  5
144E
330
135
100
AcDbEntity
  8
Titel (ISO)
100
AcDbText
 10
144.6321348209609
 20
101.2030603530097
 30
0.0
 40
1.500000059604644
  1
Datum
  7
Textstil13
 72
     1
 11
147.4071349312294
 21
101.953060382812
 31
0.0
100
AcDbText
 73
     2
  0
TEXT
  5
144F
330
135
100
AcDbEntity
  8
Titel (ISO)
100
AcDbText
 10
153.7759205036885
 20
101.2030603530097
 30
0.0
 40
1.500000059604644
  1
Name
  7
Textstil13
 72
     1
 11
156.1009205960757
 21
101.953060382812
 31
0.0
100
AcDbText
 73
     2
  0
TEXT
  5
1450
330
135
100
AcDbEntity
  8
Titel (ISO)
100
AcDbText
 10
161.0009205960756
 20
131.0780603828121
 30
0.0
 40
1.25
  1
Gezeichnet
  7
Textstil26
 11
161.0009205960756
 21
130.5780603828121
 31
0.0
100
AcDbText
 73
     1
  0
TEXT
  5
1451
330
135
100
AcDbEntity
  8
Titel (ISO)
100
AcDbText
 10
161.0009205960756
 20
126.828060382812
 30
0.0
 40
1.25
  1
Kontrolliert
  7
Textstil26
 11
161.0009205960756
 21
126.328060382812
 31
0.0
100
AcDbText
 73
     1
  0
TEXT
  5
1452
330
135
100
AcDbEntity
  8
Titel (ISO)
100
AcDbText
 10
161.0009205960756
 20
122.578060382812
 30
0.0
 40
1.25
  1
Genehmigt:
  7
Textstil26
 11
161.0009205960756
 21
122.078060382812
 31
0.0
100
AcDbText
 73
     1
  0
TEXT
  5
1453
330
135
100
AcDbEntity
  8
Titel (ISO)
100
AcDbText
 10
174.5009205409413
 20
135.628060394733
 30
0.0
 40
2.000000029802322
  1
Datum
  7
Textstil14
 72
     1
 11
178.2009205960756
 21
134.828060382812
 31
0.0
100
AcDbText
 73
     1
  0
TEXT
  5
1454
330
135
100
AcDbEntity
  8
Titel (ISO)
100
AcDbText
 10
192.000920549882
 20
135.628060394733
 30
0.0
 40
2.000000029802322
  1
Name
  7
Textstil14
 72
     1
 11
195.1009205960756
 21
134.828060382812
 31
0.0
100
AcDbText
 73
     1
  0
MTEXT
  5
1455
102
{ACAD_XDICTIONARY
360
1456
102
}
330
135
100
AcDbEntity
  8
Titel (ISO)
100
AcDbMText
 10
205.2009205960757
 20
151.703060382812
 30
0.0
 40
1.500000059604644
 41
17.92337417602539
 71
     4
 72
     1
  1
\fISOCPEUR|b0|i0;\H1.5000;Ma\U+00DFstab:
  7
Notiztext (DIN)
 73
     1
 44
1.0
  0
MTEXT
  5
1457
330
135
100
AcDbEntity
  8
Titel (ISO)
100
AcDbMText
 10
214.5541113515286
 20
151.703060382812
 30
0.0
 40
3.000000119209289
 41
29.20251846313476
 71
     4
 72
     1
  1
\fISOCPEUR|b0|i0;\H3.0000;1 : 1
  7
Notiztext (DIN)
 73
     1
 44
1.0
  0
MTEXT
  5
1458
330
135
100
AcDbEntity
  8
Titel (ISO)
100
AcDbMText
 10
182.1009205960757
 20
115.8380126953125
 30
0.0
 40
2.5
 41
32.11721420288086
 71
     2
 72
     1
  1
\fISOCPEUR|b0|i0;\H2.5000;Ausgabedatum
  7
Notiztext (DIN)
 73
     1
 44
1.0
  0
MTEXT
  5
1459
102
{ACAD_XDICTIONARY
360
145A
102
}
330
135
100
AcDbEntity
  8
Titel 0_35
100
AcDbMText
 10
195.1009205960756
 20
146.2447270445117
 30
0.0
 40
2.000000029802322
 41
15.1929497718811
 71
     5
 72
     1
  1
\fISOCPEUR|b0|i0;\H2.0000;F\U+00FCr diese Zeichnung\Pbehalten wir uns alle Rechte vor!
  7
Notiztext (DIN)
 73
     2
 44
0.9000000357627868
  0
MTEXT
  5
145B
330
135
100
AcDbEntity
  8
Titel 0_35
100
AcDbMText
 10
173.0009205960756
 20
142.4947270147093
 30
0.0
 40
3.499999940395355
 41
24.54627990722656
 71
     5
 72
     1
  1
\fISOCPEUR|b0|i0;\H2.0000;Allgemeintoleranz\P\fISOCPEUR|b0|i0;\H3.0000;ISO 2768-m
  7
Notiztext (DIN)
 73
     2
 44
0.7714285850524903
  0
MTEXT
  5
145C
330
135
100
AcDbEntity
  8
Titel (ISO)
100
AcDbMText
 10
256.6022336677022
 20
151.465999266218
 30
0.0
 40
3.499999940395355
 41
29.20251846313476
 71
     4
 72
     1
  1
Ecobelt GmbH
  7
Notiztext (DIN)
 73
     1
 44
1.0
  0
MTEXT
  5
145D
330
135
100
AcDbEntity
  8
Titel (ISO)
100
AcDbMText
 10
205.1334040773558
 20
146.3099505498354
 30
0.0
 40
1.500000059604644
 41
17.92337417602539
 71
     4
 72
     1
  1
\fISOCPEUR|b0|i0;\H1.5000;Material:
  7
Notiztext (DIN)
 73
     1
 44
1.0
  0
MTEXT
  5
145E
330
135
100
AcDbEntity
  8
Titel (ISO)
100
AcDbMText
 10
256.8790612734793
 20
146.0756598049967
 30
0.0
 40
1.500000059604644
 41
17.92337417602539
 71
     4
 72
     1
  1
\fISOCPEUR|b0|i0;\H1.5000;Abmessungen:\P
  7
Notiztext (DIN)
 73
     2
 44
1.0
  0
MTEXT
  5
145F
330
135
100
AcDbEntity
  8
Titel (ISO)
100
AcDbMText
 10
182.1460912483163
 20
108.7059489484897
 30
0.0
 40
3.000000119209289
 41
21.33766174316406
 71
     5
 72
     1
  1
\fISOCPEUR|b0|i0;\H3.0000;12.06.2014
  7
Notiztext (DIN)
 73
     1
 44
1.0
  0
MTEXT
  5
1460
102
{ACAD_XDICTIONARY
360
1461
102
}
330
135
100
AcDbEntity
  8
Titel (ISO)
100
AcDbMText
 10
214.837800847027
 20
147.0373839493573
 30
0.0
 40
2.5
 41
0.0
 71
     1
 72
     1
  1
\fArial|b0|i0;\H2.5000;gem\U+00E4\U+00DF Nockenselektor\Paccording to cleat selector
  7
Notiztext (DIN)
 73
     2
 44
0.9442214965820312
  0
MTEXT
  5
1462
330
135
100
AcDbEntity
  8
Titel (ISO)
100
AcDbMText
 10
208.1381854715715
 20
101.9390633098374
 30
0.0
 40
2.5
 41
59.64910682955274
 71
     4
 72
     1
  1
\fISOCPEUR|b0|i0;\H2.5000;war E_3_03_06_07_00_ANF-0012
  7
Notiztext (DIN)
 73
     1
 44
1.0
  0
ATTDEF
  5
1463
102
{ACAD_XDICTIONARY
360
1464
102
}
330
135
100
AcDbEntity
  8
Titel (ISO)
100
AcDbText
 10
275.3759206633637
 20
104.8985732033249
 30
0.0
 40
2.5
  1
A4
  7
Textstil12
100
AcDbAttributeDefinition
  3
Blattgröße
  2
Blattgröße_001
 70
     0
  0
ATTDEF
  5
1465
102
{ACAD_XDICTIONARY
360
1466
102
}
330
135
100
AcDbEntity
  8
Titel (ISO)
100
AcDbText
 10
229.7250330251084
 20
128.487326713937
 30
0.0
 40
5.0
  1
WKZ-0328
  7
Textstil11
100
AcDbAttributeDefinition
  3
BAUTEILNUMMER
  2
BAUTEILNUMMER_001
 70
     0
  0
ATTDEF
  5
1467
102
{ACAD_XDICTIONARY
360
1468
102
}
330
135
100
AcDbEntity
  8
Titel (ISO)
100
AcDbText
 10
171.0009205964482
 20
131.2447270594129
 30
0.0
 40
2.000000029802322
  1
12.06.2014
  7
Textstil14
100
AcDbAttributeDefinition
  3
ERSTELLUNGSDATUM
  2
ERSTELLUNGSDATUM_001
 70
     0
  0
ATTDEF
  5
1469
102
{ACAD_XDICTIONARY
360
146A
102
}
330
135
100
AcDbEntity
  8
Titel (ISO)
100
AcDbText
 10
171.4009205960756
 20
127.128060394733
 30
0.0
 40
2.000000029802322
  1

  7
Textstil14
 11
171.4009205960756
 21
126.328060382812
 31
0.0
100
AcDbAttributeDefinition
  3
KONTROLLDATUM
  2
KONTROLLDATUM
 70
     0
 74
     1
  0
ATTDEF
  5
146B
102
{ACAD_XDICTIONARY
360
146C
102
}
330
135
100
AcDbEntity
  8
Titel (ISO)
100
AcDbText
 10
186.6009205964482
 20
131.2477573624403
 30
0.0
 40
2.000000029802322
  1
D. Fischer
  7
Textstil14
100
AcDbAttributeDefinition
  3
KONSTRUKTEUR
  2
KONSTRUKTEUR_001
 70
     0
  0
ATTDEF
  5
146D
102
{ACAD_XDICTIONARY
360
146E
102
}
330
135
100
AcDbEntity
  8
Titel (ISO)
100
AcDbText
 10
187.0009205960757
 20
122.878060394733
 30
0.0
 40
2.000000029802322
  1

  7
Textstil14
 11
187.0009205960757
 21
122.078060382812
 31
0.0
100
AcDbAttributeDefinition
  3
KONSTR. GEN. VON
  2
KONSTR._GEN._VON
 70
     0
 74
     1
  0
ATTDEF
  5
146F
102
{ACAD_XDICTIONARY
360
1470
102
}
330
135
100
AcDbEntity
  8
Titel (ISO)
100
AcDbText
 10
187.0009205960757
 20
127.128060394733
 30
0.0
 40
2.000000029802322
  1

  7
Textstil14
 11
187.0009205960757
 21
126.328060382812
 31
0.0
100
AcDbAttributeDefinition
  3
KONTROLLIERT VON
  2
KONTROLLIERT_VON
 70
     0
 74
     1
  0
ATTDEF
  5
1471
102
{ACAD_XDICTIONARY
360
1472
102
}
330
135
100
AcDbEntity
  8
Titel (ISO)
100
AcDbText
 10
277.538246650968
 20
110.6839800731865
 30
0.0
 40
2.485507130622863
  1
1
  7
Textstil30
100
AcDbAttributeDefinition
  3
Blattnummer
  2
Blattnummer_001
 70
     0
  0
ATTDEF
  5
1473
102
{ACAD_XDICTIONARY
360
1474
102
}
330
135
100
AcDbEntity
  8
Titel (ISO)
100
AcDbText
 10
171.5342393665902
 20
122.9279729585642
 30
0.0
 40
2.000000029802322
  1

  7
Textstil14
 11
171.5342393665902
 21
122.1279729466433
 31
0.0
100
AcDbAttributeDefinition
  3
GENEHM.DAT. KONSTR.
  2
GENEHM.DAT._KONSTR.
 70
     0
 74
     1
  0
INSERT
  5
148F
330
135
100
AcDbEntity
  8
0
100
AcDbBlockReference
  2
logo-Optibelt
 10
105.4009205960757
 20
138.078060382812
 30
0.0
 41
2.0
 42
2.0
 43
2.0
  0
ENDBLK
  5
137
330
135
100
AcDbEntity
  8
0
100
AcDbBlockEnd
  0
BLOCK
  5
1EE
330
1ED
100
AcDbEntity
  8
0
100
AcDbBlockBegin
  2
Ränder Rahmen A4 hoch
 70
     0
 10
0.0
 20
0.0
 30
0.0
  3
Ränder Rahmen A4 hoch
  1

  0
LINE
  5
1F0
330
1ED
100
AcDbEntity
  8
Rahmen (ISO)
100
AcDbLine
 10
15.00000000000001
 20
148.5
 30
0.0
 11
5.000000000000015
 21
148.5
 31
0.0
  0
LINE
  5
1F1
330
1ED
100
AcDbEntity
  8
Rahmen (ISO)
100
AcDbLine
 10
20.0
 20
287.0
 30
0.0
 11
199.9998063223993
 21
287.0
 31
0.0
  0
LINE
  5
1F2
330
1ED
100
AcDbEntity
  8
Rahmen (ISO)
100
AcDbLine
 10
199.9998063223988
 20
10.00000000000078
 30
0.0
 11
20.00000000000003
 21
10.0
 31
0.0
  0
LINE
  5
1F3
330
1ED
100
AcDbEntity
  8
Rahmen (ISO)
100
AcDbLine
 10
81.30980632239896
 20
10.00000000000018
 30
0.0
 11
199.9998063223988
 21
10.00000000000078
 31
0.0
  0
LINE
  5
1F4
330
1ED
100
AcDbEntity
  8
Rahmen (ISO)
100
AcDbLine
 10
20.00000000000003
 20
10.0
 30
0.0
 11
20.0
 21
287.0
 31
0.0
  0
LINE
  5
1F5
330
1ED
100
AcDbEntity
  8
Rahmen (ISO)
100
AcDbLine
 10
199.9998063223988
 20
10.00000000000078
 30
0.0
 11
20.00000000000003
 21
10.0
 31
0.0
  0
LINE
  5
1F6
330
1ED
100
AcDbEntity
  8
Rahmen (ISO)
100
AcDbLine
 10
199.9998063223993
 20
287.0
 30
0.0
 11
199.9998063223988
 21
10.00000000000078
 31
0.0
  0
ENDBLK
  5
1EF
330
1ED
100
AcDbEntity
  8
0
100
AcDbBlockEnd
  0
BLOCK
  5
1FB
330
1FA
100
AcDbEntity
  8
0
100
AcDbBlockBegin
  2
*D5
 70
     1
 10
0.0
 20
0.0
 30
0.0
  3
*D5
  1

  0
LINE
  5
2D2
330
1FA
100
AcDbEntity
  8
Bemaßung (ISO)
440
 16777216
100
AcDbLine
 10
86.70671866453856
 20
261.1294793288991
 30
0.0
 11
86.70671866453856
 21
273.5044793288991
 31
0.0
  0
LINE
  5
2D3
330
1FA
100
AcDbEntity
  8
Bemaßung (ISO)
440
 16777216
100
AcDbLine
 10
99.70671866453853
 20
261.1294793288991
 30
0.0
 11
99.70671866453853
 21
273.5044793288991
 31
0.0
  0
LINE
  5
2D4
330
1FA
100
AcDbEntity
  8
Bemaßung (ISO)
440
 16777216
100
AcDbLine
 10
89.20671866453856
 20
270.3294793288991
 30
0.0
 11
97.20671866453853
 21
270.3294793288991
 31
0.0
  0
SOLID
  5
2D5
330
1FA
100
AcDbEntity
  8
Bemaßung (ISO)
440
 16777216
100
AcDbTrace
 10
89.20671866453856
 20
270.7461459955658
 30
0.0
 11
89.20671866453856
 21
269.9128126622324
 31
0.0
 12
86.70671866453856
 22
270.3294793288991
 32
0.0
 13
86.70671866453856
 23
270.3294793288991
 33
0.0
  0
SOLID
  5
2D6
330
1FA
100
AcDbEntity
  8
Bemaßung (ISO)
440
 16777216
100
AcDbTrace
 10
97.20671866453853
 20
270.7461459955658
 30
0.0
 11
97.20671866453853
 21
269.9128126622324
 31
0.0
 12
99.70671866453853
 22
270.3294793288991
 32
0.0
 13
99.70671866453853
 23
270.3294793288991
 33
0.0
  0
MTEXT
  5
2D7
330
1FA
100
AcDbEntity
  8
Bemaßung (ISO)
440
 16777216
100
AcDbMText
 10
91.45671871995222
 20
274.6294793288991
 30
0.0
 40
3.5
 41
0.0
 71
     1
 72
     1
  1
\A1;13
  7
Notiztext (DIN)
 73
     1
 44
1.0
  0
POINT
  5
2D8
330
1FA
100
AcDbEntity
  8
Defpoints
 62
     0
440
 16777216
100
AcDbPoint
 10
86.70671866453856
 20
260.3294793288991
 30
0.0
  0
POINT
  5
2D9
330
1FA
100
AcDbEntity
  8
Defpoints
 62
     0
440
 16777216
100
AcDbPoint
 10
99.70671866453853
 20
260.3294793288991
 30
0.0
  0
POINT
  5
2DA
330
1FA
100
AcDbEntity
  8
Defpoints
 62
     0
440
 16777216
100
AcDbPoint
 10
99.70671866453853
 20
270.3294793288991
 30
0.0
  0
ENDBLK
  5
1FC
330
1FA
100
AcDbEntity
  8
0
100
AcDbBlockEnd
  0
BLOCK
  5
2DD
330
2DC
100
AcDbEntity
  8
0
100
AcDbBlockBegin
  2
*D6
 70
     1
 10
0.0
 20
0.0
 30
0.0
  3
*D6
  1

  0
LINE
  5
3CE
330
2DC
100
AcDbEntity
  8
Bemaßung (ISO)
440
 16777216
100
AcDbLine
 10
99.70671866453853
 20
254.5294793288991
 30
0.0
 11
99.70671866453853
 21
242.1544793288991
 31
0.0
  0
LINE
  5
3CF
330
2DC
100
AcDbEntity
  8
Bemaßung (ISO)
440
 16777216
100
AcDbLine
 10
97.70671866453852
 20
254.5294793288991
 30
0.0
 11
97.70671866453852
 21
242.1544793288991
 31
0.0
  0
LINE
  5
3D0
330
2DC
100
AcDbEntity
  8
Bemaßung (ISO)
440
 16777216
100
AcDbLine
 10
95.20671866453852
 20
245.3294793288991
 30
0.0
 11
92.70671866453852
 21
245.3294793288991
 31
0.0
  0
LINE
  5
3D1
330
2DC
100
AcDbEntity
  8
Bemaßung (ISO)
440
 16777216
100
AcDbLine
 10
102.2067186645385
 20
245.3294793288991
 30
0.0
 11
108.0567186091248
 21
245.3294793288991
 31
0.0
  0
LINE
  5
3D2
330
2DC
100
AcDbEntity
  8
Bemaßung (ISO)
440
 16777216
100
AcDbLine
 10
97.70671866453852
 20
245.3294793288991
 30
0.0
 11
99.70671866453853
 21
245.3294793288991
 31
0.0
  0
SOLID
  5
3D3
330
2DC
100
AcDbEntity
  8
Bemaßung (ISO)
440
 16777216
100
AcDbTrace
 10
95.20671866453852
 20
245.7461459955658
 30
0.0
 11
95.20671866453852
 21
244.9128126622325
 31
0.0
 12
97.70671866453852
 22
245.3294793288991
 32
0.0
 13
97.70671866453852
 23
245.3294793288991
 33
0.0
  0
SOLID
  5
3D4
330
2DC
100
AcDbEntity
  8
Bemaßung (ISO)
440
 16777216
100
AcDbTrace
 10
102.2067186645385
 20
245.7461459955658
 30
0.0
 11
102.2067186645385
 21
244.9128126622325
 31
0.0
 12
99.70671866453853
 22
245.3294793288991
 32
0.0
 13
99.70671866453853
 23
245.3294793288991
 33
0.0
  0
MTEXT
  5
3D5
330
2DC
100
AcDbEntity
  8
Bemaßung (ISO)
440
 16777216
100
AcDbMText
 10
105.5067186645385
 20
249.6294793288992
 30
0.0
 40
3.5
 41
0.0
 71
     1
 72
     1
  1
\A1;2
  7
Notiztext (DIN)
 73
     1
 44
1.0
  0
POINT
  5
3D6
330
2DC
100
AcDbEntity
  8
Defpoints
 62
     0
440
 16777216
100
AcDbPoint
 10
99.70671866453853
 20
255.3294793288992
 30
0.0
  0
POINT
  5
3D7
330
2DC
100
AcDbEntity
  8
Defpoints
 62
     0
440
 16777216
100
AcDbPoint
 10
97.70671866453852
 20
255.3294793288992
 30
0.0
  0
POINT
  5
3D8
330
2DC
100
AcDbEntity
  8
Defpoints
 62
     0
440
 16777216
100
AcDbPoint
 10
97.70671866453852
 20
245.3294793288991
 30
0.0
  0
ENDBLK
  5
2DE
330
2DC
100
AcDbEntity
  8
0
100
AcDbBlockEnd
  0
BLOCK
  5
3DB
330
3DA
100
AcDbEntity
  8
0
100
AcDbBlockBegin
  2
*D7
 70
     1
 10
0.0
 20
0.0
 30
0.0
  3
*D7
  1

  0
LINE
  5
4AF
330
3DA
100
AcDbEntity
  8
Bemaßung (ISO)
440
 16777216
100
AcDbLine
 10
77.70671866453854
 20
226.1294793288991
 30
0.0
 11
77.70671866453854
 21
248.5433685104537
 31
0.0
  0
LINE
  5
4B0
330
3DA
100
AcDbEntity
  8
Bemaßung (ISO)
440
 16777216
100
AcDbLine
 10
95.20671866453852
 20
245.3683685104536
 30
0.0
 11
80.20671866453854
 21
245.3683685104536
 31
0.0
  0
SOLID
  5
4B1
330
3DA
100
AcDbEntity
  8
Bemaßung (ISO)
440
 16777216
100
AcDbTrace
 10
95.20671866453852
 20
245.7850351771203
 30
0.0
 11
95.20671866453852
 21
244.951701843787
 31
0.0
 12
97.70671866453852
 22
245.3683685104536
 32
0.0
 13
97.70671866453852
 23
245.3683685104536
 33
0.0
  0
SOLID
  5
4B2
330
3DA
100
AcDbEntity
  8
Bemaßung (ISO)
440
 16777216
100
AcDbTrace
 10
80.20671866453854
 20
245.7850351771203
 30
0.0
 11
80.20671866453854
 21
244.951701843787
 31
0.0
 12
77.70671866453854
 22
245.3683685104536
 32
0.0
 13
77.70671866453854
 23
245.3683685104536
 33
0.0
  0
MTEXT
  5
4B3
330
3DA
100
AcDbEntity
  8
Bemaßung (ISO)
440
 16777216
100
AcDbMText
 10
85.60671873103496
 20
249.6683685104537
 30
0.0
 40
3.5
 41
0.0
 71
     1
 72
     1
  1
\A1;20
  7
Notiztext (DIN)
 73
     1
 44
1.0
  0
POINT
  5
4B4
330
3DA
100
AcDbEntity
  8
Defpoints
 62
     0
440
 16777216
100
AcDbPoint
 10
97.70671866453852
 20
245.3683685104536
 30
0.0
  0
POINT
  5
4B5
330
3DA
100
AcDbEntity
  8
Defpoints
 62
     0
440
 16777216
100
AcDbPoint
 10
77.70671866453854
 20
225.3294793288991
 30
0.0
  0
POINT
  5
4B6
330
3DA
100
AcDbEntity
  8
Defpoints
 62
     0
440
 16777216
100
AcDbPoint
 10
77.70671866453854
 20
245.3683685104536
 30
0.0
  0
ENDBLK
  5
3DC
330
3DA
100
AcDbEntity
  8
0
100
AcDbBlockEnd
  0
BLOCK
  5
4B9
330
4B8
100
AcDbEntity
  8
0
100
AcDbBlockBegin
  2
*D8
 70
     1
 10
0.0
 20
0.0
 30
0.0
  3
*D8
  1

  0
LINE
  5
590
330
4B8
100
AcDbEntity
  8
Bemaßung (ISO)
440
 16777216
100
AcDbLine
 10
77.70671866453854
 20
226.1294793288991
 30
0.0
 11
77.70671866453854
 21
248.5433685104537
 31
0.0
  0
LINE
  5
591
330
4B8
100
AcDbEntity
  8
Bemaßung (ISO)
440
 16777216
100
AcDbLine
 10
49.70671866453852
 20
193.1294793288991
 30
0.0
 11
49.70671866453852
 21
248.5433685104537
 31
0.0
  0
LINE
  5
592
330
4B8
100
AcDbEntity
  8
Bemaßung (ISO)
440
 16777216
100
AcDbLine
 10
75.20671866453854
 20
245.3683685104536
 30
0.0
 11
52.20671866453852
 21
245.3683685104536
 31
0.0
  0
SOLID
  5
593
330
4B8
100
AcDbEntity
  8
Bemaßung (ISO)
440
 16777216
100
AcDbTrace
 10
75.20671866453854
 20
245.7850351771203
 30
0.0
 11
75.20671866453854
 21
244.951701843787
 31
0.0
 12
77.70671866453854
 22
245.3683685104536
 32
0.0
 13
77.70671866453854
 23
245.3683685104536
 33
0.0
  0
SOLID
  5
594
330
4B8
100
AcDbEntity
  8
Bemaßung (ISO)
440
 16777216
100
AcDbTrace
 10
52.20671866453852
 20
245.7850351771203
 30
0.0
 11
52.20671866453852
 21
244.951701843787
 31
0.0
 12
49.70671866453852
 22
245.3683685104536
 32
0.0
 13
49.70671866453852
 23
245.3683685104536
 33
0.0
  0
MTEXT
  5
595
330
4B8
100
AcDbEntity
  8
Bemaßung (ISO)
440
 16777216
100
AcDbMText
 10
61.60671873103496
 20
249.6683685104537
 30
0.0
 40
3.5
 41
0.0
 71
     1
 72
     1
  1
\A1;28
  7
Notiztext (DIN)
 73
     1
 44
1.0
  0
POINT
  5
596
330
4B8
100
AcDbEntity
  8
Defpoints
 62
     0
440
 16777216
100
AcDbPoint
 10
77.70671866453854
 20
225.3294793288991
 30
0.0
  0
POINT
  5
597
330
4B8
100
AcDbEntity
  8
Defpoints
 62
     0
440
 16777216
100
AcDbPoint
 10
49.70671866453852
 20
192.3294793288991
 30
0.0
  0
POINT
  5
598
330
4B8
100
AcDbEntity
  8
Defpoints
 62
     0
440
 16777216
100
AcDbPoint
 10
49.70671866453852
 20
245.3683685104536
 30
0.0
  0
ENDBLK
  5
4BA
330
4B8
100
AcDbEntity
  8
0
100
AcDbBlockEnd
  0
BLOCK
  5
59B
330
59A
100
AcDbEntity
  8
0
100
AcDbBlockBegin
  2
*D9
 70
     1
 10
0.0
 20
0.0
 30
0.0
  3
*D9
  1

  0
LINE
  5
66C
330
59A
100
AcDbEntity
  8
Bemaßung (ISO)
440
 16777216
100
AcDbLine
 10
49.70671866453852
 20
189.5294793288991
 30
0.0
 11
49.70671866453852
 21
159.1544793288991
 31
0.0
  0
LINE
  5
66D
330
59A
100
AcDbEntity
  8
Bemaßung (ISO)
440
 16777216
100
AcDbLine
 10
122.4067186645385
 20
189.5294793288991
 30
0.0
 11
122.4067186645385
 21
159.1544793288991
 31
0.0
  0
LINE
  5
66E
330
59A
100
AcDbEntity
  8
Bemaßung (ISO)
440
 16777216
100
AcDbLine
 10
52.20671866453852
 20
162.3294793288991
 30
0.0
 11
119.9067186645385
 21
162.3294793288991
 31
0.0
  0
SOLID
  5
66F
330
59A
100
AcDbEntity
  8
Bemaßung (ISO)
440
 16777216
100
AcDbTrace
 10
52.20671866453852
 20
162.7461459955658
 30
0.0
 11
52.20671866453852
 21
161.9128126622324
 31
0.0
 12
49.70671866453852
 22
162.3294793288991
 32
0.0
 13
49.70671866453852
 23
162.3294793288991
 33
0.0
  0
SOLID
  5
670
330
59A
100
AcDbEntity
  8
Bemaßung (ISO)
440
 16777216
100
AcDbTrace
 10
119.9067186645385
 20
162.7461459955658
 30
0.0
 11
119.9067186645385
 21
161.9128126622324
 31
0.0
 12
122.4067186645385
 22
162.3294793288991
 32
0.0
 13
122.4067186645385
 23
162.3294793288991
 33
0.0
  0
MTEXT
  5
671
330
59A
100
AcDbEntity
  8
Bemaßung (ISO)
440
 16777216
100
AcDbMText
 10
82.11921878921934
 20
167.3294793067336
 30
0.0
 40
3.5
 41
0.0
 71
     1
 72
     1
  1
\A1;72,7
  7
Notiztext (DIN)
 73
     1
 44
1.0
  0
POINT
  5
672
330
59A
100
AcDbEntity
  8
Defpoints
 62
     0
440
 16777216
100
AcDbPoint
 10
49.70671866453852
 20
190.3294793288991
 30
0.0
  0
POINT
  5
673
330
59A
100
AcDbEntity
  8
Defpoints
 62
     0
440
 16777216
100
AcDbPoint
 10
122.4067186645385
 20
190.3294793288991
 30
0.0
  0
POINT
  5
674
330
59A
100
AcDbEntity
  8
Defpoints
 62
     0
440
 16777216
100
AcDbPoint
 10
122.4067186645385
 20
162.3294793288991
 30
0.0
  0
ENDBLK
  5
59C
330
59A
100
AcDbEntity
  8
0
100
AcDbBlockEnd
  0
BLOCK
  5
677
330
676
100
AcDbEntity
  8
0
100
AcDbBlockBegin
  2
*D10
 70
     1
 10
0.0
 20
0.0
 30
0.0
  3
*D10
  1

  0
LINE
  5
768
330
676
100
AcDbEntity
  8
Bemaßung (ISO)
440
 16777216
100
AcDbLine
 10
122.4067186645385
 20
189.5294793288991
 30
0.0
 11
122.4067186645385
 21
171.154479328899
 31
0.0
  0
LINE
  5
769
330
676
100
AcDbEntity
  8
Bemaßung (ISO)
440
 16777216
100
AcDbLine
 10
117.4067186645385
 20
189.5294793288991
 30
0.0
 11
117.4067186645385
 21
171.154479328899
 31
0.0
  0
LINE
  5
76A
330
676
100
AcDbEntity
  8
Bemaßung (ISO)
440
 16777216
100
AcDbLine
 10
124.9067186645385
 20
174.3294793288991
 30
0.0
 11
127.4067186645385
 21
174.3294793288991
 31
0.0
  0
LINE
  5
76B
330
676
100
AcDbEntity
  8
Bemaßung (ISO)
440
 16777216
100
AcDbLine
 10
114.9067186645385
 20
174.3294793288991
 30
0.0
 11
112.4067186645385
 21
174.3294793288991
 31
0.0
  0
LINE
  5
76C
330
676
100
AcDbEntity
  8
Bemaßung (ISO)
440
 16777216
100
AcDbLine
 10
122.4067186645385
 20
174.3294793288991
 30
0.0
 11
117.4067186645385
 21
174.3294793288991
 31
0.0
  0
SOLID
  5
76D
330
676
100
AcDbEntity
  8
Bemaßung (ISO)
440
 16777216
100
AcDbTrace
 10
124.9067186645385
 20
174.7461459955657
 30
0.0
 11
124.9067186645385
 21
173.9128126622324
 31
0.0
 12
122.4067186645385
 22
174.3294793288991
 32
0.0
 13
122.4067186645385
 23
174.3294793288991
 33
0.0
  0
SOLID
  5
76E
330
676
100
AcDbEntity
  8
Bemaßung (ISO)
440
 16777216
100
AcDbTrace
 10
114.9067186645385
 20
174.7461459955657
 30
0.0
 11
114.9067186645385
 21
173.9128126622324
 31
0.0
 12
117.4067186645385
 22
174.3294793288991
 32
0.0
 13
117.4067186645385
 23
174.3294793288991
 33
0.0
  0
MTEXT
  5
76F
330
676
100
AcDbEntity
  8
Bemaßung (ISO)
440
 16777216
100
AcDbMText
 10
119.0317186922453
 20
178.6294793288991
 30
0.0
 40
3.5
 41
0.0
 71
     1
 72
     1
  1
\A1;5
  7
Notiztext (DIN)
 73
     1
 44
1.0
  0
POINT
  5
770
330
676
100
AcDbEntity
  8
Defpoints
 62
     0
440
 16777216
100
AcDbPoint
 10
122.4067186645385
 20
190.3294793288991
 30
0.0
  0
POINT
  5
771
330
676
100
AcDbEntity
  8
Defpoints
 62
     0
440
 16777216
100
AcDbPoint
 10
117.4067186645385
 20
190.3294793288991
 30
0.0
  0
POINT
  5
772
330
676
100
AcDbEntity
  8
Defpoints
 62
     0
440
 16777216
100
AcDbPoint
 10
117.4067186645385
 20
174.3294793288991
 30
0.0
  0
ENDBLK
  5
678
330
676
100
AcDbEntity
  8
0
100
AcDbBlockEnd
  0
BLOCK
  5
775
330
774
100
AcDbEntity
  8
0
100
AcDbBlockBegin
  2
*D11
 70
     1
 10
0.0
 20
0.0
 30
0.0
  3
*D11
  1

  0
LINE
  5
84C
330
774
100
AcDbEntity
  8
Bemaßung (ISO)
440
 16777216
100
AcDbLine
 10
117.4067186645385
 20
189.5294793288991
 30
0.0
 11
117.4067186645385
 21
171.154479328899
 31
0.0
  0
LINE
  5
84D
330
774
100
AcDbEntity
  8
Bemaßung (ISO)
440
 16777216
100
AcDbLine
 10
107.4067186645385
 20
189.5294793288991
 30
0.0
 11
107.4067186645385
 21
171.154479328899
 31
0.0
  0
LINE
  5
84E
330
774
100
AcDbEntity
  8
Bemaßung (ISO)
440
 16777216
100
AcDbLine
 10
114.9067186645385
 20
174.3294793288991
 30
0.0
 11
109.9067186645385
 21
174.3294793288991
 31
0.0
  0
SOLID
  5
84F
330
774
100
AcDbEntity
  8
Bemaßung (ISO)
440
 16777216
100
AcDbTrace
 10
114.9067186645385
 20
174.7461459955657
 30
0.0
 11
114.9067186645385
 21
173.9128126622324
 31
0.0
 12
117.4067186645385
 22
174.3294793288991
 32
0.0
 13
117.4067186645385
 23
174.3294793288991
 33
0.0
  0
SOLID
  5
850
330
774
100
AcDbEntity
  8
Bemaßung (ISO)
440
 16777216
100
AcDbTrace
 10
109.9067186645385
 20
174.7461459955657
 30
0.0
 11
109.9067186645385
 21
173.9128126622324
 31
0.0
 12
107.4067186645385
 22
174.3294793288991
 32
0.0
 13
107.4067186645385
 23
174.3294793288991
 33
0.0
  0
MTEXT
  5
851
330
774
100
AcDbEntity
  8
Bemaßung (ISO)
440
 16777216
100
AcDbMText
 10
110.6567187199522
 20
178.6294793288991
 30
0.0
 40
3.5
 41
0.0
 71
     1
 72
     1
  1
\A1;10
  7
Notiztext (DIN)
 73
     1
 44
1.0
  0
POINT
  5
852
330
774
100
AcDbEntity
  8
Defpoints
 62
     0
440
 16777216
100
AcDbPoint
 10
117.4067186645385
 20
190.3294793288991
 30
0.0
  0
POINT
  5
853
330
774
100
AcDbEntity
  8
Defpoints
 62
     0
440
 16777216
100
AcDbPoint
 10
107.4067186645385
 20
190.3294793288991
 30
0.0
  0
POINT
  5
854
330
774
100
AcDbEntity
  8
Defpoints
 62
     0
440
 16777216
100
AcDbPoint
 10
107.4067186645385
 20
174.3294793288991
 30
0.0
  0
ENDBLK
  5
776
330
774
100
AcDbEntity
  8
0
100
AcDbBlockEnd
  0
BLOCK
  5
857
330
856
100
AcDbEntity
  8
0
100
AcDbBlockBegin
  2
*D12
 70
     1
 10
0.0
 20
0.0
 30
0.0
  3
*D12
  1

  0
LINE
  5
92E
330
856
100
AcDbEntity
  8
Bemaßung (ISO)
440
 16777216
100
AcDbLine
 10
107.4067186645385
 20
189.5294793288991
 30
0.0
 11
107.4067186645385
 21
171.154479328899
 31
0.0
  0
LINE
  5
92F
330
856
100
AcDbEntity
  8
Bemaßung (ISO)
440
 16777216
100
AcDbLine
 10
94.40671866453852
 20
189.5294793288991
 30
0.0
 11
94.40671866453852
 21
171.154479328899
 31
0.0
  0
LINE
  5
930
330
856
100
AcDbEntity
  8
Bemaßung (ISO)
440
 16777216
100
AcDbLine
 10
104.9067186645385
 20
174.3294793288991
 30
0.0
 11
96.90671866453852
 21
174.3294793288991
 31
0.0
  0
SOLID
  5
931
330
856
100
AcDbEntity
  8
Bemaßung (ISO)
440
 16777216
100
AcDbTrace
 10
104.9067186645385
 20
174.7461459955657
 30
0.0
 11
104.9067186645385
 21
173.9128126622324
 31
0.0
 12
107.4067186645385
 22
174.3294793288991
 32
0.0
 13
107.4067186645385
 23
174.3294793288991
 33
0.0
  0
SOLID
  5
932
330
856
100
AcDbEntity
  8
Bemaßung (ISO)
440
 16777216
100
AcDbTrace
 10
96.90671866453852
 20
174.7461459955657
 30
0.0
 11
96.90671866453852
 21
173.9128126622324
 31
0.0
 12
94.40671866453852
 22
174.3294793288991
 32
0.0
 13
94.40671866453852
 23
174.3294793288991
 33
0.0
  0
MTEXT
  5
933
330
856
100
AcDbEntity
  8
Bemaßung (ISO)
440
 16777216
100
AcDbMText
 10
99.15671871995222
 20
178.6294793288991
 30
0.0
 40
3.5
 41
0.0
 71
     1
 72
     1
  1
\A1;13
  7
Notiztext (DIN)
 73
     1
 44
1.0
  0
POINT
  5
934
330
856
100
AcDbEntity
  8
Defpoints
 62
     0
440
 16777216
100
AcDbPoint
 10
107.4067186645385
 20
190.3294793288991
 30
0.0
  0
POINT
  5
935
330
856
100
AcDbEntity
  8
Defpoints
 62
     0
440
 16777216
100
AcDbPoint
 10
94.40671866453852
 20
190.3294793288991
 30
0.0
  0
POINT
  5
936
330
856
100
AcDbEntity
  8
Defpoints
 62
     0
440
 16777216
100
AcDbPoint
 10
94.40671866453852
 20
174.3294793288991
 30
0.0
  0
ENDBLK
  5
858
330
856
100
AcDbEntity
  8
0
100
AcDbBlockEnd
  0
BLOCK
  5
939
330
938
100
AcDbEntity
  8
0
100
AcDbBlockBegin
  2
*D13
 70
     1
 10
0.0
 20
0.0
 30
0.0
  3
*D13
  1

  0
LINE
  5
A10
330
938
100
AcDbEntity
  8
Bemaßung (ISO)
440
 16777216
100
AcDbLine
 10
84.40671866453852
 20
189.5294793288991
 30
0.0
 11
84.40671866453852
 21
171.154479328899
 31
0.0
  0
LINE
  5
A11
330
938
100
AcDbEntity
  8
Bemaßung (ISO)
440
 16777216
100
AcDbLine
 10
94.40671866453852
 20
189.5294793288991
 30
0.0
 11
94.40671866453852
 21
171.154479328899
 31
0.0
  0
LINE
  5
A12
330
938
100
AcDbEntity
  8
Bemaßung (ISO)
440
 16777216
100
AcDbLine
 10
86.90671866453852
 20
174.3294793288991
 30
0.0
 11
91.90671866453852
 21
174.3294793288991
 31
0.0
  0
SOLID
  5
A13
330
938
100
AcDbEntity
  8
Bemaßung (ISO)
440
 16777216
100
AcDbTrace
 10
86.90671866453852
 20
174.7461459955657
 30
0.0
 11
86.90671866453852
 21
173.9128126622324
 31
0.0
 12
84.40671866453852
 22
174.3294793288991
 32
0.0
 13
84.40671866453852
 23
174.3294793288991
 33
0.0
  0
SOLID
  5
A14
330
938
100
AcDbEntity
  8
Bemaßung (ISO)
440
 16777216
100
AcDbTrace
 10
91.90671866453852
 20
174.7461459955657
 30
0.0
 11
91.90671866453852
 21
173.9128126622324
 31
0.0
 12
94.40671866453852
 22
174.3294793288991
 32
0.0
 13
94.40671866453852
 23
174.3294793288991
 33
0.0
  0
MTEXT
  5
A15
330
938
100
AcDbEntity
  8
Bemaßung (ISO)
440
 16777216
100
AcDbMText
 10
87.65671871995222
 20
178.6294793288991
 30
0.0
 40
3.5
 41
0.0
 71
     1
 72
     1
  1
\A1;10
  7
Notiztext (DIN)
 73
     1
 44
1.0
  0
POINT
  5
A16
330
938
100
AcDbEntity
  8
Defpoints
 62
     0
440
 16777216
100
AcDbPoint
 10
84.40671866453852
 20
190.3294793288991
 30
0.0
  0
POINT
  5
A17
330
938
100
AcDbEntity
  8
Defpoints
 62
     0
440
 16777216
100
AcDbPoint
 10
94.40671866453852
 20
190.3294793288991
 30
0.0
  0
POINT
  5
A18
330
938
100
AcDbEntity
  8
Defpoints
 62
     0
440
 16777216
100
AcDbPoint
 10
94.40671866453852
 20
174.3294793288991
 30
0.0
  0
ENDBLK
  5
93A
330
938
100
AcDbEntity
  8
0
100
AcDbBlockEnd
  0
BLOCK
  5
A1A
330
A19
100
AcDbEntity
  8
0
100
AcDbBlockBegin
  2
Schweißsymbol1
 70
     0
 10
0.0
 20
0.0
 30
0.0
  3
Schweißsymbol1
  1

  0
LINE
  5
A1C
330
A19
100
AcDbEntity
  8
Symbol (ISO)
100
AcDbLine
 10
103.3060506861672
 20
189.6271931692838
 30
0.0
 11
100.9067186645385
 21
190.3294793288991
 31
0.0
  0
POLYLINE
  5
A1D
330
A19
100
AcDbEntity
  8
Symbol (ISO)
100
AcDb2dPolyline
 66
     1
 10
0.0
 20
0.0
 30
0.0
 70
   128
  0
VERTEX
  5
A1E
330
A1D
100
AcDbEntity
  8
Symbol (ISO)
100
AcDbVertex
100
AcDb2dVertex
 10
103.44651222229
 20
190.1070594787597
 30
0.0
  0
VERTEX
  5
A1F
330
A1D
100
AcDbEntity
  8
Symbol (ISO)
100
AcDbVertex
100
AcDb2dVertex
 10
100.9067153930664
 20
190.329475402832
 30
0.0
  0
VERTEX
  5
A21
330
A1D
100
AcDbEntity
  8
Symbol (ISO)
100
AcDbVertex
100
AcDb2dVertex
 10
103.1655979156494
 20
189.1473197937012
 30
0.0
  0
VERTEX
  5
A22
330
A1D
100
AcDbEntity
  8
Symbol (ISO)
100
AcDbVertex
100
AcDb2dVertex
 10
103.44651222229
 20
190.1070594787597
 30
0.0
  0
SEQEND
  5
A20
330
A1D
100
AcDbEntity
  8
Symbol (ISO)
  0
SOLID
  5
A23
330
A19
100
AcDbEntity
  8
Symbol (ISO)
100
AcDbTrace
 10
103.44651222229
 20
190.1070594787597
 30
0.0
 11
100.9067153930664
 21
190.329475402832
 31
0.0
 12
103.1655979156494
 22
189.1473197937012
 32
0.0
 13
103.44651222229
 23
190.1070594787597
 33
0.0
  0
LINE
  5
A24
330
A19
100
AcDbEntity
  8
Symbol (ISO)
100
AcDbLine
 10
103.4465079180902
 20
190.1070595736096
 30
0.0
 11
100.9067186645385
 21
190.3294793288991
 31
0.0
  0
LINE
  5
A25
330
A19
100
AcDbEntity
  8
Symbol (ISO)
100
AcDbLine
 10
100.9067186645385
 20
190.3294793288991
 30
0.0
 11
103.1655934542441
 21
189.1473267649581
 31
0.0
  0
LINE
  5
A26
330
A19
100
AcDbEntity
  8
Symbol (ISO)
100
AcDbLine
 10
103.1655934542441
 20
189.1473267649581
 30
0.0
 11
103.4465079180902
 21
190.1070595736096
 31
0.0
  0
LINE
  5
A27
330
A19
100
AcDbEntity
  8
Symbol (ISO)
100
AcDbLine
 10
103.3060506861672
 20
189.6271931692838
 30
0.0
 11
125.3449085777045
 21
183.1764040615524
 31
0.0
  0
LINE
  5
A28
330
A19
100
AcDbEntity
  8
Symbol (ISO)
100
AcDbLine
 10
137.3449085792045
 20
183.1764040615524
 30
0.0
 11
140.8449085195998
 21
186.6764040019477
 31
0.0
  0
LINE
  5
A29
330
A19
100
AcDbEntity
  8
Symbol (ISO)
100
AcDbLine
 10
137.3449085792045
 20
183.1764040615524
 30
0.0
 11
140.8449085195998
 21
179.676404121157
 31
0.0
  0
MTEXT
  5
A2A
330
A19
100
AcDbEntity
  8
Symbol (ISO)
100
AcDbMText
 10
141.8949085017185
 20
181.4264040913547
 30
0.0
 40
3.499999940395355
 41
0.0
 71
     7
 72
     1
  1
 
  7
Notiztext (DIN)
 73
     1
 44
1.0
  0
LINE
  5
A2B
330
A19
100
AcDbEntity
  8
Symbol (ISO)
100
AcDbLine
 10
125.3449085792045
 20
183.1764040615524
 30
0.0
 11
137.3449085792045
 21
183.1764040615524
 31
0.0
  0
ENDBLK
  5
A1B
330
A19
100
AcDbEntity
  8
0
100
AcDbBlockEnd
  0
BLOCK
  5
A2F
330
A2E
100
AcDbEntity
  8
0
100
AcDbBlockBegin
  2
*D15
 70
     1
 10
0.0
 20
0.0
 30
0.0
  3
*D15
  1

  0
LINE
  5
AB2
330
A2E
100
AcDbEntity
  8
Bemaßung (ISO)
440
 16777216
100
AcDbLine
 10
89.73369068235246
 20
210.6048540698437
 30
0.0
 11
79.61985729664052
 21
218.648811270799
 31
0.0
  0
MTEXT
  5
AB3
330
A2E
100
AcDbEntity
  8
Bemaßung (ISO)
440
 16777216
100
AcDbMText
 10
85.78267758934622
 20
220.1358621810677
 30
0.0
 40
3.5
 41
0.0
 71
     1
 72
     1
  1
\A1;R0,2
  7
Notiztext (DIN)
 11
0.7826439378155384
 21
-0.6224696511482211
 31
0.0
 73
     1
 44
1.0
  0
SOLID
  5
AB4
330
A2E
100
AcDbEntity
  8
Bemaßung (ISO)
440
 16777216
100
AcDbTrace
 10
79.8792196512856
 20
218.9749129115555
 30
0.0
 11
79.36049494199541
 21
218.3227096300425
 31
0.0
 12
77.66324745210167
 22
220.2049853986696
 32
0.0
 13
77.66324745210167
 23
220.2049853986696
 33
0.0
  0
POINT
  5
AB5
330
A2E
100
AcDbEntity
  8
Defpoints
 62
     0
440
 16777216
100
AcDbPoint
 10
77.66324745210167
 20
220.2049853986696
 30
0.0
  0
POINT
  5
AB6
330
A2E
100
AcDbEntity
  8
Defpoints
 62
     0
440
 16777216
100
AcDbPoint
 10
77.5067186645386
 20
220.3294793288992
 30
0.0
  0
ENDBLK
  5
A30
330
A2E
100
AcDbEntity
  8
0
100
AcDbBlockEnd
  0
BLOCK
  5
AB9
330
AB8
100
AcDbEntity
  8
0
100
AcDbBlockBegin
  2
*D16
 70
     1
 10
0.0
 20
0.0
 30
0.0
  3
*D16
  1

  0
LINE
  5
B90
330
AB8
100
AcDbEntity
  8
Bemaßung (ISO)
440
 16777216
100
AcDbLine
 10
48.90671866453853
 20
190.3294793288991
 30
0.0
 11
24.53171866453855
 21
190.3294793288991
 31
0.0
  0
LINE
  5
B91
330
AB8
100
AcDbEntity
  8
Bemaßung (ISO)
440
 16777216
100
AcDbLine
 10
76.70671866453854
 20
220.3294793288991
 30
0.0
 11
24.53171866453857
 21
220.3294793288991
 31
0.0
  0
LINE
  5
B92
330
AB8
100
AcDbEntity
  8
Bemaßung (ISO)
440
 16777216
100
AcDbLine
 10
27.70671866453856
 20
192.8294793288991
 30
0.0
 11
27.70671866453856
 21
217.8294793288992
 31
0.0
  0
SOLID
  5
B93
330
AB8
100
AcDbEntity
  8
Bemaßung (ISO)
440
 16777216
100
AcDbTrace
 10
27.29005199787189
 20
192.8294793288991
 30
0.0
 11
28.12338533120522
 21
192.8294793288991
 31
0.0
 12
27.70671866453856
 22
190.3294793288991
 32
0.0
 13
27.70671866453856
 23
190.3294793288991
 33
0.0
  0
SOLID
  5
B94
330
AB8
100
AcDbEntity
  8
Bemaßung (ISO)
440
 16777216
100
AcDbTrace
 10
27.2900519978719
 20
217.8294793288992
 30
0.0
 11
28.12338533120523
 21
217.8294793288992
 31
0.0
 12
27.70671866453856
 22
220.3294793288991
 32
0.0
 13
27.70671866453856
 23
220.3294793288991
 33
0.0
  0
MTEXT
  5
B95
330
AB8
100
AcDbEntity
  8
Bemaßung (ISO)
440
 16777216
100
AcDbMText
 10
23.40671866453853
 20
203.2294793953955
 30
0.0
 40
3.5
 41
0.0
 71
     1
 72
     1
  1
\A1;30
  7
Notiztext (DIN)
 11
0.0000000000000001
 21
1.0
 31
0.0
 73
     1
 44
1.0
  0
POINT
  5
B96
330
AB8
100
AcDbEntity
  8
Defpoints
 62
     0
440
 16777216
100
AcDbPoint
 10
49.70671866453852
 20
190.3294793288991
 30
0.0
  0
POINT
  5
B97
330
AB8
100
AcDbEntity
  8
Defpoints
 62
     0
440
 16777216
100
AcDbPoint
 10
77.50671866453854
 20
220.3294793288991
 30
0.0
  0
POINT
  5
B98
330
AB8
100
AcDbEntity
  8
Defpoints
 62
     0
440
 16777216
100
AcDbPoint
 10
27.70671866453856
 20
220.3294793288991
 30
0.0
  0
ENDBLK
  5
ABA
330
AB8
100
AcDbEntity
  8
0
100
AcDbBlockEnd
  0
BLOCK
  5
B9B
330
B9A
100
AcDbEntity
  8
0
100
AcDbBlockBegin
  2
*D17
 70
     1
 10
0.0
 20
0.0
 30
0.0
  3
*D17
  1

  0
LINE
  5
C8C
330
B9A
100
AcDbEntity
  8
Bemaßung (ISO)
440
 16777216
100
AcDbLine
 10
100.5067186645385
 20
260.3294793288991
 30
0.0
 11
112.8817186645385
 21
260.3294793288991
 31
0.0
  0
LINE
  5
C8D
330
B9A
100
AcDbEntity
  8
Bemaßung (ISO)
440
 16777216
100
AcDbLine
 10
100.5067186645385
 20
255.3294793288992
 30
0.0
 11
112.8817186645385
 21
255.3294793288992
 31
0.0
  0
LINE
  5
C8E
330
B9A
100
AcDbEntity
  8
Bemaßung (ISO)
440
 16777216
100
AcDbLine
 10
109.7067186645386
 20
262.8294793288991
 30
0.0
 11
109.7067186645386
 21
265.3294793288991
 31
0.0
  0
LINE
  5
C8F
330
B9A
100
AcDbEntity
  8
Bemaßung (ISO)
440
 16777216
100
AcDbLine
 10
109.7067186645386
 20
252.8294793288992
 30
0.0
 11
109.7067186645386
 21
250.3294793288991
 31
0.0
  0
LINE
  5
C90
330
B9A
100
AcDbEntity
  8
Bemaßung (ISO)
440
 16777216
100
AcDbLine
 10
109.7067186645386
 20
260.3294793288991
 30
0.0
 11
109.7067186645386
 21
255.3294793288992
 31
0.0
  0
SOLID
  5
C91
330
B9A
100
AcDbEntity
  8
Bemaßung (ISO)
440
 16777216
100
AcDbTrace
 10
109.2900519978719
 20
262.8294793288991
 30
0.0
 11
110.1233853312052
 21
262.8294793288991
 31
0.0
 12
109.7067186645386
 22
260.3294793288991
 32
0.0
 13
109.7067186645386
 23
260.3294793288991
 33
0.0
  0
SOLID
  5
C92
330
B9A
100
AcDbEntity
  8
Bemaßung (ISO)
440
 16777216
100
AcDbTrace
 10
109.2900519978719
 20
252.8294793288992
 30
0.0
 11
110.1233853312052
 21
252.8294793288992
 31
0.0
 12
109.7067186645386
 22
255.3294793288992
 32
0.0
 13
109.7067186645386
 23
255.3294793288992
 33
0.0
  0
MTEXT
  5
C93
330
B9A
100
AcDbEntity
  8
Bemaßung (ISO)
440
 16777216
100
AcDbMText
 10
105.4067186645385
 20
256.954479356606
 30
0.0
 40
3.5
 41
0.0
 71
     1
 72
     1
  1
\A1;5
  7
Notiztext (DIN)
 11
0.0000000000000001
 21
1.0
 31
0.0
 73
     1
 44
1.0
  0
POINT
  5
C94
330
B9A
100
AcDbEntity
  8
Defpoints
 62
     0
440
 16777216
100
AcDbPoint
 10
99.70671866453853
 20
260.3294793288991
 30
0.0
  0
POINT
  5
C95
330
B9A
100
AcDbEntity
  8
Defpoints
 62
     0
440
 16777216
100
AcDbPoint
 10
99.70671866453853
 20
255.3294793288992
 30
0.0
  0
POINT
  5
C96
330
B9A
100
AcDbEntity
  8
Defpoints
 62
     0
440
 16777216
100
AcDbPoint
 10
109.7067186645386
 20
255.3294793288992
 30
0.0
  0
ENDBLK
  5
B9C
330
B9A
100
AcDbEntity
  8
0
100
AcDbBlockEnd
  0
BLOCK
  5
C99
330
C98
100
AcDbEntity
  8
0
100
AcDbBlockBegin
  2
*D18
 70
     1
 10
0.0
 20
0.0
 30
0.0
  3
*D18
  1

  0
LINE
  5
D70
330
C98
100
AcDbEntity
  8
Bemaßung (ISO)
440
 16777216
100
AcDbLine
 10
98.50671866453852
 20
255.3294793288992
 30
0.0
 11
112.8817186645385
 21
255.3294793288992
 31
0.0
  0
LINE
  5
D71
330
C98
100
AcDbEntity
  8
Bemaßung (ISO)
440
 16777216
100
AcDbLine
 10
98.50671866453852
 20
218.3294793288991
 30
0.0
 11
112.8817186645385
 21
218.3294793288991
 31
0.0
  0
LINE
  5
D72
330
C98
100
AcDbEntity
  8
Bemaßung (ISO)
440
 16777216
100
AcDbLine
 10
109.7067186645386
 20
252.8294793288992
 30
0.0
 11
109.7067186645386
 21
220.8294793288991
 31
0.0
  0
SOLID
  5
D73
330
C98
100
AcDbEntity
  8
Bemaßung (ISO)
440
 16777216
100
AcDbTrace
 10
109.2900519978719
 20
252.8294793288992
 30
0.0
 11
110.1233853312052
 21
252.8294793288992
 31
0.0
 12
109.7067186645386
 22
255.3294793288992
 32
0.0
 13
109.7067186645386
 23
255.3294793288992
 33
0.0
  0
SOLID
  5
D74
330
C98
100
AcDbEntity
  8
Bemaßung (ISO)
440
 16777216
100
AcDbTrace
 10
109.2900519978719
 20
220.8294793288991
 30
0.0
 11
110.1233853312052
 21
220.8294793288991
 31
0.0
 12
109.7067186645386
 22
218.3294793288991
 32
0.0
 13
109.7067186645386
 23
218.3294793288991
 33
0.0
  0
MTEXT
  5
D75
330
C98
100
AcDbEntity
  8
Bemaßung (ISO)
440
 16777216
100
AcDbMText
 10
105.4067186645385
 20
234.7294793953956
 30
0.0
 40
3.5
 41
0.0
 71
     1
 72
     1
  1
\A1;37
  7
Notiztext (DIN)
 11
0.0000000000000001
 21
1.0
 31
0.0
 73
     1
 44
1.0
  0
POINT
  5
D76
330
C98
100
AcDbEntity
  8
Defpoints
 62
     0
440
 16777216
100
AcDbPoint
 10
97.70671866453852
 20
255.3294793288992
 30
0.0
  0
POINT
  5
D77
330
C98
100
AcDbEntity
  8
Defpoints
 62
     0
440
 16777216
100
AcDbPoint
 10
97.70671866453852
 20
218.3294793288991
 30
0.0
  0
POINT
  5
D78
330
C98
100
AcDbEntity
  8
Defpoints
 62
     0
440
 16777216
100
AcDbPoint
 10
109.7067186645386
 20
218.3294793288991
 30
0.0
  0
ENDBLK
  5
C9A
330
C98
100
AcDbEntity
  8
0
100
AcDbBlockEnd
  0
BLOCK
  5
D7B
330
D7A
100
AcDbEntity
  8
0
100
AcDbBlockBegin
  2
*D19
 70
     1
 10
0.0
 20
0.0
 30
0.0
  3
*D19
  1

  0
LINE
  5
E46
330
D7A
100
AcDbEntity
  8
Bemaßung (ISO)
440
 16777216
100
AcDbLine
 10
123.2067186645385
 20
190.3294793288991
 30
0.0
 11
147.5817186645385
 21
190.3294793288991
 31
0.0
  0
LINE
  5
E47
330
D7A
100
AcDbEntity
  8
Bemaßung (ISO)
440
 16777216
100
AcDbLine
 10
100.5067186645385
 20
260.3294793288991
 30
0.0
 11
147.5817186645386
 21
260.329479328899
 31
0.0
  0
LINE
  5
E48
330
D7A
100
AcDbEntity
  8
Bemaßung (ISO)
440
 16777216
100
AcDbLine
 10
144.4067186645385
 20
192.8294793288991
 30
0.0
 11
144.4067186645385
 21
257.829479328899
 31
0.0
  0
SOLID
  5
E49
330
D7A
100
AcDbEntity
  8
Bemaßung (ISO)
440
 16777216
100
AcDbTrace
 10
143.9900519978719
 20
192.8294793288991
 30
0.0
 11
144.8233853312052
 21
192.8294793288991
 31
0.0
 12
144.4067186645385
 22
190.3294793288991
 32
0.0
 13
144.4067186645385
 23
190.3294793288991
 33
0.0
  0
SOLID
  5
E4A
330
D7A
100
AcDbEntity
  8
Bemaßung (ISO)
440
 16777216
100
AcDbTrace
 10
143.9900519978719
 20
257.829479328899
 30
0.0
 11
144.8233853312052
 21
257.829479328899
 31
0.0
 12
144.4067186645385
 22
260.329479328899
 32
0.0
 13
144.4067186645385
 23
260.329479328899
 33
0.0
  0
MTEXT
  5
E4B
330
D7A
100
AcDbEntity
  8
Bemaßung (ISO)
440
 16777216
100
AcDbMText
 10
140.1067186645385
 20
223.2294793953955
 30
0.0
 40
3.5
 41
0.0
 71
     1
 72
     1
  1
\A1;70
  7
Notiztext (DIN)
 11
0.0000000000000001
 21
1.0
 31
0.0
 73
     1
 44
1.0
  0
POINT
  5
E4C
330
D7A
100
AcDbEntity
  8
Defpoints
 62
     0
440
 16777216
100
AcDbPoint
 10
122.4067186645385
 20
190.3294793288991
 30
0.0
  0
POINT
  5
E4D
330
D7A
100
AcDbEntity
  8
Defpoints
 62
     0
440
 16777216
100
AcDbPoint
 10
99.70671866453853
 20
260.3294793288991
 30
0.0
  0
POINT
  5
E4E
330
D7A
100
AcDbEntity
  8
Defpoints
 62
     0
440
 16777216
100
AcDbPoint
 10
144.4067186645385
 20
260.329479328899
 30
0.0
  0
ENDBLK
  5
D7C
330
D7A
100
AcDbEntity
  8
0
100
AcDbBlockEnd
  0
BLOCK
  5
E51
330
E50
100
AcDbEntity
  8
0
100
AcDbBlockBegin
  2
*D20
 70
     1
 10
0.0
 20
0.0
 30
0.0
  3
*D20
  1

  0
LINE
  5
F44
330
E50
100
AcDbEntity
  8
Bemaßung (ISO)
440
 16777216
100
AcDbLine
 10
123.2067186645385
 20
192.3294793288991
 30
0.0
 11
135.5817186645385
 21
192.3294793288991
 31
0.0
  0
LINE
  5
F45
330
E50
100
AcDbEntity
  8
Bemaßung (ISO)
440
 16777216
100
AcDbLine
 10
123.2067186645385
 20
190.3294793288991
 30
0.0
 11
135.5817186645385
 21
190.3294793288991
 31
0.0
  0
LINE
  5
F46
330
E50
100
AcDbEntity
  8
Bemaßung (ISO)
440
 16777216
100
AcDbLine
 10
132.4067186645385
 20
187.8294793288991
 30
0.0
 11
132.4067186645385
 21
185.3294793288991
 31
0.0
  0
LINE
  5
F47
330
E50
100
AcDbEntity
  8
Bemaßung (ISO)
440
 16777216
100
AcDbLine
 10
132.4067186645385
 20
194.8294793288991
 30
0.0
 11
132.4067186645385
 21
200.6794792734854
 31
0.0
  0
LINE
  5
F48
330
E50
100
AcDbEntity
  8
Bemaßung (ISO)
440
 16777216
100
AcDbLine
 10
132.4067186645385
 20
190.3294793288991
 30
0.0
 11
132.4067186645385
 21
192.3294793288991
 31
0.0
  0
SOLID
  5
F49
330
E50
100
AcDbEntity
  8
Bemaßung (ISO)
440
 16777216
100
AcDbTrace
 10
131.9900519978718
 20
187.8294793288991
 30
0.0
 11
132.8233853312051
 21
187.8294793288991
 31
0.0
 12
132.4067186645385
 22
190.3294793288991
 32
0.0
 13
132.4067186645385
 23
190.3294793288991
 33
0.0
  0
SOLID
  5
F4A
330
E50
100
AcDbEntity
  8
Bemaßung (ISO)
440
 16777216
100
AcDbTrace
 10
131.9900519978719
 20
194.8294793288991
 30
0.0
 11
132.8233853312052
 21
194.8294793288991
 31
0.0
 12
132.4067186645385
 22
192.3294793288991
 32
0.0
 13
132.4067186645385
 23
192.3294793288991
 33
0.0
  0
MTEXT
  5
F4B
330
E50
100
AcDbEntity
  8
Bemaßung (ISO)
440
 16777216
100
AcDbMText
 10
128.1067186645385
 20
198.1294793288991
 30
0.0
 40
3.5
 41
0.0
 71
     1
 72
     1
  1
\A1;2
  7
Notiztext (DIN)
 11
0.0000000000000001
 21
1.0
 31
0.0
 73
     1
 44
1.0
  0
POINT
  5
F4C
330
E50
100
AcDbEntity
  8
Defpoints
 62
     0
440
 16777216
100
AcDbPoint
 10
122.4067186645385
 20
192.3294793288991
 30
0.0
  0
POINT
  5
F4D
330
E50
100
AcDbEntity
  8
Defpoints
 62
     0
440
 16777216
100
AcDbPoint
 10
122.4067186645385
 20
190.3294793288991
 30
0.0
  0
POINT
  5
F4E
330
E50
100
AcDbEntity
  8
Defpoints
 62
     0
440
 16777216
100
AcDbPoint
 10
132.4067186645385
 20
190.3294793288991
 30
0.0
  0
ENDBLK
  5
E52
330
E50
100
AcDbEntity
  8
0
100
AcDbBlockEnd
  0
BLOCK
  5
F51
330
F50
100
AcDbEntity
  8
0
100
AcDbBlockBegin
  2
*D21
 70
     1
 10
0.0
 20
0.0
 30
0.0
  3
*D21
  1

  0
LINE
  5
1044
330
F50
100
AcDbEntity
  8
Bemaßung (ISO)
440
 16777216
100
AcDbLine
 10
83.60671866453852
 20
192.1294793288991
 30
0.0
 11
75.19850575165865
 21
192.1294793288991
 31
0.0
  0
LINE
  5
1045
330
F50
100
AcDbEntity
  8
Bemaßung (ISO)
440
 16777216
100
AcDbLine
 10
83.60671866453852
 20
190.3294793288991
 30
0.0
 11
75.19850575165865
 21
190.3294793288991
 31
0.0
  0
LINE
  5
1046
330
F50
100
AcDbEntity
  8
Bemaßung (ISO)
440
 16777216
100
AcDbLine
 10
78.37350575165865
 20
194.6294793288991
 30
0.0
 11
78.37350575165865
 21
197.1294793288991
 31
0.0
  0
LINE
  5
1047
330
F50
100
AcDbEntity
  8
Bemaßung (ISO)
440
 16777216
100
AcDbLine
 10
78.37350575165865
 20
187.8294793288991
 30
0.0
 11
78.37350575165865
 21
179.0044794785161
 31
0.0
  0
LINE
  5
1048
330
F50
100
AcDbEntity
  8
Bemaßung (ISO)
440
 16777216
100
AcDbLine
 10
78.37350575165865
 20
192.1294793288991
 30
0.0
 11
78.37350575165865
 21
190.3294793288991
 31
0.0
  0
SOLID
  5
1049
330
F50
100
AcDbEntity
  8
Bemaßung (ISO)
440
 16777216
100
AcDbTrace
 10
77.95683908499198
 20
194.6294793288991
 30
0.0
 11
78.79017241832532
 21
194.6294793288991
 31
0.0
 12
78.37350575165865
 22
192.1294793288991
 32
0.0
 13
78.37350575165865
 23
192.1294793288991
 33
0.0
  0
SOLID
  5
104A
330
F50
100
AcDbEntity
  8
Bemaßung (ISO)
440
 16777216
100
AcDbTrace
 10
77.95683908499198
 20
187.8294793288991
 30
0.0
 11
78.79017241832532
 21
187.8294793288991
 31
0.0
 12
78.37350575165865
 22
190.3294793288991
 32
0.0
 13
78.37350575165865
 23
190.3294793288991
 33
0.0
  0
MTEXT
  5
104B
330
F50
100
AcDbEntity
  8
Bemaßung (ISO)
440
 16777216
100
AcDbMText
 10
73.37350577382411
 20
179.8044794785161
 30
0.0
 40
3.5
 41
0.0
 71
     1
 72
     1
  1
\A1;1,8
  7
Notiztext (DIN)
 11
0.0000000000000001
 21
1.0
 31
0.0
 73
     1
 44
1.0
  0
POINT
  5
104C
330
F50
100
AcDbEntity
  8
Defpoints
 62
     0
440
 16777216
100
AcDbPoint
 10
84.40671866453852
 20
192.1294793288991
 30
0.0
  0
POINT
  5
104D
330
F50
100
AcDbEntity
  8
Defpoints
 62
     0
440
 16777216
100
AcDbPoint
 10
84.40671866453852
 20
190.3294793288991
 30
0.0
  0
POINT
  5
104E
330
F50
100
AcDbEntity
  8
Defpoints
 62
     0
440
 16777216
100
AcDbPoint
 10
78.37350575165865
 20
190.3294793288991
 30
0.0
  0
ENDBLK
  5
F52
330
F50
100
AcDbEntity
  8
0
100
AcDbBlockEnd
  0
BLOCK
  5
1051
330
1050
100
AcDbEntity
  8
0
100
AcDbBlockBegin
  2
*D22
 70
     1
 10
0.0
 20
0.0
 30
0.0
  3
*D22
  1

  0
LINE
  5
1144
330
1050
100
AcDbEntity
  8
Bemaßung (ISO)
440
 16777216
100
AcDbLine
 10
48.90671866453853
 20
190.3294793288991
 30
0.0
 11
34.53171866453857
 21
190.3294793288991
 31
0.0
  0
LINE
  5
1145
330
1050
100
AcDbEntity
  8
Bemaßung (ISO)
440
 16777216
100
AcDbLine
 10
48.90671866453853
 20
192.3294793288991
 30
0.0
 11
34.53171866453857
 21
192.3294793288991
 31
0.0
  0
LINE
  5
1146
330
1050
100
AcDbEntity
  8
Bemaßung (ISO)
440
 16777216
100
AcDbLine
 10
37.70671866453857
 20
194.8294793288991
 30
0.0
 11
37.70671866453857
 21
197.3294793288991
 31
0.0
  0
LINE
  5
1147
330
1050
100
AcDbEntity
  8
Bemaßung (ISO)
440
 16777216
100
AcDbLine
 10
37.70671866453857
 20
187.8294793288991
 30
0.0
 11
37.70671866453857
 21
181.9794793843128
 31
0.0
  0
LINE
  5
1148
330
1050
100
AcDbEntity
  8
Bemaßung (ISO)
440
 16777216
100
AcDbLine
 10
37.70671866453857
 20
192.3294793288991
 30
0.0
 11
37.70671866453857
 21
190.3294793288991
 31
0.0
  0
SOLID
  5
1149
330
1050
100
AcDbEntity
  8
Bemaßung (ISO)
440
 16777216
100
AcDbTrace
 10
37.29005199787191
 20
194.8294793288991
 30
0.0
 11
38.12338533120524
 21
194.8294793288991
 31
0.0
 12
37.70671866453857
 22
192.3294793288991
 32
0.0
 13
37.70671866453857
 23
192.3294793288991
 33
0.0
  0
SOLID
  5
114A
330
1050
100
AcDbEntity
  8
Bemaßung (ISO)
440
 16777216
100
AcDbTrace
 10
37.29005199787191
 20
187.8294793288991
 30
0.0
 11
38.12338533120524
 21
187.8294793288991
 31
0.0
 12
37.70671866453857
 22
190.3294793288991
 32
0.0
 13
37.70671866453857
 23
190.3294793288991
 33
0.0
  0
MTEXT
  5
114B
330
1050
100
AcDbEntity
  8
Bemaßung (ISO)
440
 16777216
100
AcDbMText
 10
33.40671866453855
 20
182.7794793843128
 30
0.0
 40
3.5
 41
0.0
 71
     1
 72
     1
  1
\A1;2
  7
Notiztext (DIN)
 11
0.0000000000000001
 21
1.0
 31
0.0
 73
     1
 44
1.0
  0
POINT
  5
114C
330
1050
100
AcDbEntity
  8
Defpoints
 62
     0
440
 16777216
100
AcDbPoint
 10
49.70671866453852
 20
190.3294793288991
 30
0.0
  0
POINT
  5
114D
330
1050
100
AcDbEntity
  8
Defpoints
 62
     0
440
 16777216
100
AcDbPoint
 10
49.70671866453852
 20
192.3294793288991
 30
0.0
  0
POINT
  5
114E
330
1050
100
AcDbEntity
  8
Defpoints
 62
     0
440
 16777216
100
AcDbPoint
 10
37.70671866453857
 20
192.3294793288991
 30
0.0
  0
ENDBLK
  5
1052
330
1050
100
AcDbEntity
  8
0
100
AcDbBlockEnd
  0
BLOCK
  5
1151
330
1150
100
AcDbEntity
  8
0
100
AcDbBlockBegin
  2
*D23
 70
     1
 10
0.0
 20
0.0
 30
0.0
  3
*D23
  1

  0
LINE
  5
1242
330
1150
100
AcDbEntity
  8
Bemaßung (ISO)
440
 16777216
100
AcDbLine
 10
76.90671866453854
 20
220.3294793288991
 30
0.0
 11
34.53171866453858
 21
220.3294793288991
 31
0.0
  0
LINE
  5
1243
330
1150
100
AcDbEntity
  8
Bemaßung (ISO)
440
 16777216
100
AcDbLine
 10
76.90671866453854
 20
225.3294793288991
 30
0.0
 11
34.53171866453858
 21
225.3294793288991
 31
0.0
  0
LINE
  5
1244
330
1150
100
AcDbEntity
  8
Bemaßung (ISO)
440
 16777216
100
AcDbLine
 10
37.70671866453858
 20
217.8294793288991
 30
0.0
 11
37.70671866453858
 21
215.3294793288991
 31
0.0
  0
LINE
  5
1245
330
1150
100
AcDbEntity
  8
Bemaßung (ISO)
440
 16777216
100
AcDbLine
 10
37.70671866453858
 20
227.8294793288992
 30
0.0
 11
37.70671866453858
 21
230.3294793288992
 31
0.0
  0
LINE
  5
1246
330
1150
100
AcDbEntity
  8
Bemaßung (ISO)
440
 16777216
100
AcDbLine
 10
37.70671866453858
 20
220.3294793288991
 30
0.0
 11
37.70671866453858
 21
225.3294793288991
 31
0.0
  0
SOLID
  5
1247
330
1150
100
AcDbEntity
  8
Bemaßung (ISO)
440
 16777216
100
AcDbTrace
 10
37.29005199787192
 20
217.8294793288991
 30
0.0
 11
38.12338533120524
 21
217.8294793288991
 31
0.0
 12
37.70671866453858
 22
220.3294793288991
 32
0.0
 13
37.70671866453858
 23
220.3294793288991
 33
0.0
  0
SOLID
  5
1248
330
1150
100
AcDbEntity
  8
Bemaßung (ISO)
440
 16777216
100
AcDbTrace
 10
37.29005199787192
 20
227.8294793288992
 30
0.0
 11
38.12338533120524
 21
227.8294793288992
 31
0.0
 12
37.70671866453858
 22
225.3294793288991
 32
0.0
 13
37.70671866453858
 23
225.3294793288991
 33
0.0
  0
MTEXT
  5
1249
330
1150
100
AcDbEntity
  8
Bemaßung (ISO)
440
 16777216
100
AcDbMText
 10
33.40671866453855
 20
221.954479356606
 30
0.0
 40
3.5
 41
0.0
 71
     1
 72
     1
  1
\A1;5
  7
Notiztext (DIN)
 11
0.0000000000000001
 21
1.0
 31
0.0
 73
     1
 44
1.0
  0
POINT
  5
124A
330
1150
100
AcDbEntity
  8
Defpoints
 62
     0
440
 16777216
100
AcDbPoint
 10
77.70671866453854
 20
220.3294793288991
 30
0.0
  0
POINT
  5
124B
330
1150
100
AcDbEntity
  8
Defpoints
 62
     0
440
 16777216
100
AcDbPoint
 10
77.70671866453854
 20
225.3294793288991
 30
0.0
  0
POINT
  5
124C
330
1150
100
AcDbEntity
  8
Defpoints
 62
     0
440
 16777216
100
AcDbPoint
 10
37.70671866453858
 20
225.3294793288991
 30
0.0
  0
ENDBLK
  5
1152
330
1150
100
AcDbEntity
  8
0
100
AcDbBlockEnd
  0
BLOCK
  5
124F
330
124E
100
AcDbEntity
  8
0
100
AcDbBlockBegin
  2
*D24
 70
     1
 10
0.0
 20
0.0
 30
0.0
  3
*D24
  1

  0
LINE
  5
1326
330
124E
100
AcDbEntity
  8
Bemaßung (ISO)
440
 16777216
100
AcDbLine
 10
188.5102260549133
 20
261.1294793288991
 30
0.0
 11
188.5102260549133
 21
273.5044793288991
 31
0.0
  0
LINE
  5
1327
330
124E
100
AcDbEntity
  8
Bemaßung (ISO)
440
 16777216
100
AcDbLine
 10
158.5102260549133
 20
261.1294793288991
 30
0.0
 11
158.5102260549133
 21
273.5044793288991
 31
0.0
  0
LINE
  5
1328
330
124E
100
AcDbEntity
  8
Bemaßung (ISO)
440
 16777216
100
AcDbLine
 10
186.0102260549133
 20
270.3294793288991
 30
0.0
 11
161.0102260549133
 21
270.3294793288991
 31
0.0
  0
SOLID
  5
1329
330
124E
100
AcDbEntity
  8
Bemaßung (ISO)
440
 16777216
100
AcDbTrace
 10
186.0102260549133
 20
270.7461459955658
 30
0.0
 11
186.0102260549133
 21
269.9128126622324
 31
0.0
 12
188.5102260549133
 22
270.3294793288991
 32
0.0
 13
188.5102260549133
 23
270.3294793288991
 33
0.0
  0
SOLID
  5
132A
330
124E
100
AcDbEntity
  8
Bemaßung (ISO)
440
 16777216
100
AcDbTrace
 10
161.0102260549133
 20
270.7461459955658
 30
0.0
 11
161.0102260549133
 21
269.9128126622324
 31
0.0
 12
158.5102260549133
 22
270.3294793288991
 32
0.0
 13
158.5102260549133
 23
270.3294793288991
 33
0.0
  0
MTEXT
  5
132B
330
124E
100
AcDbEntity
  8
Bemaßung (ISO)
440
 16777216
100
AcDbMText
 10
171.4102261214098
 20
274.6294793288991
 30
0.0
 40
3.5
 41
0.0
 71
     1
 72
     1
  1
\A1;30
  7
Notiztext (DIN)
 73
     1
 44
1.0
  0
POINT
  5
132C
330
124E
100
AcDbEntity
  8
Defpoints
 62
     0
440
 16777216
100
AcDbPoint
 10
188.5102260549133
 20
260.3294793288991
 30
0.0
  0
POINT
  5
132D
330
124E
100
AcDbEntity
  8
Defpoints
 62
     0
440
 16777216
100
AcDbPoint
 10
158.5102260549133
 20
260.3294793288991
 30
0.0
  0
POINT
  5
132E
330
124E
100
AcDbEntity
  8
Defpoints
 62
     0
440
 16777216
100
AcDbPoint
 10
158.5102260549133
 20
270.3294793288991
 30
0.0
  0
ENDBLK
  5
1250
330
124E
100
AcDbEntity
  8
0
100
AcDbBlockEnd
  0
BLOCK
  5
1413
330
1411
100
AcDbEntity
  8
0
100
AcDbBlockBegin
  2
GENAXEH
 70
     0
 10
0.0
 20
0.0
 30
0.0
  3
GENAXEH
  1

  0
LINE
  5
1412
330
1411
100
AcDbEntity
  8
0
100
AcDbLine
 10
-1.0
 20
0.0
 30
0.0
 11
1.0
 21
0.0
 31
0.0
  0
ENDBLK
  5
1414
330
1411
100
AcDbEntity
  8
0
100
AcDbBlockEnd
  0
BLOCK
  5
1483
330
147E
100
AcDbEntity
  8
0
100
AcDbBlockBegin
  2
logo-Optibelt
 70
     0
 10
0.0
 20
0.0
 30
0.0
  3
logo-Optibelt
  1

  0
IMAGE
  5
147F
330
147E
100
AcDbEntity
  8
0
 92
      140
310
8C0000000100000084000000060000000500000068271581EDE52140B08682E9988CF73F000000000000000063271581EDE52140075E9FC5D91C1C4000000000000000001139420CD6593240185E9FC5D91C1C4000000000000000001439420CD6593240F28682E9988CF73F000000000000000068271581EDE52140B08682
310
E9988CF73F0000000000000000
100
AcDbRasterImage
 90
        0
 10
8.949077638466135
 20
1.471825515888138
 30
0.0
 11
0.0156959010401798
 21
0.0
 31
0.0
 12
0.0
 22
0.0156959010401798
 32
0.0
 13
599.0
 23
354.0
340
1485
 70
     7
280
     0
281
    50
282
    50
283
     0
360
1480
 71
     1
 91
        2
 14
-0.5
 24
-0.5
 14
598.5
 24
353.5
  0
ENDBLK
  5
1484
330
147E
100
AcDbEntity
  8
0
100
AcDbBlockEnd
  0
ENDSEC
  0
SECTION
  2
ENTITIES
  0
INSERT
  5
184
330
71
100
AcDbEntity
  8
0
100
AcDbBlockReference
 66
     1
  2
Schriftfelder Schriftfeld Nocke
 10
-85.40111427367634
 20
-89.828060382812
 30
0.0
  0
ATTRIB
  5
186
102
{ACAD_XDICTIONARY
360
1351
102
}
330
184
100
AcDbEntity
  8
Titel (ISO)
100
AcDbText
 10
189.9748063896874
 20
15.07051282051291
 30
0.0
 40
2.5
  1
A4
  7
Textstil12
100
AcDbAttribute
  2
Blattgröße_001
 70
     0
  0
ATTRIB
  5
187
102
{ACAD_XDICTIONARY
360
1354
102
}
330
184
100
AcDbEntity
  8
Titel (ISO)
100
AcDbText
 10
144.323918751432
 20
38.65926633112504
 30
0.0
 40
5.0
  1
WKZ-0328
  7
Textstil11
100
AcDbAttribute
  2
BAUTEILNUMMER_001
 70
     0
  0
ATTRIB
  5
188
102
{ACAD_XDICTIONARY
360
1357
102
}
330
184
100
AcDbEntity
  8
Titel (ISO)
100
AcDbText
 10
85.59980632277186
 20
41.41666667660086
 30
0.0
 40
2.000000029802322
  1
12.06.2014
  7
Textstil14
100
AcDbAttribute
  2
ERSTELLUNGSDATUM_001
 70
     0
  0
ATTRIB
  5
189
102
{ACAD_XDICTIONARY
360
135A
102
}
330
184
100
AcDbEntity
  8
Titel (ISO)
100
AcDbText
 10
85.99980632239933
 20
36.81969696433768
 30
0.0
 40
2.000000029802322
  1

  7
Textstil14
 11
85.99980632239933
 21
36.50000000000006
 31
0.0
100
AcDbAttribute
  2
KONTROLLDATUM
 70
     0
 74
     1
  0
ATTRIB
  5
18A
102
{ACAD_XDICTIONARY
360
135D
102
}
330
184
100
AcDbEntity
  8
Titel (ISO)
100
AcDbText
 10
101.1998063227719
 20
41.41969697962834
 30
0.0
 40
2.000000029802322
  1
D. Fischer
  7
Textstil14
100
AcDbAttribute
  2
KONSTRUKTEUR_001
 70
     0
  0
ATTRIB
  5
18B
102
{ACAD_XDICTIONARY
360
1360
102
}
330
184
100
AcDbEntity
  8
Titel (ISO)
100
AcDbText
 10
101.5998063223993
 20
32.56969696433767
 30
0.0
 40
2.000000029802322
  1

  7
Textstil14
 11
101.5998063223993
 21
32.25000000000005
 31
0.0
100
AcDbAttribute
  2
KONSTR._GEN._VON
 70
     0
 74
     1
  0
ATTRIB
  5
18C
102
{ACAD_XDICTIONARY
360
1363
102
}
330
184
100
AcDbEntity
  8
Titel (ISO)
100
AcDbText
 10
101.5998063223993
 20
36.81969696433768
 30
0.0
 40
2.000000029802322
  1

  7
Textstil14
 11
101.5998063223993
 21
36.50000000000006
 31
0.0
100
AcDbAttribute
  2
KONTROLLIERT_VON
 70
     0
 74
     1
  0
ATTRIB
  5
18D
102
{ACAD_XDICTIONARY
360
1366
102
}
330
184
100
AcDbEntity
  8
Titel (ISO)
100
AcDbText
 10
192.1371323772916
 20
20.8559196903745
 30
0.0
 40
2.485507130622863
  1
1
  7
Textstil30
100
AcDbAttribute
  2
Blattnummer_001
 70
     0
  0
ATTRIB
  5
18E
102
{ACAD_XDICTIONARY
360
1369
102
}
330
184
100
AcDbEntity
  8
Titel (ISO)
100
AcDbText
 10
86.1331250929139
 20
32.61960952816894
 30
0.0
 40
2.000000029802322
  1

  7
Textstil14
 11
86.1331250929139
 21
32.29991256383132
 31
0.0
100
AcDbAttribute
  2
GENEHM.DAT._KONSTR.
 70
     0
 74
     1
  0
SEQEND
  5
185
330
184
100
AcDbEntity
  8
0
  0
LINE
  5
18F
330
71
100
AcDbEntity
  8
Sichtbar (ISO)
100
AcDbLine
 10
97.70671866453852
 20
218.3294793288991
 30
0.0
 11
122.4067186645385
 21
192.3294793288991
 31
0.0
  0
LINE
  5
190
330
71
100
AcDbEntity
  8
Sichtbar (ISO)
100
AcDbLine
 10
97.70671866453852
 20
255.3294793288992
 30
0.0
 11
97.70671866453852
 21
218.3294793288991
 31
0.0
  0
LINE
  5
191
330
71
100
AcDbEntity
  8
Sichtbar (ISO)
100
AcDbLine
 10
99.70671866453853
 20
255.3294793288992
 30
0.0
 11
97.70671866453852
 21
255.3294793288992
 31
0.0
  0
LINE
  5
192
330
71
100
AcDbEntity
  8
Sichtbar (ISO)
100
AcDbLine
 10
99.70671866453853
 20
260.3294793288991
 30
0.0
 11
99.70671866453853
 21
255.3294793288992
 31
0.0
  0
LINE
  5
193
330
71
100
AcDbEntity
  8
Sichtbar (ISO)
100
AcDbLine
 10
86.70671866453856
 20
260.3294793288991
 30
0.0
 11
99.70671866453853
 21
260.3294793288991
 31
0.0
  0
LINE
  5
194
330
71
100
AcDbEntity
  8
Sichtbar (ISO)
100
AcDbLine
 10
77.70671866453854
 20
225.3294793288991
 30
0.0
 11
86.70671866453856
 21
260.3294793288991
 31
0.0
  0
LINE
  5
195
330
71
100
AcDbEntity
  8
Sichtbar (ISO)
100
AcDbLine
 10
77.70671866453854
 20
220.3294793288991
 30
0.0
 11
77.70671866453854
 21
225.3294793288991
 31
0.0
  0
ARC
  5
196
330
71
100
AcDbEntity
  8
Sichtbar (ISO)
100
AcDbCircle
 10
77.50671866453854
 20
220.3294793288991
 30
0.0
 40
0.1999999999999982
100
AcDbArc
 50
314.9149363412021
 51
0.0
  0
LINE
  5
197
330
71
100
AcDbEntity
  8
Sichtbar (ISO)
100
AcDbLine
 10
49.70671866453852
 20
192.3294793288991
 30
0.0
 11
77.64792990506305
 21
220.1878481686641
 31
0.0
  0
LINE
  5
198
330
71
100
AcDbEntity
  8
Sichtbar (ISO)
100
AcDbLine
 10
49.70671866453852
 20
190.3294793288991
 30
0.0
 11
49.70671866453852
 21
192.3294793288991
 31
0.0
  0
LINE
  5
199
330
71
100
AcDbEntity
  8
Sichtbar (ISO)
100
AcDbLine
 10
84.40671866453852
 20
190.3294793288991
 30
0.0
 11
49.70671866453852
 21
190.3294793288991
 31
0.0
  0
LINE
  5
19A
330
71
100
AcDbEntity
  8
Sichtbar (ISO)
100
AcDbLine
 10
84.40671866453852
 20
192.1294793288991
 30
0.0
 11
84.40671866453852
 21
190.3294793288991
 31
0.0
  0
LINE
  5
19B
330
71
100
AcDbEntity
  8
Sichtbar (ISO)
100
AcDbLine
 10
94.40671866453852
 20
192.1294793288991
 30
0.0
 11
84.40671866453852
 21
192.1294793288991
 31
0.0
  0
LINE
  5
19C
330
71
100
AcDbEntity
  8
Sichtbar (ISO)
100
AcDbLine
 10
94.40671866453852
 20
190.3294793288991
 30
0.0
 11
94.40671866453852
 21
192.1294793288991
 31
0.0
  0
LINE
  5
19D
330
71
100
AcDbEntity
  8
Sichtbar (ISO)
100
AcDbLine
 10
107.4067186645385
 20
190.3294793288991
 30
0.0
 11
94.40671866453852
 21
190.3294793288991
 31
0.0
  0
LINE
  5
19E
330
71
100
AcDbEntity
  8
Sichtbar (ISO)
100
AcDbLine
 10
107.4067186645385
 20
192.1294793288991
 30
0.0
 11
107.4067186645385
 21
190.3294793288991
 31
0.0
  0
LINE
  5
19F
330
71
100
AcDbEntity
  8
Sichtbar (ISO)
100
AcDbLine
 10
117.4067186645385
 20
192.1294793288991
 30
0.0
 11
107.4067186645385
 21
192.1294793288991
 31
0.0
  0
LINE
  5
1A0
330
71
100
AcDbEntity
  8
Sichtbar (ISO)
100
AcDbLine
 10
117.4067186645385
 20
190.3294793288991
 30
0.0
 11
117.4067186645385
 21
192.1294793288991
 31
0.0
  0
LINE
  5
1A1
330
71
100
AcDbEntity
  8
Sichtbar (ISO)
100
AcDbLine
 10
122.4067186645385
 20
190.3294793288991
 30
0.0
 11
117.4067186645385
 21
190.3294793288991
 31
0.0
  0
LINE
  5
1A2
330
71
100
AcDbEntity
  8
Sichtbar (ISO)
100
AcDbLine
 10
122.4067186645385
 20
192.3294793288991
 30
0.0
 11
122.4067186645385
 21
190.3294793288991
 31
0.0
  0
LINE
  5
1A3
330
71
100
AcDbEntity
  8
Verdeckt (ISO)
 48
24.18964767456055
100
AcDbLine
 10
188.5102260549166
 20
218.3294793288991
 30
0.0
 11
158.5102260549166
 21
218.3294793288991
 31
0.0
  0
LINE
  5
1A4
330
71
100
AcDbEntity
  8
Verdeckt (ISO)
 48
24.18964767456055
100
AcDbLine
 10
188.5102260549166
 20
255.3294793288992
 30
0.0
 11
158.5102260549166
 21
255.3294793288992
 31
0.0
  0
LINE
  5
1A5
330
71
100
AcDbEntity
  8
Verdeckt (ISO)
 48
24.18964767456055
100
AcDbLine
 10
188.5102260549127
 20
192.1294793288991
 30
0.0
 11
158.5102260549127
 21
192.1294793288991
 31
0.0
  0
LINE
  5
1A6
330
71
100
AcDbEntity
  8
Sichtbar (ISO)
100
AcDbLine
 10
188.5102260549134
 20
260.3294793288991
 30
0.0
 11
158.5102260549134
 21
260.3294793288991
 31
0.0
  0
LINE
  5
1A7
330
71
100
AcDbEntity
  8
Sichtbar (ISO)
100
AcDbLine
 10
188.5102260549107
 20
225.3294793288991
 30
0.0
 11
188.5102260549134
 21
260.3294793288991
 31
0.0
  0
LINE
  5
1A8
330
71
100
AcDbEntity
  8
Sichtbar (ISO)
100
AcDbLine
 10
158.5102260549107
 20
225.3294793288991
 30
0.0
 11
158.5102260549134
 21
260.3294793288991
 31
0.0
  0
LINE
  5
1A9
330
71
100
AcDbEntity
  8
Sichtbar (ISO)
100
AcDbLine
 10
188.5102260549107
 20
225.3294793288991
 30
0.0
 11
158.5102260549107
 21
225.3294793288991
 31
0.0
  0
LINE
  5
1AA
330
71
100
AcDbEntity
  8
Sichtbar (ISO)
100
AcDbLine
 10
188.5102260549107
 20
220.3294793288991
 30
0.0
 11
188.5102260549107
 21
225.3294793288991
 31
0.0
  0
LINE
  5
1AB
330
71
100
AcDbEntity
  8
Sichtbar (ISO)
100
AcDbLine
 10
158.5102260549107
 20
220.3294793288991
 30
0.0
 11
158.5102260549107
 21
225.3294793288991
 31
0.0
  0
LINE
  5
1AC
330
71
100
AcDbEntity
  8
Sichtbar schmal (ISO)
100
AcDbLine
 10
188.5102260549107
 20
220.3294793288991
 30
0.0
 11
158.5102260549107
 21
220.3294793288991
 31
0.0
  0
LINE
  5
1AD
330
71
100
AcDbEntity
  8
Sichtbar (ISO)
100
AcDbLine
 10
188.5102260549107
 20
220.1878481686641
 30
0.0
 11
188.5102260549107
 21
220.3294793288991
 31
0.0
  0
LINE
  5
1AE
330
71
100
AcDbEntity
  8
Sichtbar (ISO)
100
AcDbLine
 10
158.5102260549106
 20
220.1878481686641
 30
0.0
 11
158.5102260549107
 21
220.3294793288991
 31
0.0
  0
LINE
  5
1AF
330
71
100
AcDbEntity
  8
Sichtbar schmal (ISO)
100
AcDbLine
 10
188.5102260549107
 20
220.1878481686641
 30
0.0
 11
158.5102260549106
 21
220.1878481686641
 31
0.0
  0
LINE
  5
1B0
330
71
100
AcDbEntity
  8
Sichtbar (ISO)
100
AcDbLine
 10
188.5102260549024
 20
192.3294793288991
 30
0.0
 11
188.5102260549107
 21
220.1878481686641
 31
0.0
  0
LINE
  5
1B1
330
71
100
AcDbEntity
  8
Sichtbar (ISO)
100
AcDbLine
 10
158.5102260549024
 20
192.3294793288991
 30
0.0
 11
158.5102260549106
 21
220.1878481686641
 31
0.0
  0
LINE
  5
1B2
330
71
100
AcDbEntity
  8
Sichtbar (ISO)
100
AcDbLine
 10
188.5102260549024
 20
192.3294793288991
 30
0.0
 11
158.5102260549024
 21
192.3294793288991
 31
0.0
  0
LINE
  5
1B3
330
71
100
AcDbEntity
  8
Sichtbar (ISO)
100
AcDbLine
 10
188.5102260549024
 20
190.3294793288991
 30
0.0
 11
188.5102260549024
 21
192.3294793288991
 31
0.0
  0
LINE
  5
1B4
330
71
100
AcDbEntity
  8
Sichtbar (ISO)
100
AcDbLine
 10
158.5102260549024
 20
190.3294793288991
 30
0.0
 11
158.5102260549024
 21
192.3294793288991
 31
0.0
  0
LINE
  5
1B5
330
71
100
AcDbEntity
  8
Sichtbar (ISO)
100
AcDbLine
 10
188.5102260549024
 20
190.3294793288991
 30
0.0
 11
158.5102260549024
 21
190.3294793288991
 31
0.0
  0
LINE
  5
1B6
330
71
100
AcDbEntity
  8
Sichtbar (ISO)
100
AcDbLine
 10
99.70671866451045
 20
115.6614321806143
 30
0.0
 11
122.4067186645104
 21
115.6614321806073
 31
0.0
  0
LINE
  5
1B7
330
71
100
AcDbEntity
  8
Sichtbar (ISO)
100
AcDbLine
 10
122.4067186645104
 20
115.6614321806073
 30
0.0
 11
122.4067186645104
 21
145.6614321806072
 31
0.0
  0
LINE
  5
1B8
330
71
100
AcDbEntity
  8
Sichtbar (ISO)
100
AcDbLine
 10
99.70671866451045
 20
145.6614321806144
 30
0.0
 11
122.4067186645104
 21
145.6614321806072
 31
0.0
  0
LINE
  5
1B9
330
71
100
AcDbEntity
  8
Sichtbar (ISO)
100
AcDbLine
 10
99.70671866451045
 20
115.6614321806274
 30
0.0
 11
99.70671866451045
 21
145.6614321806274
 31
0.0
  0
LINE
  5
1BA
330
71
100
AcDbEntity
  8
Sichtbar (ISO)
100
AcDbLine
 10
86.70671866451046
 20
115.6614321806274
 30
0.0
 11
99.70671866451045
 21
115.6614321806274
 31
0.0
  0
LINE
  5
1BB
330
71
100
AcDbEntity
  8
Sichtbar (ISO)
100
AcDbLine
 10
86.70671866451044
 20
145.6614321806274
 30
0.0
 11
99.70671866451045
 21
145.6614321806274
 31
0.0
  0
LINE
  5
1BC
330
71
100
AcDbEntity
  8
Sichtbar (ISO)
100
AcDbLine
 10
86.70671866451046
 20
115.6614321806274
 30
0.0
 11
86.70671866451044
 21
145.6614321806274
 31
0.0
  0
LINE
  5
1BD
330
71
100
AcDbEntity
  8
Sichtbar (ISO)
100
AcDbLine
 10
77.70671866451046
 20
115.6614321806171
 30
0.0
 11
86.70671866451046
 21
115.6614321806274
 31
0.0
  0
LINE
  5
1BE
330
71
100
AcDbEntity
  8
Sichtbar (ISO)
100
AcDbLine
 10
77.70671866451045
 20
145.6614321806171
 30
0.0
 11
86.70671866451044
 21
145.6614321806274
 31
0.0
  0
LINE
  5
1BF
330
71
100
AcDbEntity
  8
Sichtbar (ISO)
100
AcDbLine
 10
77.70671866451046
 20
115.6614321806171
 30
0.0
 11
77.70671866451045
 21
145.6614321806171
 31
0.0
  0
LINE
  5
1C0
330
71
100
AcDbEntity
  8
Sichtbar (ISO)
100
AcDbLine
 10
77.64792990503497
 20
115.6614321806155
 30
0.0
 11
77.70671866451046
 21
115.6614321806155
 31
0.0
  0
LINE
  5
1C1
330
71
100
AcDbEntity
  8
Sichtbar (ISO)
100
AcDbLine
 10
77.64792990503496
 20
145.6614321806155
 30
0.0
 11
77.70671866451045
 21
145.6614321806156
 31
0.0
  0
LINE
  5
1C2
330
71
100
AcDbEntity
  8
Sichtbar (ISO)
100
AcDbLine
 10
49.70671866451045
 20
115.6614321806072
 30
0.0
 11
77.64792990503497
 21
115.6614321806155
 31
0.0
  0
LINE
  5
1C3
330
71
100
AcDbEntity
  8
Sichtbar (ISO)
100
AcDbLine
 10
49.70671866451045
 20
145.6614321806072
 30
0.0
 11
77.64792990503497
 21
145.6614321806155
 31
0.0
  0
LINE
  5
1C4
330
71
100
AcDbEntity
  8
Sichtbar (ISO)
100
AcDbLine
 10
49.70671866451045
 20
115.6614321806072
 30
0.0
 11
49.70671866451045
 21
145.6614321806072
 31
0.0
  0
LINE
  5
1C5
330
71
100
AcDbEntity
  8
Verdeckt (ISO)
 48
24.18964767456055
100
AcDbLine
 10
97.70671866451046
 20
115.661432180626
 30
0.0
 11
97.70671866451042
 21
145.6614321806259
 31
0.0
  0
LINE
  5
1C6
330
71
100
AcDbEntity
  8
Verdeckt (ISO)
 48
24.18964767456055
100
AcDbLine
 10
84.40671866451044
 20
115.6614321806072
 30
0.0
 11
84.40671866451044
 21
145.6614321806072
 31
0.0
  0
LINE
  5
1C7
330
71
100
AcDbEntity
  8
Verdeckt (ISO)
 48
24.18964767456055
100
AcDbLine
 10
94.40671866451044
 20
115.6614321806072
 30
0.0
 11
94.40671866451044
 21
145.6614321806072
 31
0.0
  0
LINE
  5
1C8
330
71
100
AcDbEntity
  8
Verdeckt (ISO)
 48
24.18964767456055
100
AcDbLine
 10
107.4067186645104
 20
115.6614321806072
 30
0.0
 11
107.4067186645104
 21
145.6614321806072
 31
0.0
  0
LINE
  5
1C9
330
71
100
AcDbEntity
  8
Verdeckt (ISO)
 48
24.18964767456055
100
AcDbLine
 10
117.4067186645104
 20
115.6614321806072
 30
0.0
 11
117.4067186645104
 21
145.6614321806072
 31
0.0
  0
LINE
  5
1CA
330
71
100
AcDbEntity
  8
Sichtbar (ISO)
100
AcDbLine
 10
178.4473995245621
 20
123.5231940712413
 30
0.0
 11
195.9129370198724
 21
112.3247029560044
 31
0.0
  0
LINE
  5
1CB
330
71
100
AcDbEntity
  8
Sichtbar (ISO)
100
AcDbLine
 10
178.4473995245621
 20
153.7724376904153
 30
0.0
 11
178.4473995245621
 21
123.5231940712413
 31
0.0
  0
LINE
  5
1CC
330
71
100
AcDbEntity
  8
Sichtbar (ISO)
100
AcDbLine
 10
179.8616130869354
 20
154.5868291179999
 30
0.0
 11
178.4473995245621
 21
153.7724376904153
 31
0.0
  0
LINE
  5
1CD
330
71
100
AcDbEntity
  8
Sichtbar (ISO)
100
AcDbLine
 10
179.8616130869354
 20
158.6745647422126
 30
0.0
 11
179.8616130869354
 21
154.5868291179999
 31
0.0
  0
LINE
  5
1CE
330
71
100
AcDbEntity
  8
Sichtbar (ISO)
100
AcDbLine
 10
179.8616130869354
 20
158.6745647422126
 30
0.0
 11
158.6484096513421
 21
170.8904361559844
 31
0.0
  0
LINE
  5
1CF
330
71
100
AcDbEntity
  8
Sichtbar (ISO)
100
AcDbLine
 10
170.6692249315089
 20
153.381020462913
 30
0.0
 11
179.8616130869354
 21
158.6745647422126
 31
0.0
  0
LINE
  5
1D0
330
71
100
AcDbEntity
  8
Sichtbar (ISO)
100
AcDbLine
 10
149.4560214959156
 20
165.5968918766848
 30
0.0
 11
158.6484096513421
 21
170.8904361559844
 31
0.0
  0
LINE
  5
1D1
330
71
100
AcDbEntity
  8
Sichtbar (ISO)
100
AcDbLine
 10
170.6692249315089
 20
153.381020462913
 30
0.0
 11
149.4560214959156
 21
165.5968918766848
 31
0.0
  0
LINE
  5
1D2
330
71
100
AcDbEntity
  8
Sichtbar (ISO)
100
AcDbLine
 10
164.305263900829
 20
121.1021096692936
 30
0.0
 11
170.6692249315089
 21
153.381020462913
 31
0.0
  0
LINE
  5
1D3
330
71
100
AcDbEntity
  8
Sichtbar (ISO)
100
AcDbLine
 10
143.0920604652357
 20
133.3179810830655
 30
0.0
 11
149.4560214959156
 21
165.5968918766848
 31
0.0
  0
LINE
  5
1D4
330
71
100
AcDbEntity
  8
Sichtbar (ISO)
100
AcDbLine
 10
164.305263900829
 20
121.1021096692936
 30
0.0
 11
143.0920604652357
 21
133.3179810830655
 31
0.0
  0
LINE
  5
1D5
330
71
100
AcDbEntity
  8
Sichtbar (ISO)
100
AcDbLine
 10
164.305263900829
 20
117.0143740450809
 30
0.0
 11
164.305263900829
 21
121.1021096692936
 31
0.0
  0
LINE
  5
1D6
330
71
100
AcDbEntity
  8
Sichtbar (ISO)
100
AcDbLine
 10
143.0920604652357
 20
129.2302454588527
 30
0.0
 11
143.0920604652357
 21
133.3179810830655
 31
0.0
  0
LINE
  5
1D7
330
71
100
AcDbEntity
  8
Sichtbar schmal (ISO)
100
AcDbLine
 10
164.305263900829
 20
117.0143740450809
 30
0.0
 11
143.0920604652357
 21
129.2302454588527
 31
0.0
  0
ELLIPSE
  5
1D8
330
71
100
AcDbEntity
  8
Sichtbar (ISO)
100
AcDbEllipse
 10
164.1638425445917
 20
116.9329349023225
 30
0.0
 11
0.0998064423168801
 21
0.1733166872290333
 31
0.0
210
0.0
220
0.0
230
0.9999999999999998
 40
0.5780931159158104
 41
4.708970631042054
 42
5.495853435359129
  0
ELLIPSE
  5
1D9
330
71
100
AcDbEntity
  8
Sichtbar (ISO)
100
AcDbEllipse
 10
142.9506391089984
 20
129.1488063160943
 30
0.0
 11
0.0998064423168801
 21
0.1733166872290333
 31
0.0
210
0.0
220
0.0
230
0.9999999999999998
 40
0.5780931159158104
 41
4.708970631042054
 42
5.495853435359129
  0
LINE
  5
1DA
330
71
100
AcDbEntity
  8
Sichtbar schmal (ISO)
100
AcDbLine
 10
164.2636939703464
 20
116.8746453663651
 30
0.0
 11
143.0504905347531
 21
129.0905167801369
 31
0.0
  0
LINE
  5
1DB
330
71
100
AcDbEntity
  8
Sichtbar (ISO)
100
AcDbLine
 10
144.5062740276028
 20
82.72157456330617
 30
0.0
 11
164.2636939703464
 21
116.8746453663651
 31
0.0
  0
LINE
  5
1DC
330
71
100
AcDbEntity
  8
Sichtbar (ISO)
100
AcDbLine
 10
123.2930705920095
 20
94.937445977078
 30
0.0
 11
143.0504905347531
 21
129.0905167801369
 31
0.0
  0
LINE
  5
1DD
330
71
100
AcDbEntity
  8
Sichtbar (ISO)
100
AcDbLine
 10
144.5062740276028
 20
82.72157456330617
 30
0.0
 11
123.2930705920095
 21
94.937445977078
 31
0.0
  0
LINE
  5
1DE
330
71
100
AcDbEntity
  8
Sichtbar (ISO)
100
AcDbLine
 10
144.5062740276028
 20
81.08648031362109
 30
0.0
 11
144.5062740276028
 21
82.72157456330617
 31
0.0
  0
LINE
  5
1DF
330
71
100
AcDbEntity
  8
Sichtbar (ISO)
100
AcDbLine
 10
123.2930705920095
 20
93.30235172739293
 30
0.0
 11
123.2930705920095
 21
94.937445977078
 31
0.0
  0
LINE
  5
1E0
330
71
100
AcDbEntity
  8
Sichtbar (ISO)
100
AcDbLine
 10
144.5062740276028
 20
81.08648031362109
 30
0.0
 11
123.2930705920095
 21
93.30235172739293
 31
0.0
  0
LINE
  5
1E1
330
71
100
AcDbEntity
  8
Sichtbar (ISO)
100
AcDbLine
 10
169.0428793347796
 20
95.21617158221298
 30
0.0
 11
144.5062740276028
 21
81.08648031362109
 31
0.0
  0
LINE
  5
1E2
330
71
100
AcDbEntity
  8
Sichtbar (ISO)
100
AcDbLine
 10
169.0428793347796
 20
96.68775640692956
 30
0.0
 11
169.0428793347796
 21
95.21617158221298
 31
0.0
  0
LINE
  5
1E3
330
71
100
AcDbEntity
  8
Sichtbar (ISO)
100
AcDbLine
 10
176.1139471466461
 20
100.7597135448523
 30
0.0
 11
169.0428793347796
 21
96.68775640692956
 31
0.0
  0
LINE
  5
1E4
330
71
100
AcDbEntity
  8
Sichtbar (ISO)
100
AcDbLine
 10
176.1139471466461
 20
99.28812872013573
 30
0.0
 11
176.1139471466461
 21
100.7597135448523
 31
0.0
  0
LINE
  5
1E5
330
71
100
AcDbEntity
  8
Sichtbar (ISO)
100
AcDbLine
 10
176.1139471466461
 20
99.28812872013573
 30
0.0
 11
174.836222979369
 21
100.0239211324942
 31
0.0
  0
LINE
  5
1E6
330
71
100
AcDbEntity
  8
Sichtbar (ISO)
100
AcDbLine
 10
185.3063353020726
 20
104.5816729994353
 30
0.0
 11
176.1139471466461
 21
99.28812872013573
 31
0.0
  0
LINE
  5
1E7
330
71
100
AcDbEntity
  8
Sichtbar (ISO)
100
AcDbLine
 10
185.3063353020726
 20
106.0532578241518
 30
0.0
 11
185.3063353020726
 21
104.5816729994353
 31
0.0
  0
LINE
  5
1E8
330
71
100
AcDbEntity
  8
Sichtbar (ISO)
100
AcDbLine
 10
192.3774031139391
 20
110.1252149620746
 30
0.0
 11
185.3063353020726
 21
106.0532578241518
 31
0.0
  0
LINE
  5
1E9
330
71
100
AcDbEntity
  8
Sichtbar (ISO)
100
AcDbLine
 10
192.3774031139391
 20
108.653630137358
 30
0.0
 11
192.3774031139391
 21
110.1252149620746
 31
0.0
  0
LINE
  5
1EA
330
71
100
AcDbEntity
  8
Sichtbar (ISO)
100
AcDbLine
 10
192.3774031139391
 20
108.653630137358
 30
0.0
 11
191.0996789466619
 21
109.3894225497165
 31
0.0
  0
LINE
  5
1EB
330
71
100
AcDbEntity
  8
Sichtbar (ISO)
100
AcDbLine
 10
195.9129370198724
 20
110.6896087063194
 30
0.0
 11
192.3774031139391
 21
108.653630137358
 31
0.0
  0
LINE
  5
1EC
330
71
100
AcDbEntity
  8
Sichtbar (ISO)
100
AcDbLine
 10
195.9129370198724
 20
112.3247029560044
 30
0.0
 11
195.9129370198724
 21
110.6896087063194
 31
0.0
  0
INSERT
  5
1F7
330
71
100
AcDbEntity
  8
0
100
AcDbBlockReference
  2
Ränder Rahmen A4 hoch
 10
0.0
 20
0.0
 30
0.0
  0
DIMENSION
  5
1F8
330
71
100
AcDbEntity
  8
Bemaßung (ISO)
100
AcDbDimension
  2
*D5
 10
99.70671866453853
 20
270.3294793288991
 30
0.0
 11
93.20671866453853
 21
270.3294793288991
 31
0.0
 70
   160
  1
<>
 42
12.99999999999997
  3
Standard (DIN)
100
AcDbAlignedDimension
 13
86.70671866453856
 23
260.3294793288991
 33
0.0
 14
99.70671866453853
 24
260.3294793288991
 34
0.0
 50
180.0
100
AcDbRotatedDimension
1001
ACAD
1000
DSTYLE
1002
{
1070
   172
1070
     0
1070
   289
1070
     1
1070
   271
1070
     2
1070
   272
1070
     2
1070
    48
1040
0.0
1070
    47
1040
0.0
1002
}
  0
DIMENSION
  5
2DB
330
71
100
AcDbEntity
  8
Bemaßung (ISO)
100
AcDbDimension
  2
*D6
 10
97.70671866453852
 20
245.3294793288991
 30
0.0
 11
106.3817186368317
 21
245.3294793288991
 31
0.0
 70
   160
  1
<>
 42
2.0
  3
Standard (DIN)
100
AcDbAlignedDimension
 13
99.70671866453853
 23
255.3294793288992
 33
0.0
 14
97.70671866453852
 24
255.3294793288992
 34
0.0
 50
180.0
100
AcDbRotatedDimension
1001
ACAD
1000
DSTYLE
1002
{
1070
   172
1070
     1
1070
   289
1070
     1
1070
   271
1070
     2
1070
   272
1070
     2
1070
    48
1040
0.0
1070
    47
1040
0.0
1002
}
  0
DIMENSION
  5
3D9
330
71
100
AcDbEntity
  8
Bemaßung (ISO)
100
AcDbDimension
  2
*D7
 10
77.70671866453854
 20
245.3683685104536
 30
0.0
 11
87.70671866453852
 21
245.3683685104536
 31
0.0
 70
   160
  1
<>
 42
19.99999999999998
  3
Standard (DIN)
100
AcDbAlignedDimension
 13
97.70671866453852
 23
245.3683685104536
 33
0.0
 14
77.70671866453854
 24
225.3294793288991
 34
0.0
 50
180.0
100
AcDbRotatedDimension
1001
ACAD
1000
DSTYLE
1002
{
1070
   172
1070
     0
1070
   289
1070
     1
1070
   271
1070
     2
1070
    75
1070
     1
1070
   272
1070
     2
1070
    48
1040
0.0
1070
    47
1040
0.0
1002
}
  0
DIMENSION
  5
4B7
330
71
100
AcDbEntity
  8
Bemaßung (ISO)
100
AcDbDimension
  2
*D8
 10
49.70671866453852
 20
245.3683685104536
 30
0.0
 11
63.70671866453854
 21
245.3683685104536
 31
0.0
 70
   160
  1
<>
 42
28.00000000000002
  3
Standard (DIN)
100
AcDbAlignedDimension
 13
77.70671866453854
 23
225.3294793288991
 33
0.0
 14
49.70671866453852
 24
192.3294793288991
 34
0.0
100
AcDbRotatedDimension
1001
ACAD
1000
DSTYLE
1002
{
1070
   172
1070
     0
1070
   289
1070
     1
1070
   271
1070
     2
1070
   272
1070
     2
1070
    48
1040
0.0
1070
    47
1040
0.0
1002
}
  0
DIMENSION
  5
599
330
71
100
AcDbEntity
  8
Bemaßung (ISO)
100
AcDbDimension
  2
*D9
 10
122.4067186645385
 20
162.3294793288991
 30
0.0
 11
86.05671866453853
 21
162.3294793288991
 31
0.0
 70
   160
  1
<>
 42
72.69999999999999
  3
Standard (DIN)
100
AcDbAlignedDimension
 13
49.70671866453852
 23
190.3294793288991
 33
0.0
 14
122.4067186645385
 24
190.3294793288991
 34
0.0
100
AcDbRotatedDimension
1001
ACAD
1000
DSTYLE
1002
{
1070
   172
1070
     0
1070
   289
1070
     1
1070
   271
1070
     2
1070
   272
1070
     2
1070
    48
1040
0.0
1070
    47
1040
0.0
1002
}
  0
DIMENSION
  5
675
330
71
100
AcDbEntity
  8
Bemaßung (ISO)
100
AcDbDimension
  2
*D10
 10
117.4067186645385
 20
174.3294793288991
 30
0.0
 11
119.9067186645385
 21
174.3294793288991
 31
0.0
 70
   160
  1
<>
 42
5.0
  3
Standard (DIN)
100
AcDbAlignedDimension
 13
122.4067186645385
 23
190.3294793288991
 33
0.0
 14
117.4067186645385
 24
190.3294793288991
 34
0.0
 50
180.0
100
AcDbRotatedDimension
1001
ACAD
1000
DSTYLE
1002
{
1070
   172
1070
     1
1070
   289
1070
     1
1070
   271
1070
     2
1070
   272
1070
     2
1070
    48
1040
0.0
1070
    47
1040
0.0
1002
}
  0
DIMENSION
  5
773
330
71
100
AcDbEntity
  8
Bemaßung (ISO)
100
AcDbDimension
  2
*D11
 10
107.4067186645385
 20
174.3294793288991
 30
0.0
 11
112.4067186645385
 21
174.3294793288991
 31
0.0
 70
   160
  1
<>
 42
10.0
  3
Standard (DIN)
100
AcDbAlignedDimension
 13
117.4067186645385
 23
190.3294793288991
 33
0.0
 14
107.4067186645385
 24
190.3294793288991
 34
0.0
100
AcDbRotatedDimension
1001
ACAD
1000
DSTYLE
1002
{
1070
   172
1070
     0
1070
   289
1070
     1
1070
   271
1070
     2
1070
   272
1070
     2
1070
    48
1040
0.0
1070
    47
1040
0.0
1002
}
  0
DIMENSION
  5
855
330
71
100
AcDbEntity
  8
Bemaßung (ISO)
100
AcDbDimension
  2
*D12
 10
94.40671866453852
 20
174.3294793288991
 30
0.0
 11
100.9067186645385
 21
174.3294793288991
 31
0.0
 70
   160
  1
<>
 42
13.0
  3
Standard (DIN)
100
AcDbAlignedDimension
 13
107.4067186645385
 23
190.3294793288991
 33
0.0
 14
94.40671866453852
 24
190.3294793288991
 34
0.0
 50
180.0
100
AcDbRotatedDimension
1001
ACAD
1000
DSTYLE
1002
{
1070
   172
1070
     0
1070
   289
1070
     1
1070
   271
1070
     2
1070
   272
1070
     2
1070
    48
1040
0.0
1070
    47
1040
0.0
1002
}
  0
DIMENSION
  5
937
330
71
100
AcDbEntity
  8
Bemaßung (ISO)
100
AcDbDimension
  2
*D13
 10
94.40671866453852
 20
174.3294793288991
 30
0.0
 11
89.40671866453852
 21
174.3294793288991
 31
0.0
 70
   160
  1
<>
 42
10.0
  3
Standard (DIN)
100
AcDbAlignedDimension
 13
84.40671866453852
 23
190.3294793288991
 33
0.0
 14
94.40671866453852
 24
190.3294793288991
 34
0.0
 50
180.0
100
AcDbRotatedDimension
1001
ACAD
1000
DSTYLE
1002
{
1070
   172
1070
     0
1070
   289
1070
     1
1070
   271
1070
     2
1070
   272
1070
     2
1070
    48
1040
0.0
1070
    47
1040
0.0
1002
}
  0
INSERT
  5
A2C
330
71
100
AcDbEntity
  8
Symbol (ISO)
100
AcDbBlockReference
  2
Schweißsymbol1
 10
0.0
 20
0.0
 30
0.0
  0
DIMENSION
  5
A2D
330
71
100
AcDbEntity
  8
Bemaßung (ISO)
100
AcDbDimension
  2
*D15
 10
77.5067186645386
 20
220.3294793288992
 30
0.0
 11
85.88895243975125
 21
213.6627361500499
 31
0.0
 70
   164
  1
<>
 42
0.1999999999999602
  3
Standard (DIN)
100
AcDbRadialDimension
 15
77.66324745210167
 25
220.2049853986696
 35
0.0
 40
0.0
1001
ACAD
1000
DSTYLE
1002
{
1070
   172
1070
     0
1070
   271
1070
     2
1070
   141
1040
0.0
1070
   272
1070
     2
1070
    48
1040
0.0
1070
    47
1040
0.0
1002
}
1001
ACAD_DSTYLE_DIMRADIAL_EXTENSION
1070
   387
1070
     1
1070
   388
1040
0.0
1070
   390
1040
0.0
  0
DIMENSION
  5
AB7
330
71
100
AcDbEntity
  8
Bemaßung (ISO)
100
AcDbDimension
  2
*D16
 10
27.70671866453856
 20
220.3294793288991
 30
0.0
 11
27.70671866453853
 21
205.3294793288991
 31
0.0
 70
   160
  1
<>
 42
30.00000000000003
  3
Standard (DIN)
100
AcDbAlignedDimension
 13
49.70671866453852
 23
190.3294793288991
 33
0.0
 14
77.50671866453854
 24
220.3294793288991
 34
0.0
 50
90.0
100
AcDbRotatedDimension
1001
ACAD
1000
DSTYLE
1002
{
1070
   172
1070
     0
1070
   289
1070
     1
1070
   271
1070
     2
1070
   272
1070
     2
1070
    48
1040
0.0
1070
    47
1040
0.0
1002
}
  0
DIMENSION
  5
B99
330
71
100
AcDbEntity
  8
Bemaßung (ISO)
100
AcDbDimension
  2
*D17
 10
109.7067186645386
 20
255.3294793288992
 30
0.0
 11
109.7067186645385
 21
257.8294793288991
 31
0.0
 70
   160
  1
<>
 42
4.999999999999914
  3
Standard (DIN)
100
AcDbAlignedDimension
 13
99.70671866453853
 23
260.3294793288991
 33
0.0
 14
99.70671866453853
 24
255.3294793288992
 34
0.0
 50
270.0
100
AcDbRotatedDimension
1001
ACAD
1000
DSTYLE
1002
{
1070
   172
1070
     1
1070
   289
1070
     1
1070
   271
1070
     2
1070
   272
1070
     2
1070
    48
1040
0.0
1070
    47
1040
0.0
1002
}
  0
DIMENSION
  5
C97
330
71
100
AcDbEntity
  8
Bemaßung (ISO)
100
AcDbDimension
  2
*D18
 10
109.7067186645386
 20
218.3294793288991
 30
0.0
 11
109.7067186645385
 21
236.8294793288991
 31
0.0
 70
   160
  1
<>
 42
37.00000000000003
  3
Standard (DIN)
100
AcDbAlignedDimension
 13
97.70671866453852
 23
255.3294793288992
 33
0.0
 14
97.70671866453852
 24
218.3294793288991
 34
0.0
 50
90.0
100
AcDbRotatedDimension
1001
ACAD
1000
DSTYLE
1002
{
1070
   172
1070
     0
1070
   289
1070
     1
1070
   271
1070
     2
1070
   272
1070
     2
1070
    48
1040
0.0
1070
    47
1040
0.0
1002
}
  0
DIMENSION
  5
D79
330
71
100
AcDbEntity
  8
Bemaßung (ISO)
100
AcDbDimension
  2
*D19
 10
144.4067186645385
 20
260.329479328899
 30
0.0
 11
144.4067186645385
 21
225.3294793288991
 31
0.0
 70
   160
  1
<>
 42
69.99999999999994
  3
Standard (DIN)
100
AcDbAlignedDimension
 13
122.4067186645385
 23
190.3294793288991
 33
0.0
 14
99.70671866453853
 24
260.3294793288991
 34
0.0
 50
90.0
100
AcDbRotatedDimension
1001
ACAD
1000
DSTYLE
1002
{
1070
   172
1070
     0
1070
   289
1070
     1
1070
   271
1070
     2
1070
   272
1070
     2
1070
    48
1040
0.0
1070
    47
1040
0.0
1002
}
  0
DIMENSION
  5
E4F
330
71
100
AcDbEntity
  8
Bemaßung (ISO)
100
AcDbDimension
  2
*D20
 10
132.4067186645385
 20
190.3294793288991
 30
0.0
 11
132.4067186645385
 21
199.0044793011923
 31
0.0
 70
   160
  1
<>
 42
2.0
  3
Standard (DIN)
100
AcDbAlignedDimension
 13
122.4067186645385
 23
192.3294793288991
 33
0.0
 14
122.4067186645385
 24
190.3294793288991
 34
0.0
 50
90.0
100
AcDbRotatedDimension
1001
ACAD
1000
DSTYLE
1002
{
1070
   172
1070
     1
1070
   289
1070
     1
1070
   271
1070
     2
1070
   272
1070
     2
1070
    48
1040
0.0
1070
    47
1040
0.0
1002
}
  0
DIMENSION
  5
F4F
330
71
100
AcDbEntity
  8
Bemaßung (ISO)
100
AcDbDimension
  2
*D21
 10
78.37350575165865
 20
190.3294793288991
 30
0.0
 11
78.37350575165863
 21
182.1669794037076
 31
0.0
 70
   160
  1
<>
 42
1.799999999999982
  3
Standard (DIN)
100
AcDbAlignedDimension
 13
84.40671866453852
 23
192.1294793288991
 33
0.0
 14
84.40671866453852
 24
190.3294793288991
 34
0.0
 50
90.0
100
AcDbRotatedDimension
1001
ACAD
1000
DSTYLE
1002
{
1070
   172
1070
     1
1070
   289
1070
     1
1070
   271
1070
     2
1070
   272
1070
     2
1070
    48
1040
0.0
1070
    47
1040
0.0
1002
}
  0
DIMENSION
  5
104F
330
71
100
AcDbEntity
  8
Bemaßung (ISO)
100
AcDbDimension
  2
*D22
 10
37.70671866453857
 20
192.3294793288991
 30
0.0
 11
37.70671866453854
 21
183.6544793566059
 31
0.0
 70
   160
  1
<>
 42
2.0
  3
Standard (DIN)
100
AcDbAlignedDimension
 13
49.70671866453852
 23
190.3294793288991
 33
0.0
 14
49.70671866453852
 24
192.3294793288991
 34
0.0
 50
90.0
100
AcDbRotatedDimension
1001
ACAD
1000
DSTYLE
1002
{
1070
   172
1070
     1
1070
   289
1070
     1
1070
   271
1070
     2
1070
   272
1070
     2
1070
    48
1040
0.0
1070
    47
1040
0.0
1002
}
  0
DIMENSION
  5
114F
330
71
100
AcDbEntity
  8
Bemaßung (ISO)
100
AcDbDimension
  2
*D23
 10
37.70671866453858
 20
225.3294793288991
 30
0.0
 11
37.70671866453854
 21
222.8294793288991
 31
0.0
 70
   160
  1
<>
 42
5.000000000000028
  3
Standard (DIN)
100
AcDbAlignedDimension
 13
77.70671866453854
 23
220.3294793288991
 33
0.0
 14
77.70671866453854
 24
225.3294793288991
 34
0.0
 50
90.0
100
AcDbRotatedDimension
1001
ACAD
1000
DSTYLE
1002
{
1070
   172
1070
     1
1070
   289
1070
     1
1070
   271
1070
     2
1070
   272
1070
     2
1070
    48
1040
0.0
1070
    47
1040
0.0
1002
}
  0
DIMENSION
  5
124D
330
71
100
AcDbEntity
  8
Bemaßung (ISO)
100
AcDbDimension
  2
*D24
 10
158.5102260549133
 20
270.3294793288991
 30
0.0
 11
173.5102260549133
 21
270.3294793288991
 31
0.0
 70
   160
  1
<>
 42
30.0
  3
Standard (DIN)
100
AcDbAlignedDimension
 13
188.5102260549133
 23
260.3294793288991
 33
0.0
 14
158.5102260549133
 24
260.3294793288991
 34
0.0
 50
180.0
100
AcDbRotatedDimension
1001
ACAD
1000
DSTYLE
1002
{
1070
   172
1070
     0
1070
   289
1070
     1
1070
   271
1070
     2
1070
   272
1070
     2
1070
    48
1040
0.0
1070
    47
1040
0.0
1002
}
  0
ENDSEC
  0
SECTION
  2
OBJECTS
  0
DICTIONARY
  5
C
330
0
100
AcDbDictionary
281
     1
  3
ACAD_CIP_PREVIOUS_PRODUCT_INFO
350
1332
  3
ACAD_COLOR
350
63
  3
ACAD_DETAILVIEWSTYLE
350
6B
  3
ACAD_GROUP
350
D
  3
ACAD_IMAGE_DICT
350
139
  3
ACAD_IMAGE_VARS
350
132F
  3
ACAD_LAYOUT
350
62
  3
ACAD_MATERIAL
350
10
  3
ACAD_MLEADERSTYLE
350
66
  3
ACAD_MLINESTYLE
350
5F
  3
ACAD_PLOTSETTINGS
350
61
  3
ACAD_PLOTSTYLENAME
350
E
  3
ACAD_SCALELIST
350
42
  3
ACAD_SECTIONVIEWSTYLE
350
68
  3
ACAD_TABLESTYLE
350
64
  3
ACAD_VISUALSTYLE
350
29
  3
ACDB_RECOMPOSE_DATA
350
1521
  3
AcDbVariableDictionary
350
13AC
  3
AcmDictionary
350
13ED
  3
AMG
350
13C4
  3
AMGSNAPSETTINGS
350
1488
  0
DICTIONARY
  5
136D
330
8
100
AcDbDictionary
280
     1
281
     1
  0
DICTIONARY
  5
147C
330
2
100
AcDbDictionary
280
     1
281
     1
  3
ACAD_LAYERSTATES
360
147D
  0
DICTIONARY
  5
1330
330
71
100
AcDbDictionary
280
     1
281
     1
  3
ACAD_SORTENTS
360
1331
  0
DICTIONARY
  5
1476
330
135
100
AcDbDictionary
280
     1
281
     1
  0
DICTIONARY
  5
1481
330
147E
100
AcDbDictionary
280
     1
281
     1
  3
ACAD_SORTENTS
360
1482
  0
DICTIONARY
  5
1456
330
1455
100
AcDbDictionary
280
     1
281
     1
  3
ACAD_MTEXT_2008_RT
360
155F
  0
DICTIONARY
  5
145A
330
1459
100
AcDbDictionary
280
     1
281
     1
  3
ACAD_MTEXT_2008_RT
360
1560
  0
DICTIONARY
  5
1461
330
1460
100
AcDbDictionary
280
     1
281
     1
  3
ACAD_MTEXT_2008_RT
360
1561
  0
DICTIONARY
  5
1464
330
1463
100
AcDbDictionary
280
     1
281
     1
  3
ACAD_MLATT
360
1510
  3
ACAD_XREC_ROUNDTRIP
360
150F
  0
DICTIONARY
  5
1466
330
1465
100
AcDbDictionary
280
     1
281
     1
  3
ACAD_MLATT
360
1512
  3
ACAD_XREC_ROUNDTRIP
360
1511
  0
DICTIONARY
  5
1468
330
1467
100
AcDbDictionary
280
     1
281
     1
  3
ACAD_MLATT
360
1514
  3
ACAD_XREC_ROUNDTRIP
360
1513
  0
DICTIONARY
  5
146A
330
1469
100
AcDbDictionary
280
     1
281
     1
  3
ACAD_MLATT
360
1516
  3
ACAD_XREC_ROUNDTRIP
360
1515
  0
DICTIONARY
  5
146C
330
146B
100
AcDbDictionary
280
     1
281
     1
  3
ACAD_MLATT
360
1518
  3
ACAD_XREC_ROUNDTRIP
360
1517
  0
DICTIONARY
  5
146E
330
146D
100
AcDbDictionary
280
     1
281
     1
  3
ACAD_MLATT
360
151A
  3
ACAD_XREC_ROUNDTRIP
360
1519
  0
DICTIONARY
  5
1470
330
146F
100
AcDbDictionary
280
     1
281
     1
  3
ACAD_MLATT
360
151C
  3
ACAD_XREC_ROUNDTRIP
360
151B
  0
DICTIONARY
  5
1472
330
1471
100
AcDbDictionary
280
     1
281
     1
  3
ACAD_MLATT
360
151E
  3
ACAD_XREC_ROUNDTRIP
360
151D
  0
DICTIONARY
  5
1474
330
1473
100
AcDbDictionary
280
     1
281
     1
  3
ACAD_MLATT
360
1520
  3
ACAD_XREC_ROUNDTRIP
360
151F
  0
IMAGEDEF_REACTOR
  5
1480
330
147F
100
AcDbRasterImageDefReactor
 90
        2
330
147F
  0
DICTIONARY
  5
1351
330
186
100
AcDbDictionary
280
     1
281
     1
  3
ACAD_MLATT
360
14FE
  3
ACAD_XREC_ROUNDTRIP
360
14FD
  0
DICTIONARY
  5
1354
330
187
100
AcDbDictionary
280
     1
281
     1
  3
ACAD_MLATT
360
1500
  3
ACAD_XREC_ROUNDTRIP
360
14FF
  0
DICTIONARY
  5
1357
330
188
100
AcDbDictionary
280
     1
281
     1
  3
ACAD_MLATT
360
1502
  3
ACAD_XREC_ROUNDTRIP
360
1501
  0
DICTIONARY
  5
135A
330
189
100
AcDbDictionary
280
     1
281
     1
  3
ACAD_MLATT
360
1504
  3
ACAD_XREC_ROUNDTRIP
360
1503
  0
DICTIONARY
  5
135D
330
18A
100
AcDbDictionary
280
     1
281
     1
  3
ACAD_MLATT
360
1506
  3
ACAD_XREC_ROUNDTRIP
360
1505
  0
DICTIONARY
  5
1360
330
18B
100
AcDbDictionary
280
     1
281
     1
  3
ACAD_MLATT
360
1508
  3
ACAD_XREC_ROUNDTRIP
360
1507
  0
DICTIONARY
  5
1363
330
18C
100
AcDbDictionary
280
     1
281
     1
  3
ACAD_MLATT
360
150A
  3
ACAD_XREC_ROUNDTRIP
360
1509
  0
DICTIONARY
  5
1366
330
18D
100
AcDbDictionary
280
     1
281
     1
  3
ACAD_MLATT
360
150C
  3
ACAD_XREC_ROUNDTRIP
360
150B
  0
DICTIONARY
  5
1369
330
18E
100
AcDbDictionary
280
     1
281
     1
  3
ACAD_MLATT
360
150E
  3
ACAD_XREC_ROUNDTRIP
360
150D
  0
XRECORD
  5
1332
102
{ACAD_REACTORS
330
C
102
}
330
C
100
AcDbXrecord
280
     1
300
AMECH_PP
300
2013
300
PDSS_F_S
  0
DICTIONARY
  5
63
102
{ACAD_REACTORS
330
C
102
}
330
C
100
AcDbDictionary
281
     1
  0
DICTIONARY
  5
6B
102
{ACAD_REACTORS
330
C
102
}
330
C
100
AcDbDictionary
281
     1
  3
Imperial24
350
6C
  3
Metric50
350
13B9
  0
DICTIONARY
  5
D
102
{ACAD_REACTORS
330
C
102
}
330
C
100
AcDbDictionary
281
     1
  0
DICTIONARY
  5
139
102
{ACAD_REACTORS
330
C
102
}
330
C
100
AcDbDictionary
281
     1
  3
Logo Optibelt CMYK
350
1485
  3
OAImg-4166528
350
13A
  0
RASTERVARIABLES
  5
132F
102
{ACAD_REACTORS
330
C
102
}
330
C
100
AcDbRasterVariables
 90
        0
 70
     0
 71
     1
 72
     1
  0
DICTIONARY
  5
62
102
{ACAD_REACTORS
330
C
102
}
330
C
100
AcDbDictionary
281
     1
  3
Layout1
350
70
  3
Layout2
350
78
  3
Model
350
74
  0
DICTIONARY
  5
10
102
{ACAD_REACTORS
330
C
102
}
330
C
100
AcDbDictionary
281
     1
  3
ByBlock
350
19
  3
ByLayer
350
11
  3
Global
350
21
  0
DICTIONARY
  5
66
102
{ACAD_REACTORS
330
C
102
}
330
C
100
AcDbDictionary
281
     1
  3
Standard
350
67
  0
DICTIONARY
  5
5F
102
{ACAD_REACTORS
330
C
102
}
330
C
100
AcDbDictionary
281
     1
  3
Standard
350
60
  0
DICTIONARY
  5
61
102
{ACAD_REACTORS
330
C
102
}
330
C
100
AcDbDictionary
281
     1
  0
ACDBDICTIONARYWDFLT
  5
E
102
{ACAD_REACTORS
330
C
102
}
330
C
100
AcDbDictionary
281
     1
  3
Normal
350
F
100
AcDbDictionaryWithDefault
340
F
  0
DICTIONARY
  5
42
102
{ACAD_REACTORS
330
C
102
}
330
C
100
AcDbDictionary
281
     1
  3
A0
350
43
  3
A1
350
44
  3
A2
350
45
  3
A3
350
46
  3
A4
350
47
  3
A5
350
48
  3
A6
350
49
  3
A7
350
4A
  3
A8
350
4B
  3
A9
350
4C
  3
B0
350
4D
  3
B1
350
4E
  3
B2
350
4F
  3
B3
350
50
  3
B4
350
51
  3
B5
350
52
  3
B6
350
53
  0
DICTIONARY
  5
68
102
{ACAD_REACTORS
330
C
102
}
330
C
100
AcDbDictionary
281
     1
  3
Imperial24
350
6A
  3
Metric50
350
13B8
  0
DICTIONARY
  5
64
102
{ACAD_REACTORS
330
C
102
}
330
C
100
AcDbDictionary
281
     1
  3
Standard
350
65
  0
DICTIONARY
  5
29
102
{ACAD_REACTORS
330
C
102
}
330
C
100
AcDbDictionary
281
     1
  3
2dWireframe
350
2F
  3
Basic
350
2E
  3
Brighten
350
35
  3
ColorChange
350
39
  3
Conceptual
350
32
  3
Dim
350
34
  3
EdgeColorOff
350
41
  3
Facepattern
350
38
  3
Flat
350
2A
  3
FlatWithEdges
350
2B
  3
Gouraud
350
2C
  3
GouraudWithEdges
350
2D
  3
Hidden
350
31
  3
JitterOff
350
3F
  3
Linepattern
350
37
  3
OverhangOff
350
40
  3
Realistic
350
33
  3
Shaded
350
3E
  3
Shaded with edges
350
3D
  3
Shades of Gray
350
3A
  3
Sketchy
350
3B
  3
Thicken
350
36
  3
Wireframe
350
30
  3
X-Ray
350
3C
  0
XRECORD
  5
1521
102
{ACAD_REACTORS
330
C
102
}
330
C
100
AcDbXrecord
280
     1
 90
        1
330
65
330
186
330
187
330
188
330
189
330
18A
330
18B
330
18C
330
18D
330
18E
330
1463
330
1465
330
1467
330
1469
330
146B
330
146D
330
146F
330
1471
330
1473
  0
DICTIONARY
  5
13AC
102
{ACAD_REACTORS
330
C
102
}
330
C
100
AcDbDictionary
281
     1
  3
CANNOSCALE
350
13B2
  3
CMLEADERSTYLE
350
13AE
  3
CTABLESTYLE
350
13AD
  3
CVIEWDETAILSTYLE
350
13AF
  3
CVIEWSECTIONSTYLE
350
13B0
  3
LAYEREVAL
350
13B4
  3
LAYERNOTIFY
350
13B5
  3
LIGHTINGUNITS
350
13B3
  3
MSLTSCALE
350
13B1
  3
XCLIPFRAME
350
14FB
  0
DICTIONARY
  5
13ED
102
{ACAD_REACTORS
330
C
102
}
330
C
100
AcDbDictionary
281
     1
  3
AcmStdDictionary
350
13F6
  0
DICTIONARY
  5
13C4
102
{ACAD_REACTORS
330
C
102
}
330
C
100
AcDbDictionary
281
     1
  0
DICTIONARY
  5
1488
102
{ACAD_REACTORS
330
C
102
}
330
C
100
AcDbDictionary
281
     1
  0
DICTIONARY
  5
147D
102
{ACAD_REACTORS
330
147C
102
}
330
147C
100
AcDbDictionary
281
     1
  0
SORTENTSTABLE
  5
1331
102
{ACAD_REACTORS
330
1330
102
}
330
1330
100
AcDbSortentsTable
330
71
331
194
  5
194
331
1A8
  5
1A8
331
1BC
  5
1BC
331
855
  5
855
331
1B8
  5
1B8
331
1A4
  5
1A4
331
190
  5
190
331
1CC
  5
1CC
331
1C8
  5
1C8
331
1B4
  5
1B4
331
1A0
  5
1A0
331
1DC
  5
1DC
331
1D8
  5
1D8
331
1C4
  5
1C4
331
1B0
  5
1B0
331
1EC
  5
1EC
331
1D4
  5
1D4
331
599
  5
599
331
1C0
  5
1C0
331
A2D
  5
A2D
331
675
  5
675
331
C97
  5
C97
331
1E8
  5
1E8
331
1E4
  5
1E4
331
19D
  5
19D
331
1D0
  5
1D0
331
1E0
  5
1E0
331
1AD
  5
1AD
331
199
  5
199
331
195
  5
195
331
1BD
  5
1BD
331
1A9
  5
1A9
331
1B9
  5
1B9
331
1A5
  5
1A5
331
191
  5
191
331
F4F
  5
F4F
331
1CD
  5
1CD
331
1B5
  5
1B5
331
1A1
  5
1A1
331
1C9
  5
1C9
331
E4F
  5
E4F
331
1DD
  5
1DD
331
1D9
  5
1D9
331
1C5
  5
1C5
331
1B1
  5
1B1
331
1D5
  5
1D5
331
1C1
  5
1C1
331
1E9
  5
1E9
331
1E5
  5
1E5
331
104F
  5
104F
331
19E
  5
19E
331
1D1
  5
1D1
331
1E1
  5
1E1
331
114F
  5
114F
331
1AE
  5
1AE
331
19A
  5
19A
331
4B7
  5
4B7
331
937
  5
937
331
773
  5
773
331
196
  5
196
331
2DB
  5
2DB
331
1BE
  5
1BE
331
1AA
  5
1AA
331
1A6
  5
1A6
331
192
  5
192
331
1CE
  5
1CE
331
1BA
  5
1BA
331
1CA
  5
1CA
331
1B6
  5
1B6
331
1A2
  5
1A2
331
1DE
  5
1DE
331
1DA
  5
1DA
331
AB7
  5
AB7
331
1C6
  5
1C6
331
1B2
  5
1B2
331
1D6
  5
1D6
331
1C2
  5
1C2
331
18F
  5
18F
331
1EA
  5
1EA
331
1D2
  5
1D2
331
B99
  5
B99
331
19F
  5
19F
331
1E6
  5
1E6
331
1E2
  5
1E2
331
1AF
  5
1AF
331
19B
  5
19B
331
197
  5
197
331
1BF
  5
1BF
331
1AB
  5
1AB
331
1F8
  5
1F8
331
1A7
  5
1A7
331
193
  5
193
331
1CF
  5
1CF
331
1BB
  5
1BB
331
1B7
  5
1B7
331
1A3
  5
1A3
331
1DF
  5
1DF
331
1CB
  5
1CB
331
D79
  5
D79
331
1DB
  5
1DB
331
1C7
  5
1C7
331
1B3
  5
1B3
331
1D7
  5
1D7
331
1C3
  5
1C3
331
1EB
  5
1EB
331
1D3
  5
1D3
331
A2C
  5
A2C
331
1E7
  5
1E7
331
1E3
  5
1E3
331
124D
  5
124D
331
19C
  5
19C
331
1F7
  5
1F7
331
184
  5
184
331
3D9
  5
3D9
331
1AC
  5
1AC
331
198
  5
198
  0
SORTENTSTABLE
  5
1482
102
{ACAD_REACTORS
330
1481
102
}
330
1481
100
AcDbSortentsTable
330
147E
  0
XRECORD
  5
155F
102
{ACAD_REACTORS
330
1456
102
}
330
1456
100
AcDbXrecord
280
     1
 40
61201.0
  1
\fISOCPEUR|b0|i0;\H1.5000;Maßstab:
  0
XRECORD
  5
1560
102
{ACAD_REACTORS
330
145A
102
}
330
145A
100
AcDbXrecord
280
     1
 40
332977.0
  1
\fISOCPEUR|b0|i0;\H2.0000;Für diese Zeichnung\Pbehalten wir uns alle Rechte vor!
  0
XRECORD
  5
1561
102
{ACAD_REACTORS
330
1461
102
}
330
1461
100
AcDbXrecord
280
     1
 40
327687.0
  1
\fArial|b0|i0;\H2.5000;gemäß Nockenselektor\Paccording to cleat selector
  0
XRECORD
  5
1510
102
{ACAD_REACTORS
330
1464
102
}
330
1464
100
AcDbXrecord
280
     1
 70
     4
 70
     0
 70
     0
 40
1.0
  2
Blattgröße
  1
Embedded Object
 10
277.5009206633637
 20
106.1485732033249
 30
0.0
 40
2.5
 41
0.0
 46
0.0
 71
     5
 72
     5
  1
A4
  7
Textstil12
 73
     1
 44
1.0
  0
XRECORD
  5
150F
102
{ACAD_REACTORS
330
1464
102
}
330
1464
100
AcDbXrecord
280
     1
102
ACAD_MATT_HEIGHT
140
2.5
  0
XRECORD
  5
1512
102
{ACAD_REACTORS
330
1466
102
}
330
1466
100
AcDbXrecord
280
     1
 70
     4
 70
     0
 70
     0
 40
1.0
  2
BAUTEILNUMMER
  1
Embedded Object
 10
245.2250330251084
 20
130.987326713937
 30
0.0
 40
5.0
 41
0.0
 46
0.0
 71
     5
 72
     5
  1
WKZ-0328
  7
Textstil11
 73
     1
 44
1.0
  0
XRECORD
  5
1511
102
{ACAD_REACTORS
330
1466
102
}
330
1466
100
AcDbXrecord
280
     1
102
ACAD_MATT_HEIGHT
140
5.0
  0
XRECORD
  5
1514
102
{ACAD_REACTORS
330
1468
102
}
330
1468
100
AcDbXrecord
280
     1
 70
     4
 70
     0
 70
     0
 40
1.0
  2
ERSTELLUNGSDATUM
  1
Embedded Object
 10
171.2009205994284
 20
131.2447270594129
 30
0.0
 40
2.000000029802322
 41
0.0
 46
0.0
 71
     7
 72
     5
  1
12.06.2014
  7
Textstil14
 73
     1
 44
1.0
  0
XRECORD
  5
1513
102
{ACAD_REACTORS
330
1468
102
}
330
1468
100
AcDbXrecord
280
     1
102
ACAD_MATT_HEIGHT
140
2.000000029802322
  0
XRECORD
  5
1516
102
{ACAD_REACTORS
330
146A
102
}
330
146A
100
AcDbXrecord
280
     1
 70
     4
 70
     0
 70
     0
 40
1.0
  2
KONTROLLDATUM
  1
Embedded Object
 10
171.4009205960756
 20
126.328060382812
 30
0.0
 40
2.000000029802322
 41
0.0
 46
0.0
 71
     7
 72
     5
  1

  7
Textstil14
 73
     1
 44
1.0
  0
XRECORD
  5
1515
102
{ACAD_REACTORS
330
146A
102
}
330
146A
100
AcDbXrecord
280
     1
102
ACAD_MATT_HEIGHT
140
2.000000029802322
  0
XRECORD
  5
1518
102
{ACAD_REACTORS
330
146C
102
}
330
146C
100
AcDbXrecord
280
     1
 70
     4
 70
     0
 70
     0
 40
1.0
  2
KONSTRUKTEUR
  1
Embedded Object
 10
186.8009205994284
 20
131.2462422109026
 30
0.0
 40
2.000000029802322
 41
0.0
 46
0.0
 71
     7
 72
     5
  1
D. Fischer
  7
Textstil14
 73
     1
 44
1.0
  0
XRECORD
  5
1517
102
{ACAD_REACTORS
330
146C
102
}
330
146C
100
AcDbXrecord
280
     1
102
ACAD_MATT_HEIGHT
140
2.000000029802322
  0
XRECORD
  5
151A
102
{ACAD_REACTORS
330
146E
102
}
330
146E
100
AcDbXrecord
280
     1
 70
     4
 70
     0
 70
     0
 40
1.0
  2
KONSTR._GEN._VON
  1
Embedded Object
 10
187.0009205960757
 20
122.078060382812
 30
0.0
 40
2.000000029802322
 41
0.0
 46
0.0
 71
     7
 72
     5
  1

  7
Textstil14
 73
     1
 44
1.0
  0
XRECORD
  5
1519
102
{ACAD_REACTORS
330
146E
102
}
330
146E
100
AcDbXrecord
280
     1
102
ACAD_MATT_HEIGHT
140
2.000000029802322
  0
XRECORD
  5
151C
102
{ACAD_REACTORS
330
1470
102
}
330
1470
100
AcDbXrecord
280
     1
 70
     4
 70
     0
 70
     0
 40
1.0
  2
KONTROLLIERT_VON
  1
Embedded Object
 10
187.0009205960757
 20
126.328060382812
 30
0.0
 40
2.000000029802322
 41
0.0
 46
0.0
 71
     7
 72
     5
  1

  7
Textstil14
 73
     1
 44
1.0
  0
XRECORD
  5
151B
102
{ACAD_REACTORS
330
1470
102
}
330
1470
100
AcDbXrecord
280
     1
102
ACAD_MATT_HEIGHT
140
2.000000029802322
  0
XRECORD
  5
151E
102
{ACAD_REACTORS
330
1472
102
}
330
1472
100
AcDbXrecord
280
     1
 70
     4
 70
     0
 70
     0
 40
1.0
  2
Blattnummer
  1
Embedded Object
 10
278.1596234336237
 20
111.9267336384979
 30
0.0
 40
2.485507130622863
 41
0.0
 46
0.0
 71
     5
 72
     5
  1
1 
  7
Textstil30
 73
     1
 44
1.0
  0
XRECORD
  5
151D
102
{ACAD_REACTORS
330
1472
102
}
330
1472
100
AcDbXrecord
280
     1
102
ACAD_MATT_HEIGHT
140
2.485507130622863
  0
XRECORD
  5
1520
102
{ACAD_REACTORS
330
1474
102
}
330
1474
100
AcDbXrecord
280
     1
 70
     4
 70
     0
 70
     0
 40
1.0
  2
GENEHM.DAT._KONSTR.
  1
Embedded Object
 10
171.5342393665902
 20
122.1279729466433
 30
0.0
 40
2.000000029802322
 41
0.0
 46
0.0
 71
     7
 72
     5
  1

  7
Textstil14
 73
     1
 44
1.0
  0
XRECORD
  5
151F
102
{ACAD_REACTORS
330
1474
102
}
330
1474
100
AcDbXrecord
280
     1
102
ACAD_MATT_HEIGHT
140
2.000000029802322
  0
XRECORD
  5
14FE
102
{ACAD_REACTORS
330
1351
102
}
330
1351
100
AcDbXrecord
280
     1
 70
     2
 70
     0
 70
     0
 40
1.0
  2
Blattgröße
  1
Embedded Object
 10
192.0998063896874
 20
16.32051282051291
 30
0.0
 40
2.5
 41
0.0
 46
0.0
 71
     5
 72
     5
  1
A4
  7
Textstil12
 73
     1
 44
1.0
  0
XRECORD
  5
14FD
102
{ACAD_REACTORS
330
1351
102
}
330
1351
100
AcDbXrecord
280
     1
102
ACAD_MATT_HEIGHT
140
2.5
  0
XRECORD
  5
1500
102
{ACAD_REACTORS
330
1354
102
}
330
1354
100
AcDbXrecord
280
     1
 70
     2
 70
     0
 70
     0
 40
1.0
  2
BAUTEILNUMMER
  1
Embedded Object
 10
159.823918751432
 20
41.15926633112504
 30
0.0
 40
5.0
 41
0.0
 46
0.0
 71
     5
 72
     5
  1
WKZ-0328
  7
Textstil11
 73
     1
 44
1.0
  0
XRECORD
  5
14FF
102
{ACAD_REACTORS
330
1354
102
}
330
1354
100
AcDbXrecord
280
     1
102
ACAD_MATT_HEIGHT
140
5.0
  0
XRECORD
  5
1502
102
{ACAD_REACTORS
330
1357
102
}
330
1357
100
AcDbXrecord
280
     1
 70
     2
 70
     0
 70
     0
 40
1.0
  2
ERSTELLUNGSDATUM
  1
Embedded Object
 10
85.7998063257521
 20
41.41666667660086
 30
0.0
 40
2.000000029802322
 41
0.0
 46
0.0
 71
     7
 72
     5
  1
12.06.2014
  7
Textstil14
 73
     1
 44
1.0
  0
XRECORD
  5
1501
102
{ACAD_REACTORS
330
1357
102
}
330
1357
100
AcDbXrecord
280
     1
102
ACAD_MATT_HEIGHT
140
2.000000029802322
  0
XRECORD
  5
1504
102
{ACAD_REACTORS
330
135A
102
}
330
135A
100
AcDbXrecord
280
     1
 70
     2
 70
     0
 70
     0
 40
1.0
  2
KONTROLLDATUM
  1
Embedded Object
 10
85.99980632239933
 20
36.50000000000006
 30
0.0
 40
2.000000029802322
 41
0.0
 46
0.0
 71
     7
 72
     5
  1

  7
Textstil14
 73
     1
 44
1.0
  0
XRECORD
  5
1503
102
{ACAD_REACTORS
330
135A
102
}
330
135A
100
AcDbXrecord
280
     1
102
ACAD_MATT_HEIGHT
140
2.000000029802322
  0
XRECORD
  5
1506
102
{ACAD_REACTORS
330
135D
102
}
330
135D
100
AcDbXrecord
280
     1
 70
     2
 70
     0
 70
     0
 40
1.0
  2
KONSTRUKTEUR
  1
Embedded Object
 10
101.3998063257521
 20
41.41818182809061
 30
0.0
 40
2.000000029802322
 41
0.0
 46
0.0
 71
     7
 72
     5
  1
D. Fischer
  7
Textstil14
 73
     1
 44
1.0
  0
XRECORD
  5
1505
102
{ACAD_REACTORS
330
135D
102
}
330
135D
100
AcDbXrecord
280
     1
102
ACAD_MATT_HEIGHT
140
2.000000029802322
  0
XRECORD
  5
1508
102
{ACAD_REACTORS
330
1360
102
}
330
1360
100
AcDbXrecord
280
     1
 70
     2
 70
     0
 70
     0
 40
1.0
  2
KONSTR._GEN._VON
  1
Embedded Object
 10
101.5998063223993
 20
32.25000000000005
 30
0.0
 40
2.000000029802322
 41
0.0
 46
0.0
 71
     7
 72
     5
  1

  7
Textstil14
 73
     1
 44
1.0
  0
XRECORD
  5
1507
102
{ACAD_REACTORS
330
1360
102
}
330
1360
100
AcDbXrecord
280
     1
102
ACAD_MATT_HEIGHT
140
2.000000029802322
  0
XRECORD
  5
150A
102
{ACAD_REACTORS
330
1363
102
}
330
1363
100
AcDbXrecord
280
     1
 70
     2
 70
     0
 70
     0
 40
1.0
  2
KONTROLLIERT_VON
  1
Embedded Object
 10
101.5998063223993
 20
36.50000000000006
 30
0.0
 40
2.000000029802322
 41
0.0
 46
0.0
 71
     7
 72
     5
  1

  7
Textstil14
 73
     1
 44
1.0
  0
XRECORD
  5
1509
102
{ACAD_REACTORS
330
1363
102
}
330
1363
100
AcDbXrecord
280
     1
102
ACAD_MATT_HEIGHT
140
2.000000029802322
  0
XRECORD
  5
150C
102
{ACAD_REACTORS
330
1366
102
}
330
1366
100
AcDbXrecord
280
     1
 70
     2
 70
     0
 70
     0
 40
1.0
  2
Blattnummer
  1
Embedded Object
 10
192.7585091599473
 20
22.09867325568593
 30
0.0
 40
2.485507130622863
 41
0.0
 46
0.0
 71
     5
 72
     5
  1
1 
  7
Textstil30
 73
     1
 44
1.0
  0
XRECORD
  5
150B
102
{ACAD_REACTORS
330
1366
102
}
330
1366
100
AcDbXrecord
280
     1
102
ACAD_MATT_HEIGHT
140
2.485507130622863
  0
XRECORD
  5
150E
102
{ACAD_REACTORS
330
1369
102
}
330
1369
100
AcDbXrecord
280
     1
 70
     2
 70
     0
 70
     0
 40
1.0
  2
GENEHM.DAT._KONSTR.
  1
Embedded Object
 10
86.1331250929139
 20
32.29991256383132
 30
0.0
 40
2.000000029802322
 41
0.0
 46
0.0
 71
     7
 72
     5
  1

  7
Textstil14
 73
     1
 44
1.0
  0
XRECORD
  5
150D
102
{ACAD_REACTORS
330
1369
102
}
330
1369
100
AcDbXrecord
280
     1
102
ACAD_MATT_HEIGHT
140
2.000000029802322
  0
ACDBDETAILVIEWSTYLE
  5
6C
102
{ACAD_REACTORS
330
6B
102
}
330
6B
100
AcDbModelDocViewStyle
 70
     0
  3
Imperial24
290
     0
100
AcDbDetailViewStyle
 70
     0
 71
     0
 90
        3
 71
     1
340
55
 62
   256
 40
0.24
340
0
 62
   256
 40
0.24
300

 40
0.36
280
     3
 71
     2
340
5D
 90
       25
 62
   256
 71
     3
340
55
 62
   256
 40
0.24
 90
        1
 40
0.75
 90
        1
300
%<\AcVar ViewType \f "%tc1">% %<\AcVar ViewDetailId>%\PVARIA %<\AcVar ViewScale \f "%sn">%
 71
     4
340
5D
 90
       25
 62
   256
340
5D
 90
       25
 62
   256
280
     0
  0
ACDBDETAILVIEWSTYLE
  5
13B9
102
{ACAD_REACTORS
330
6B
102
}
330
6B
100
AcDbModelDocViewStyle
 70
     0
  3
Metric50
290
     0
100
AcDbDetailViewStyle
 70
     0
 71
     0
 90
        3
 71
     1
340
55
 62
   256
 40
5.0
340
0
 62
   256
 40
5.0
300

 40
0.0
280
     1
 71
     2
340
5D
 90
       25
 62
   256
 71
     3
340
55
 62
   256
 40
5.0
 90
        0
 40
15.0
 90
        1
300
%<\AcVar ViewDetailId>% (%<\AcVar ViewScale \f "%sn">%)
 71
     4
340
5D
 90
       25
 62
   256
340
5D
 90
       25
 62
   256
280
     0
  0
IMAGEDEF
  5
1485
102
{ACAD_REACTORS
330
1480
330
139
102
}
330
139
100
AcDbRasterImageDef
 90
        0
  1
C:\CAD Workspace Vault\CAD\E_3_Nocken\Logo Optibelt CMYK.jpg
 10
599.0
 20
354.0
 11
0.001669449081803
 21
0.001669449081803
280
     1
281
     0
  0
IMAGEDEF
  5
13A
102
{ACAD_REACTORS
330
139
330
13B
330
1429
102
}
330
139
100
AcDbRasterImageDef
 90
        0
  1
H:\Eigene Dateien\CAD Workspace Vault\CAD\E_3_Nocken\E_3_01_Aufschweißnocke\06_Trapez\E_3_01_06_07_00_WKZ-03280.bmp
 10
599.0
 20
354.0
 11
0.2645502645502646
 21
0.2645502645502646
280
     1
281
     2
  0
LAYOUT
  5
70
102
{ACAD_REACTORS
330
62
102
}
330
62
100
AcDbPlotSettings
  1

  2

  4

  6

 40
0.0
 41
0.0
 42
0.0
 43
0.0
 44
0.0
 45
0.0
 46
0.0
 47
0.0
 48
0.0
 49
0.0
140
0.0
141
0.0
142
1.0
143
1.0
 70
   688
 72
     0
 73
     0
 74
     5
  7

 75
    16
147
1.0
 76
     0
 77
     2
 78
   300
148
0.0
149
0.0
100
AcDbLayout
  1
Layout1
 70
     1
 71
     1
 10
0.0
 20
0.0
 11
210.0
 21
297.0
 12
0.0
 22
0.0
 32
0.0
 14
0.0
 24
0.0
 34
0.0
 15
210.0
 25
297.0
 35
0.0
146
0.0
 13
0.0
 23
0.0
 33
0.0
 16
1.0
 26
0.0
 36
0.0
 17
0.0
 27
1.0
 37
0.0
 76
     0
330
6D
  0
LAYOUT
  5
78
102
{ACAD_REACTORS
330
62
102
}
330
62
100
AcDbPlotSettings
  1

  2

  4

  6

 40
0.0
 41
0.0
 42
0.0
 43
0.0
 44
0.0
 45
0.0
 46
0.0
 47
0.0
 48
0.0
 49
0.0
140
0.0
141
0.0
142
1.0
143
1.0
 70
   688
 72
     0
 73
     0
 74
     5
  7

 75
    16
147
1.0
 76
     0
 77
     2
 78
   300
148
0.0
149
0.0
100
AcDbLayout
  1
Layout2
 70
     1
 71
     2
 10
0.0
 20
0.0
 11
12.0
 21
9.0
 12
0.0
 22
0.0
 32
0.0
 14
0.0
 24
0.0
 34
0.0
 15
0.0
 25
0.0
 35
0.0
146
0.0
 13
0.0
 23
0.0
 33
0.0
 16
1.0
 26
0.0
 36
0.0
 17
0.0
 27
1.0
 37
0.0
 76
     0
330
75
  0
LAYOUT
  5
74
102
{ACAD_REACTORS
330
62
102
}
330
62
100
AcDbPlotSettings
  1

  2

  4

  6

 40
0.0
 41
0.0
 42
0.0
 43
0.0
 44
0.0
 45
0.0
 46
0.0
 47
0.0
 48
0.0
 49
0.0
140
0.0
141
0.0
142
1.0
143
1.0
 70
  1712
 72
     0
 73
     0
 74
     0
  7

 75
     0
147
1.0
 76
     0
 77
     2
 78
   300
148
0.0
149
0.0
100
AcDbLayout
  1
Model
 70
     1
 71
     0
 10
0.0
 20
0.0
 11
12.0
 21
9.0
 12
0.0
 22
0.0
 32
0.0
 14
0.0
 24
0.0
 34
0.0
 15
0.0
 25
0.0
 35
0.0
146
0.0
 13
0.0
 23
0.0
 33
0.0
 16
1.0
 26
0.0
 36
0.0
 17
0.0
 27
1.0
 37
0.0
 76
     0
330
71
331
57
  0
MATERIAL
  5
19
102
{ACAD_XDICTIONARY
360
1A
102
}
102
{ACAD_REACTORS
330
10
102
}
330
10
100
AcDbMaterial
  1
ByBlock
 72
     0
 43
0.0208333333333333
 43
0.0
 43
0.0
 43
0.0
 43
0.0
 43
0.0208333333333333
 43
0.0
 43
0.0
 43
0.0
 43
0.0
 43
1.0
 43
0.0
 43
0.0
 43
0.0
 43
0.0
 43
1.0
 77
     0
 47
0.0208333333333333
 47
0.0
 47
0.0
 47
0.0
 47
0.0
 47
0.0208333333333333
 47
0.0
 47
0.0
 47
0.0
 47
0.0
 47
1.0
 47
0.0
 47
0.0
 47
0.0
 47
0.0
 47
1.0
171
     0
 49
0.0208333333333333
 49
0.0
 49
0.0
 49
0.0
 49
0.0
 49
0.0208333333333333
 49
0.0
 49
0.0
 49
0.0
 49
0.0
 49
1.0
 49
0.0
 49
0.0
 49
0.0
 49
0.0
 49
1.0
175
     0
142
0.0208333333333333
142
0.0
142
0.0
142
0.0
142
0.0
142
0.0208333333333333
142
0.0
142
0.0
142
0.0
142
0.0
142
1.0
142
0.0
142
0.0
142
0.0
142
0.0
142
1.0
179
     0
144
0.0208333333333333
144
0.0
144
0.0
144
0.0
144
0.0
144
0.0208333333333333
144
0.0
144
0.0
144
0.0
144
0.0
144
1.0
144
0.0
144
0.0
144
0.0
144
0.0
144
1.0
147
0.0208333333333333
147
0.0
147
0.0
147
0.0
147
0.0
147
0.0208333333333333
147
0.0
147
0.0
147
0.0
147
0.0
147
1.0
147
0.0
147
0.0
147
0.0
147
0.0
147
1.0
  0
MATERIAL
  5
11
102
{ACAD_XDICTIONARY
360
12
102
}
102
{ACAD_REACTORS
330
10
102
}
330
10
100
AcDbMaterial
  1
ByLayer
 72
     0
 43
0.0208333333333333
 43
0.0
 43
0.0
 43
0.0
 43
0.0
 43
0.0208333333333333
 43
0.0
 43
0.0
 43
0.0
 43
0.0
 43
1.0
 43
0.0
 43
0.0
 43
0.0
 43
0.0
 43
1.0
 77
     0
 47
0.0208333333333333
 47
0.0
 47
0.0
 47
0.0
 47
0.0
 47
0.0208333333333333
 47
0.0
 47
0.0
 47
0.0
 47
0.0
 47
1.0
 47
0.0
 47
0.0
 47
0.0
 47
0.0
 47
1.0
171
     0
 49
0.0208333333333333
 49
0.0
 49
0.0
 49
0.0
 49
0.0
 49
0.0208333333333333
 49
0.0
 49
0.0
 49
0.0
 49
0.0
 49
1.0
 49
0.0
 49
0.0
 49
0.0
 49
0.0
 49
1.0
175
     0
142
0.0208333333333333
142
0.0
142
0.0
142
0.0
142
0.0
142
0.0208333333333333
142
0.0
142
0.0
142
0.0
142
0.0
142
1.0
142
0.0
142
0.0
142
0.0
142
0.0
142
1.0
179
     0
144
0.0208333333333333
144
0.0
144
0.0
144
0.0
144
0.0
144
0.0208333333333333
144
0.0
144
0.0
144
0.0
144
0.0
144
1.0
144
0.0
144
0.0
144
0.0
144
0.0
144
1.0
147
0.0208333333333333
147
0.0
147
0.0
147
0.0
147
0.0
147
0.0208333333333333
147
0.0
147
0.0
147
0.0
147
0.0
147
1.0
147
0.0
147
0.0
147
0.0
147
0.0
147
1.0
  0
MATERIAL
  5
21
102
{ACAD_XDICTIONARY
360
22
102
}
102
{ACAD_REACTORS
330
10
102
}
330
10
100
AcDbMaterial
  1
Global
 72
     0
 43
0.0208333333333333
 43
0.0
 43
0.0
 43
0.0
 43
0.0
 43
0.0208333333333333
 43
0.0
 43
0.0
 43
0.0
 43
0.0
 43
1.0
 43
0.0
 43
0.0
 43
0.0
 43
0.0
 43
1.0
 77
     0
 47
0.0208333333333333
 47
0.0
 47
0.0
 47
0.0
 47
0.0
 47
0.0208333333333333
 47
0.0
 47
0.0
 47
0.0
 47
0.0
 47
1.0
 47
0.0
 47
0.0
 47
0.0
 47
0.0
 47
1.0
171
     0
 49
0.0208333333333333
 49
0.0
 49
0.0
 49
0.0
 49
0.0
 49
0.0208333333333333
 49
0.0
 49
0.0
 49
0.0
 49
0.0
 49
1.0
 49
0.0
 49
0.0
 49
0.0
 49
0.0
 49
1.0
175
     0
142
0.0208333333333333
142
0.0
142
0.0
142
0.0
142
0.0
142
0.0208333333333333
142
0.0
142
0.0
142
0.0
142
0.0
142
1.0
142
0.0
142
0.0
142
0.0
142
0.0
142
1.0
179
     0
144
0.0208333333333333
144
0.0
144
0.0
144
0.0
144
0.0
144
0.0208333333333333
144
0.0
144
0.0
144
0.0
144
0.0
144
1.0
144
0.0
144
0.0
144
0.0
144
0.0
144
1.0
147
0.0208333333333333
147
0.0
147
0.0
147
0.0
147
0.0
147
0.0208333333333333
147
0.0
147
0.0
147
0.0
147
0.0
147
1.0
147
0.0
147
0.0
147
0.0
147
0.0
147
1.0
  0
MLEADERSTYLE
  5
67
102
{ACAD_XDICTIONARY
360
1556
102
}
102
{ACAD_REACTORS
330
66
102
}
330
66
100
AcDbMLeaderStyle
170
     2
171
     1
172
     0
 90
        2
 40
0.0
 41
0.0
173
     1
 91
-1056964608
340
5B
 92
       -2
290
     1
 42
0.09
291
     1
 43
0.36
  3
Standard
 44
0.18
300

342
55
174
     1
178
     6
175
     1
176
     0
 93
-1056964608
 45
0.18
292
     0
297
     0
 46
0.18
 94
-1056964608
 47
1.0
 49
1.0
140
1.0
293
     1
141
0.0
294
     1
177
     0
142
1.0
295
     0
296
     0
143
0.125
1001
ACAD_MLEADERVER
1070
     2
  0
MLINESTYLE
  5
60
102
{ACAD_REACTORS
330
5F
102
}
330
5F
100
AcDbMlineStyle
  2
STANDARD
 70
     0
  3

 62
   256
 51
90.0
 52
90.0
 71
     2
 49
0.5
 62
   256
  6
BYLAYER
 49
-0.5
 62
   256
  6
BYLAYER
  0
ACDBPLACEHOLDER
  5
F
102
{ACAD_REACTORS
330
E
102
}
330
E
  0
SCALE
  5
43
102
{ACAD_REACTORS
330
42
102
}
330
42
100
AcDbScale
 70
     0
300
1:1
140
1.0
141
1.0
290
     1
  0
SCALE
  5
44
102
{ACAD_REACTORS
330
42
102
}
330
42
100
AcDbScale
 70
     0
300
1/128" = 1'-0"
140
0.0078125
141
12.0
290
     0
  0
SCALE
  5
45
102
{ACAD_REACTORS
330
42
102
}
330
42
100
AcDbScale
 70
     0
300
1/64" = 1'-0"
140
0.015625
141
12.0
290
     0
  0
SCALE
  5
46
102
{ACAD_REACTORS
330
42
102
}
330
42
100
AcDbScale
 70
     0
300
1/32" = 1'-0"
140
0.03125
141
12.0
290
     0
  0
SCALE
  5
47
102
{ACAD_REACTORS
330
42
102
}
330
42
100
AcDbScale
 70
     0
300
1/16" = 1'-0"
140
0.0625
141
12.0
290
     0
  0
SCALE
  5
48
102
{ACAD_REACTORS
330
42
102
}
330
42
100
AcDbScale
 70
     0
300
3/32" = 1'-0"
140
0.09375
141
12.0
290
     0
  0
SCALE
  5
49
102
{ACAD_REACTORS
330
42
102
}
330
42
100
AcDbScale
 70
     0
300
1/8" = 1'-0"
140
0.125
141
12.0
290
     0
  0
SCALE
  5
4A
102
{ACAD_REACTORS
330
42
102
}
330
42
100
AcDbScale
 70
     0
300
3/16" = 1'-0"
140
0.1875
141
12.0
290
     0
  0
SCALE
  5
4B
102
{ACAD_REACTORS
330
42
102
}
330
42
100
AcDbScale
 70
     0
300
1/4" = 1'-0"
140
0.25
141
12.0
290
     0
  0
SCALE
  5
4C
102
{ACAD_REACTORS
330
42
102
}
330
42
100
AcDbScale
 70
     0
300
3/8" = 1'-0"
140
0.375
141
12.0
290
     0
  0
SCALE
  5
4D
102
{ACAD_REACTORS
330
42
102
}
330
42
100
AcDbScale
 70
     0
300
1/2" = 1'-0"
140
0.5
141
12.0
290
     0
  0
SCALE
  5
4E
102
{ACAD_REACTORS
330
42
102
}
330
42
100
AcDbScale
 70
     0
300
3/4" = 1'-0"
140
0.75
141
12.0
290
     0
  0
SCALE
  5
4F
102
{ACAD_REACTORS
330
42
102
}
330
42
100
AcDbScale
 70
     0
300
1" = 1'-0"
140
1.0
141
12.0
290
     0
  0
SCALE
  5
50
102
{ACAD_REACTORS
330
42
102
}
330
42
100
AcDbScale
 70
     0
300
1-1/2" = 1'-0"
140
1.5
141
12.0
290
     0
  0
SCALE
  5
51
102
{ACAD_REACTORS
330
42
102
}
330
42
100
AcDbScale
 70
     0
300
3" = 1'-0"
140
3.0
141
12.0
290
     0
  0
SCALE
  5
52
102
{ACAD_REACTORS
330
42
102
}
330
42
100
AcDbScale
 70
     0
300
6" = 1'-0"
140
6.0
141
12.0
290
     0
  0
SCALE
  5
53
102
{ACAD_REACTORS
330
42
102
}
330
42
100
AcDbScale
 70
     0
300
1'-0" = 1'-0"
140
12.0
141
12.0
290
     0
  0
ACDBSECTIONVIEWSTYLE
  5
6A
102
{ACAD_REACTORS
330
68
102
}
330
68
100
AcDbModelDocViewStyle
 70
     0
  3
Imperial24
290
     0
100
AcDbSectionViewStyle
 70
     0
 71
     0
 90
       78
 71
     1
340
55
 62
   256
 40
0.24
340
0
340
0
 62
   256
 40
0.24
300
I, O, Q, S, X, Z
 40
0.48
 90
        3
 40
0.18
 90
        1
 71
     2
340
69
 90
       25
 62
   256
340
5D
 90
       50
 62
   256
 40
0.24
 40
0.0
 40
0.24
 71
     3
340
55
 62
   256
 40
0.24
 90
        1
 40
0.75
 90
        1
300
%<\AcVar ViewType \f "%tc1">% %<\AcVar ViewSectionStartId>%-%<\AcVar ViewSectionEndId>%\PVARIA %<\AcVar ViewScale \f "%sn">%
 71
     4
 62
   256
 62
   257
300
ANSI31
 40
1.0
 90
        0
290
     0
290
     0
 90
        6
 40
0.0
 40
1.570796326794896
 40
0.2617993877991494
 40
1.308996938995747
 40
-0.2617993877991494
 40
1.832595714594046
  0
ACDBSECTIONVIEWSTYLE
  5
13B8
102
{ACAD_REACTORS
330
68
102
}
330
68
100
AcDbModelDocViewStyle
 70
     0
  3
Metric50
290
     0
100
AcDbSectionViewStyle
 70
     0
 71
     0
 90
      102
 71
     1
340
55
 62
   256
 40
5.0
340
0
340
0
 62
   256
 40
5.0
300
I, O, Q, S, X, Z
 40
10.0
 90
        0
 40
2.5
 90
        0
 71
     2
340
5D
 90
       25
 62
   256
340
5D
 90
       50
 62
   256
 40
5.0
 40
2.5
 40
5.0
 71
     3
340
55
 62
   256
 40
5.0
 90
        0
 40
15.0
 90
        1
300
%<\AcVar ViewSectionStartId>%-%<\AcVar ViewSectionEndId>% (%<\AcVar ViewScale \f "%sn">%)
 71
     4
 62
   256
 62
   257
300
ANSI31
 40
1.0
 90
        0
290
     0
290
     0
 90
        6
 40
0.0
 40
1.570796326794896
 40
0.2617993877991494
 40
1.308996938995747
 40
-0.2617993877991494
 40
1.832595714594046
  0
TABLESTYLE
  5
65
102
{ACAD_XDICTIONARY
360
1333
102
}
102
{ACAD_REACTORS
330
64
102
}
330
64
100
AcDbTableStyle
  3
Standard
 70
     0
 71
     0
 40
0.06
 41
0.06
280
     0
281
     0
  7
Standard
140
0.18
170
     2
 62
     0
 63
     7
283
     0
274
    -2
284
     1
 64
     0
275
    -2
285
     1
 65
     0
276
    -2
286
     1
 66
     0
277
    -2
287
     1
 67
     0
278
    -2
288
     1
 68
     0
279
    -2
289
     1
 69
     0
  7
Standard
140
0.25
170
     5
 62
     0
 63
     7
283
     0
274
    -2
284
     1
 64
     0
275
    -2
285
     1
 65
     0
276
    -2
286
     1
 66
     0
277
    -2
287
     1
 67
     0
278
    -2
288
     1
 68
     0
279
    -2
289
     1
 69
     0
  7
Standard
140
0.18
170
     5
 62
     0
 63
     7
283
     0
274
    -2
284
     1
 64
     0
275
    -2
285
     1
 65
     0
276
    -2
286
     1
 66
     0
277
    -2
287
     1
 67
     0
278
    -2
288
     1
 68
     0
279
    -2
289
     1
 69
     0
  0
VISUALSTYLE
  5
2F
102
{ACAD_XDICTIONARY
360
152F
102
}
102
{ACAD_REACTORS
330
29
102
}
330
29
100
AcDbVisualStyle
  2
2dWireframe
 70
     4
 71
     0
 72
     2
 73
     0
 90
        0
 40
-0.6
 41
-30.0
 62
     5
 63
     7
421
 16777215
 74
     1
 91
        4
 64
     7
 65
   257
 75
     1
175
     1
 42
1.0
 92
        0
 66
   257
 43
1.0
 76
     1
 77
     6
 78
     2
 67
     7
 79
     5
170
     0
171
     0
290
     0
174
     0
 93
        1
 44
0.0
173
     0
291
     0
 45
0.0
1001
ACAD
1000
AcDbSavedByObjectVersion
1070
     0
  0
VISUALSTYLE
  5
2E
102
{ACAD_XDICTIONARY
360
152D
102
}
102
{ACAD_REACTORS
330
29
102
}
330
29
100
AcDbVisualStyle
  2
Basic
 70
     7
 71
     1
 72
     0
 73
     1
 90
        0
 40
-0.6
 41
-30.0
 62
     5
 63
     7
421
 16777215
 74
     0
 91
        4
 64
     7
 65
   257
 75
     1
175
     1
 42
1.0
 92
        8
 66
     7
 43
1.0
 76
     1
 77
     6
 78
     2
 67
     7
 79
     5
170
     0
171
     0
290
     0
174
     0
 93
        1
 44
0.0
173
     0
291
     1
 45
0.0
1001
ACAD
1000
AcDbSavedByObjectVersion
1070
     0
  0
VISUALSTYLE
  5
35
102
{ACAD_XDICTIONARY
360
153B
102
}
102
{ACAD_REACTORS
330
29
102
}
330
29
100
AcDbVisualStyle
  2
Brighten
 70
    12
 71
     2
 72
     2
 73
     0
 90
        0
 40
-0.6
 41
-30.0
 62
     5
 63
     7
421
 16777215
 74
     1
 91
        4
 64
     7
 65
   257
 75
     1
175
     1
 42
1.0
 92
        8
 66
     7
 43
1.0
 76
     1
 77
     6
 78
     2
 67
     7
 79
     5
170
     0
171
     0
290
     0
174
     0
 93
        1
 44
50.0
173
     0
291
     1
 45
0.0
1001
ACAD
1000
AcDbSavedByObjectVersion
1070
     0
  0
VISUALSTYLE
  5
39
102
{ACAD_XDICTIONARY
360
1543
102
}
102
{ACAD_REACTORS
330
29
102
}
330
29
100
AcDbVisualStyle
  2
ColorChange
 70
    16
 71
     2
 72
     2
 73
     3
 90
        0
 40
-0.6
 41
-30.0
 62
     5
 63
     8
421
  8421504
 74
     1
 91
        4
 64
     7
 65
   257
 75
     1
175
     1
 42
1.0
 92
        8
 66
     8
424
  8421504
 43
1.0
 76
     1
 77
     6
 78
     2
 67
     7
 79
     5
170
     0
171
     0
290
     0
174
     0
 93
        1
 44
0.0
173
     0
291
     1
 45
0.0
1001
ACAD
1000
AcDbSavedByObjectVersion
1070
     0
  0
VISUALSTYLE
  5
32
102
{ACAD_XDICTIONARY
360
1535
102
}
102
{ACAD_REACTORS
330
29
102
}
330
29
100
AcDbVisualStyle
  2
Conceptual
 70
     9
 71
     3
 72
     2
 73
     0
 90
        0
 40
-0.6
 41
-30.0
 62
     5
 63
     7
421
 16777215
 74
     2
 91
        2
 64
     7
 65
   257
 75
     1
175
     1
 42
179.0
 92
        8
 66
     7
 43
1.0
 76
     1
 77
     6
 78
     2
 67
     7
 79
     3
170
     0
171
     0
290
     0
174
     0
 93
        1
 44
0.0
173
     0
291
     0
 45
0.0
1001
ACAD
1000
AcDbSavedByObjectVersion
1070
     0
  0
VISUALSTYLE
  5
34
102
{ACAD_XDICTIONARY
360
1539
102
}
102
{ACAD_REACTORS
330
29
102
}
330
29
100
AcDbVisualStyle
  2
Dim
 70
    11
 71
     2
 72
     2
 73
     0
 90
        0
 40
-0.6
 41
-30.0
 62
     5
 63
     7
421
 16777215
 74
     1
 91
        4
 64
     7
 65
   257
 75
     1
175
     1
 42
1.0
 92
        8
 66
     7
 43
1.0
 76
     1
 77
     6
 78
     2
 67
     7
 79
     5
170
     0
171
     0
290
     0
174
     0
 93
        1
 44
-50.0
173
     0
291
     1
 45
0.0
1001
ACAD
1000
AcDbSavedByObjectVersion
1070
     0
  0
VISUALSTYLE
  5
41
102
{ACAD_XDICTIONARY
360
1553
102
}
102
{ACAD_REACTORS
330
29
102
}
330
29
100
AcDbVisualStyle
  2
EdgeColorOff
 70
    22
 71
     2
 72
     2
 73
     0
 90
        0
 40
-0.6
 41
-30.0
 62
     5
 63
     7
421
 16777215
 74
     1
 91
        4
 64
     7
 65
   257
 75
     1
175
     1
 42
1.0
 92
        8
 66
     7
 43
1.0
 76
     1
 77
     6
 78
     2
 67
     7
 79
     5
170
     0
171
     0
290
     0
174
     0
 93
        1
 44
0.0
173
     0
291
     1
 45
0.0
1001
ACAD
1000
AcDbSavedByObjectVersion
1070
     0
  0
VISUALSTYLE
  5
38
102
{ACAD_XDICTIONARY
360
1541
102
}
102
{ACAD_REACTORS
330
29
102
}
330
29
100
AcDbVisualStyle
  2
Facepattern
 70
    15
 71
     2
 72
     2
 73
     0
 90
        0
 40
-0.6
 41
-30.0
 62
     5
 63
     7
421
 16777215
 74
     1
 91
        4
 64
     7
 65
   257
 75
     1
175
     1
 42
1.0
 92
        8
 66
     7
 43
1.0
 76
     1
 77
     6
 78
     2
 67
     7
 79
     5
170
     0
171
     0
290
     0
174
     0
 93
        1
 44
0.0
173
     0
291
     1
 45
0.0
1001
ACAD
1000
AcDbSavedByObjectVersion
1070
     0
  0
VISUALSTYLE
  5
2A
102
{ACAD_XDICTIONARY
360
1525
102
}
102
{ACAD_REACTORS
330
29
102
}
330
29
100
AcDbVisualStyle
  2
Flat
 70
     0
 71
     2
 72
     1
 73
     1
 90
        2
 40
-0.6
 41
30.0
 62
     5
 63
     7
421
 16777215
 74
     0
 91
        0
 64
     7
 65
   257
 75
     1
175
     1
 42
1.0
 92
        8
 66
     7
 43
1.0
 76
     1
 77
     6
 78
     2
 67
     7
 79
     5
170
     0
171
     0
290
     0
174
     0
 93
       13
 44
0.0
173
     0
291
     1
 45
0.0
1001
ACAD
1000
AcDbSavedByObjectVersion
1070
     0
  0
VISUALSTYLE
  5
2B
102
{ACAD_XDICTIONARY
360
1527
102
}
102
{ACAD_REACTORS
330
29
102
}
330
29
100
AcDbVisualStyle
  2
FlatWithEdges
 70
     1
 71
     2
 72
     1
 73
     1
 90
        2
 40
-0.6
 41
30.0
 62
     5
 63
     7
421
 16777215
 74
     1
 91
        0
 64
     7
 65
   257
 75
     1
175
     1
 42
1.0
 92
        0
 66
   257
 43
1.0
 76
     1
 77
     6
 78
     2
 67
     7
 79
     5
170
     0
171
     0
290
     0
174
     0
 93
       13
 44
0.0
173
     0
291
     1
 45
0.0
1001
ACAD
1000
AcDbSavedByObjectVersion
1070
     0
  0
VISUALSTYLE
  5
2C
102
{ACAD_XDICTIONARY
360
1529
102
}
102
{ACAD_REACTORS
330
29
102
}
330
29
100
AcDbVisualStyle
  2
Gouraud
 70
     2
 71
     2
 72
     2
 73
     1
 90
        2
 40
-0.6
 41
30.0
 62
     5
 63
     7
421
 16777215
 74
     0
 91
        0
 64
     7
 65
   257
 75
     1
175
     1
 42
1.0
 92
        0
 66
     7
 43
1.0
 76
     1
 77
     6
 78
     2
 67
     7
 79
     5
170
     0
171
     0
290
     0
174
     0
 93
       13
 44
0.0
173
     0
291
     1
 45
0.0
1001
ACAD
1000
AcDbSavedByObjectVersion
1070
     0
  0
VISUALSTYLE
  5
2D
102
{ACAD_XDICTIONARY
360
152B
102
}
102
{ACAD_REACTORS
330
29
102
}
330
29
100
AcDbVisualStyle
  2
GouraudWithEdges
 70
     3
 71
     2
 72
     2
 73
     1
 90
        2
 40
-0.6
 41
30.0
 62
     5
 63
     7
421
 16777215
 74
     1
 91
        0
 64
     7
 65
   257
 75
     1
175
     1
 42
1.0
 92
        0
 66
   257
 43
1.0
 76
     1
 77
     6
 78
     2
 67
     7
 79
     5
170
     0
171
     0
290
     0
174
     0
 93
       13
 44
0.0
173
     0
291
     1
 45
0.0
1001
ACAD
1000
AcDbSavedByObjectVersion
1070
     0
  0
VISUALSTYLE
  5
31
102
{ACAD_XDICTIONARY
360
1533
102
}
102
{ACAD_REACTORS
330
29
102
}
330
29
100
AcDbVisualStyle
  2
Hidden
 70
     6
 71
     1
 72
     2
 73
     2
 90
        0
 40
-0.6
 41
-30.0
 62
     5
 63
     7
421
 16777215
 74
     2
 91
        2
 64
     7
 65
   257
 75
     2
175
     1
 42
40.0
 92
        0
 66
   257
 43
1.0
 76
     1
 77
     6
 78
     2
 67
     7
 79
     3
170
     0
171
     0
290
     0
174
     0
 93
        1
 44
0.0
173
     0
291
     0
 45
0.0
1001
ACAD
1000
AcDbSavedByObjectVersion
1070
     0
  0
VISUALSTYLE
  5
3F
102
{ACAD_XDICTIONARY
360
154F
102
}
102
{ACAD_REACTORS
330
29
102
}
330
29
100
AcDbVisualStyle
  2
JitterOff
 70
    20
 71
     2
 72
     2
 73
     0
 90
        0
 40
-0.6
 41
-30.0
 62
     5
 63
     7
421
 16777215
 74
     1
 91
        4
 64
     7
 65
   257
 75
     1
175
     1
 42
1.0
 92
       10
 66
     7
 43
1.0
 76
     1
 77
     6
 78
     2
 67
     7
 79
     5
170
     0
171
     0
290
     0
174
     0
 93
        1
 44
0.0
173
     0
291
     1
 45
0.0
1001
ACAD
1000
AcDbSavedByObjectVersion
1070
     0
  0
VISUALSTYLE
  5
37
102
{ACAD_XDICTIONARY
360
153F
102
}
102
{ACAD_REACTORS
330
29
102
}
330
29
100
AcDbVisualStyle
  2
Linepattern
 70
    14
 71
     2
 72
     2
 73
     0
 90
        0
 40
-0.6
 41
-30.0
 62
     5
 63
     7
421
 16777215
 74
     1
 91
        4
 64
     7
 65
   257
 75
     7
175
     7
 42
1.0
 92
        8
 66
     7
 43
1.0
 76
     1
 77
     6
 78
     2
 67
     7
 79
     5
170
     0
171
     0
290
     0
174
     0
 93
        1
 44
0.0
173
     0
291
     1
 45
0.0
1001
ACAD
1000
AcDbSavedByObjectVersion
1070
     0
  0
VISUALSTYLE
  5
40
102
{ACAD_XDICTIONARY
360
1551
102
}
102
{ACAD_REACTORS
330
29
102
}
330
29
100
AcDbVisualStyle
  2
OverhangOff
 70
    21
 71
     2
 72
     2
 73
     0
 90
        0
 40
-0.6
 41
-30.0
 62
     5
 63
     7
421
 16777215
 74
     1
 91
        4
 64
     7
 65
   257
 75
     1
175
     1
 42
1.0
 92
        9
 66
     7
 43
1.0
 76
     1
 77
     6
 78
     2
 67
     7
 79
     5
170
     0
171
     0
290
     0
174
     0
 93
        1
 44
0.0
173
     0
291
     1
 45
0.0
1001
ACAD
1000
AcDbSavedByObjectVersion
1070
     0
  0
VISUALSTYLE
  5
33
102
{ACAD_XDICTIONARY
360
1537
102
}
102
{ACAD_REACTORS
330
29
102
}
330
29
100
AcDbVisualStyle
  2
Realistic
 70
     8
 71
     2
 72
     2
 73
     0
 90
        2
 40
-0.6
 41
30.0
 62
     5
 63
     7
421
 16777215
 74
     0
 91
        0
 64
     7
 65
   257
 75
     1
175
     1
 42
1.0
 92
        8
 66
   257
 43
1.0
 76
     1
 77
     6
 78
     2
 67
     7
 79
     3
170
     0
171
     0
290
     0
174
     0
 93
       13
 44
0.0
173
     0
291
     0
 45
0.0
1001
ACAD
1000
AcDbSavedByObjectVersion
1070
     0
  0
VISUALSTYLE
  5
3E
102
{ACAD_XDICTIONARY
360
154D
102
}
102
{ACAD_REACTORS
330
29
102
}
330
29
100
AcDbVisualStyle
  2
Shaded
 70
    27
 71
     2
 72
     2
 73
     1
 90
        2
 40
-0.6
 41
30.0
 62
     5
 63
     7
421
 16777215
 74
     0
 91
        4
 64
     7
 65
   257
 75
     1
175
     1
 42
1.0
 92
        8
 66
   257
 43
1.0
 76
     1
 77
     6
 78
     2
 67
     8
425
  7895160
 79
     3
170
     0
171
     0
290
     0
174
     0
 93
        5
 44
0.0
173
     0
291
     0
 45
0.0
1001
ACAD
1000
AcDbSavedByObjectVersion
1070
     0
  0
VISUALSTYLE
  5
3D
102
{ACAD_XDICTIONARY
360
154B
102
}
102
{ACAD_REACTORS
330
29
102
}
330
29
100
AcDbVisualStyle
  2
Shaded with edges
 70
    26
 71
     2
 72
     2
 73
     1
 90
        2
 40
-0.6
 41
30.0
 62
     5
 63
     7
421
 16777215
 74
     1
 91
       10
 64
     7
 65
   257
 75
     2
175
     1
 42
1.0
 92
        8
 66
   257
 43
1.0
 76
     1
 77
     6
 78
     2
 67
     7
 79
     3
170
     0
171
     0
290
     0
174
     0
 93
        5
 44
0.0
173
     0
291
     0
 45
0.0
1001
ACAD
1000
AcDbSavedByObjectVersion
1070
     0
  0
VISUALSTYLE
  5
3A
102
{ACAD_XDICTIONARY
360
1545
102
}
102
{ACAD_REACTORS
330
29
102
}
330
29
100
AcDbVisualStyle
  2
Shades of Gray
 70
    23
 71
     2
 72
     2
 73
     3
 90
        0
 40
-0.6
 41
-30.0
 62
     5
 63
     7
421
 16777215
 74
     2
 91
        2
 64
     7
 65
     7
 75
     1
175
     1
 42
40.0
 92
        8
 66
     7
 43
1.0
 76
     1
 77
     6
 78
     2
 67
     7
 79
     3
170
     0
171
     0
290
     0
174
     0
 93
        1
 44
0.0
173
     0
291
     0
 45
0.0
1001
ACAD
1000
AcDbSavedByObjectVersion
1070
     0
  0
VISUALSTYLE
  5
3B
102
{ACAD_XDICTIONARY
360
1547
102
}
102
{ACAD_REACTORS
330
29
102
}
330
29
100
AcDbVisualStyle
  2
Sketchy
 70
    24
 71
     1
 72
     2
 73
     2
 90
        0
 40
-0.6
 41
-30.0
 62
     5
 63
     7
421
 16777215
 74
     2
 91
        2
 64
     7
 65
     7
 75
     1
175
     1
 42
40.0
 92
       11
 66
     7
 43
1.0
 76
     1
 77
     6
 78
     2
 67
     7
 79
     6
170
     0
171
     0
290
     0
174
     0
 93
        1
 44
0.0
173
     0
291
     0
 45
0.0
1001
ACAD
1000
AcDbSavedByObjectVersion
1070
     0
  0
VISUALSTYLE
  5
36
102
{ACAD_XDICTIONARY
360
153D
102
}
102
{ACAD_REACTORS
330
29
102
}
330
29
100
AcDbVisualStyle
  2
Thicken
 70
    13
 71
     2
 72
     2
 73
     0
 90
        0
 40
-0.6
 41
-30.0
 62
     5
 63
     7
421
 16777215
 74
     1
 91
        4
 64
     7
 65
   257
 75
     1
175
     1
 42
1.0
 92
       12
 66
     7
 43
1.0
 76
     1
 77
     6
 78
     2
 67
     7
 79
     5
170
     0
171
     0
290
     0
174
     0
 93
        1
 44
0.0
173
     0
291
     1
 45
0.0
1001
ACAD
1000
AcDbSavedByObjectVersion
1070
     0
  0
VISUALSTYLE
  5
30
102
{ACAD_XDICTIONARY
360
1531
102
}
102
{ACAD_REACTORS
330
29
102
}
330
29
100
AcDbVisualStyle
  2
Wireframe
 70
     5
 71
     0
 72
     2
 73
     0
 90
        0
 40
-0.6
 41
-30.0
 62
     5
 63
     7
421
 16777215
 74
     1
 91
        4
 64
     7
 65
   257
 75
     1
175
     1
 42
1.0
 92
        0
 66
   257
 43
1.0
 76
     1
 77
     6
 78
     2
 67
     7
 79
     3
170
     0
171
     0
290
     0
174
     0
 93
        1
 44
0.0
173
     0
291
     0
 45
0.0
1001
ACAD
1000
AcDbSavedByObjectVersion
1070
     0
  0
VISUALSTYLE
  5
3C
102
{ACAD_XDICTIONARY
360
1549
102
}
102
{ACAD_REACTORS
330
29
102
}
330
29
100
AcDbVisualStyle
  2
X-Ray
 70
    25
 71
     2
 72
     2
 73
     1
 90
        1
 40
0.5
 41
-30.0
 62
     5
 63
     7
421
 16777215
 74
     1
 91
        0
 64
     7
 65
   257
 75
     1
175
     1
 42
1.0
 92
        8
 66
     7
 43
1.0
 76
     1
 77
     6
 78
     2
 67
     7
 79
     3
170
     0
171
     0
290
     0
174
     0
 93
       13
 44
0.0
173
     0
291
     0
 45
0.0
1001
ACAD
1000
AcDbSavedByObjectVersion
1070
     0
  0
DICTIONARYVAR
  5
13B2
102
{ACAD_REACTORS
330
13AC
102
}
330
13AC
100
DictionaryVariables
280
     0
  1
1:1
  0
DICTIONARYVAR
  5
13AE
102
{ACAD_REACTORS
330
13AC
102
}
330
13AC
100
DictionaryVariables
280
     0
  1
STANDARD
  0
DICTIONARYVAR
  5
13AD
102
{ACAD_REACTORS
330
13AC
102
}
330
13AC
100
DictionaryVariables
280
     0
  1
STANDARD
  0
DICTIONARYVAR
  5
13AF
102
{ACAD_REACTORS
330
13AC
102
}
330
13AC
100
DictionaryVariables
280
     0
  1
Imperial24
  0
DICTIONARYVAR
  5
13B0
102
{ACAD_REACTORS
330
13AC
102
}
330
13AC
100
DictionaryVariables
280
     0
  1
Imperial24
  0
DICTIONARYVAR
  5
13B4
102
{ACAD_REACTORS
330
13AC
102
}
330
13AC
100
DictionaryVariables
280
     0
  1
0
  0
DICTIONARYVAR
  5
13B5
102
{ACAD_REACTORS
330
13AC
102
}
330
13AC
100
DictionaryVariables
280
     0
  1
0
  0
DICTIONARYVAR
  5
13B3
102
{ACAD_REACTORS
330
13AC
102
}
330
13AC
100
DictionaryVariables
280
     0
  1
2
  0
DICTIONARYVAR
  5
13B1
102
{ACAD_REACTORS
330
13AC
102
}
330
13AC
100
DictionaryVariables
280
     0
  1
1
  0
DICTIONARYVAR
  5
14FB
102
{ACAD_REACTORS
330
13AC
102
}
330
13AC
100
DictionaryVariables
280
     0
  1
2
  0
DICTIONARY
  5
13F6
102
{ACAD_REACTORS
330
13ED
102
}
330
13ED
100
AcDbDictionary
281
     1
  0
DICTIONARY
  5
1A
330
19
100
AcDbDictionary
280
     1
281
     1
  3
ACAD_XREC_ROUNDTRIP
360
1523
  3
BUMPTILE
360
1C
  3
DIFFUSETILE
360
1B
  3
OPACITYTILE
360
1F
  3
REFLECTIONTILE
360
1E
  3
REFRACTIONTILE
360
20
  3
SPECULARTILE
360
1D
  0
DICTIONARY
  5
12
330
11
100
AcDbDictionary
280
     1
281
     1
  3
ACAD_XREC_ROUNDTRIP
360
1522
  3
BUMPTILE
360
14
  3
DIFFUSETILE
360
13
  3
FBXASSET
360
112
  3
OPACITYTILE
360
17
  3
REFLECTIONTILE
360
16
  3
REFRACTIONTILE
360
18
  3
SPECULARTILE
360
15
  0
DICTIONARY
  5
22
330
21
100
AcDbDictionary
280
     1
281
     1
  3
ACAD_XREC_ROUNDTRIP
360
1524
  3
BUMPTILE
360
24
  3
DIFFUSETILE
360
23
  3
OPACITYTILE
360
27
  3
REFLECTIONTILE
360
26
  3
REFRACTIONTILE
360
28
  3
SPECULARTILE
360
25
  0
DICTIONARY
  5
1556
330
67
100
AcDbDictionary
280
     1
281
     1
  3
ACAD_XREC_ROUNDTRIP
360
1557
  0
DICTIONARY
  5
1333
330
65
100
AcDbDictionary
280
     1
281
     1
  3
ACAD_ROUNDTRIP_2008_TABLESTYLE_CELLSTYLEMAP
360
14FC
  3
ACAD_XREC_ROUNDTRIP
360
1555
  0
DICTIONARY
  5
152F
330
2F
100
AcDbDictionary
280
     1
281
     1
  3
ACAD_XREC_ROUNDTRIP
360
1530
  0
DICTIONARY
  5
152D
330
2E
100
AcDbDictionary
280
     1
281
     1
  3
ACAD_XREC_ROUNDTRIP
360
152E
  0
DICTIONARY
  5
153B
330
35
100
AcDbDictionary
280
     1
281
     1
  3
ACAD_XREC_ROUNDTRIP
360
153C
  0
DICTIONARY
  5
1543
330
39
100
AcDbDictionary
280
     1
281
     1
  3
ACAD_XREC_ROUNDTRIP
360
1544
  0
DICTIONARY
  5
1535
330
32
100
AcDbDictionary
280
     1
281
     1
  3
ACAD_XREC_ROUNDTRIP
360
1536
  0
DICTIONARY
  5
1539
330
34
100
AcDbDictionary
280
     1
281
     1
  3
ACAD_XREC_ROUNDTRIP
360
153A
  0
DICTIONARY
  5
1553
330
41
100
AcDbDictionary
280
     1
281
     1
  3
ACAD_XREC_ROUNDTRIP
360
1554
  0
DICTIONARY
  5
1541
330
38
100
AcDbDictionary
280
     1
281
     1
  3
ACAD_XREC_ROUNDTRIP
360
1542
  0
DICTIONARY
  5
1525
330
2A
100
AcDbDictionary
280
     1
281
     1
  3
ACAD_XREC_ROUNDTRIP
360
1526
  0
DICTIONARY
  5
1527
330
2B
100
AcDbDictionary
280
     1
281
     1
  3
ACAD_XREC_ROUNDTRIP
360
1528
  0
DICTIONARY
  5
1529
330
2C
100
AcDbDictionary
280
     1
281
     1
  3
ACAD_XREC_ROUNDTRIP
360
152A
  0
DICTIONARY
  5
152B
330
2D
100
AcDbDictionary
280
     1
281
     1
  3
ACAD_XREC_ROUNDTRIP
360
152C
  0
DICTIONARY
  5
1533
330
31
100
AcDbDictionary
280
     1
281
     1
  3
ACAD_XREC_ROUNDTRIP
360
1534
  0
DICTIONARY
  5
154F
330
3F
100
AcDbDictionary
280
     1
281
     1
  3
ACAD_XREC_ROUNDTRIP
360
1550
  0
DICTIONARY
  5
153F
330
37
100
AcDbDictionary
280
     1
281
     1
  3
ACAD_XREC_ROUNDTRIP
360
1540
  0
DICTIONARY
  5
1551
330
40
100
AcDbDictionary
280
     1
281
     1
  3
ACAD_XREC_ROUNDTRIP
360
1552
  0
DICTIONARY
  5
1537
330
33
100
AcDbDictionary
280
     1
281
     1
  3
ACAD_XREC_ROUNDTRIP
360
1538
  0
DICTIONARY
  5
154D
330
3E
100
AcDbDictionary
280
     1
281
     1
  3
ACAD_XREC_ROUNDTRIP
360
154E
  0
DICTIONARY
  5
154B
330
3D
100
AcDbDictionary
280
     1
281
     1
  3
ACAD_XREC_ROUNDTRIP
360
154C
  0
DICTIONARY
  5
1545
330
3A
100
AcDbDictionary
280
     1
281
     1
  3
ACAD_XREC_ROUNDTRIP
360
1546
  0
DICTIONARY
  5
1547
330
3B
100
AcDbDictionary
280
     1
281
     1
  3
ACAD_XREC_ROUNDTRIP
360
1548
  0
DICTIONARY
  5
153D
330
36
100
AcDbDictionary
280
     1
281
     1
  3
ACAD_XREC_ROUNDTRIP
360
153E
  0
DICTIONARY
  5
1531
330
30
100
AcDbDictionary
280
     1
281
     1
  3
ACAD_XREC_ROUNDTRIP
360
1532
  0
DICTIONARY
  5
1549
330
3C
100
AcDbDictionary
280
     1
281
     1
  3
ACAD_XREC_ROUNDTRIP
360
154A
  0
XRECORD
  5
1523
102
{ACAD_REACTORS
330
1A
102
}
330
1A
100
AcDbXrecord
280
     1
102
MATERIAL
148
0.0
149
0.0
149
0.0
 93
        0
 94
      127
282
     0
 72
     0
 77
     0
171
     0
175
     0
179
     0
273
     0
  0
XRECORD
  5
1C
102
{ACAD_REACTORS
330
1A
102
}
330
1A
100
AcDbXrecord
280
     1
270
     1
271
     1
  0
XRECORD
  5
1B
102
{ACAD_REACTORS
330
1A
102
}
330
1A
100
AcDbXrecord
280
     1
270
     1
271
     1
  0
XRECORD
  5
1F
102
{ACAD_REACTORS
330
1A
102
}
330
1A
100
AcDbXrecord
280
     1
270
     1
271
     1
  0
XRECORD
  5
1E
102
{ACAD_REACTORS
330
1A
102
}
330
1A
100
AcDbXrecord
280
     1
270
     1
271
     1
  0
XRECORD
  5
20
102
{ACAD_REACTORS
330
1A
102
}
330
1A
100
AcDbXrecord
280
     1
270
     1
271
     1
  0
XRECORD
  5
1D
102
{ACAD_REACTORS
330
1A
102
}
330
1A
100
AcDbXrecord
280
     1
270
     1
271
     1
  0
XRECORD
  5
1522
102
{ACAD_REACTORS
330
12
102
}
330
12
100
AcDbXrecord
280
     1
102
MATERIAL
148
0.0
149
0.0
149
0.0
 93
        0
 94
      127
282
     0
 72
     0
 77
     0
171
     0
175
     0
179
     0
273
     0
  0
XRECORD
  5
14
102
{ACAD_REACTORS
330
12
102
}
330
12
100
AcDbXrecord
280
     1
270
     1
271
     1
  0
XRECORD
  5
13
102
{ACAD_REACTORS
330
12
102
}
330
12
100
AcDbXrecord
280
     1
270
     1
271
     1
  0
XRECORD
  5
112
102
{ACAD_REACTORS
330
12
102
}
330
12
100
AcDbXrecord
280
     1
 70
     1
 90
1959938040
 71
     1
  1
54A73ABF-177E-4751-BF2C-983B8CBDA169
311
504B03040A00000800006264CC443DEE336E79000000790000001B0000006175746F6465736B2D64657369676E2D7061636B6167652E786D6C3C3F786D6C2076657273696F6E3D22312E302220656E636F64696E673D227574662D3822203F3E3C666F726D6174733E3C666F726D61743E687474703A2F2F736368656D612E
311
6175746F6465736B2E636F6D2F64657369676E2D7061636B6167652F323030393C2F666F726D61743E3C2F666F726D6174733E504B03041400060808006264CC44FAA28935A700000035010000130000005B436F6E74656E745F54797065735D2E786D6CA58FC10E823010447FA5D93B143D1863281ED43FE0076ADD4223DD
311
36ED62F0EF2DE16ABC78DC9DC99B99F6BCF849BC30651748C1AE6E402099F070342898D9564710E7AEEDDF11B3285ECA0A46E67892329B11BDCE75884845B12179CDE54C838CDA3CF58072DF34076902311257BC32A06BAF68F53CB1B82DE5BDE5DE1D81B86CBEBED814E818276734975A321846AE3227D41EE4578023FB1F
311
A00CF80158D5122CD76EB9FB00504B03041400060808006264CC442415548EF80000009701000008000000636F72652E786D6C8D905D6EC3201084AF82F6B5C2019CD8AE85895A851BF40208130725068B9FA8C72F4E1CA97DEBD3AE86F9D8D1F0E3F77C437713A2F56E005A1140C6693F5A370D90D31977808E8207EFD32F
311
1B20A76633C02A83E053F079D924ED5D322E15D5F9D16CA28AD12440FA569601A2BE9859552AA7E288D76A51FAAA2653D1D756E09CED889E47EC58FEB3676B0288B6FBFC6809A1B896EF2DDE3379C25DDB482CEBAE63A7A6918D247CB7C282273BBFEEEB605432230846E81E930653F645595F1F7A727823B427055AED7FA0
311
BC8CFF84B275A9665BDC271641D012E4F120784CA114BA194A090945752F797682EFD69ACA787458E65AA9F801504B03041400060808006264CC44955737A27E0000009D00000007000000636E782E786D6C4DCCDD0AC22018C6F15B91F7DC36233F0275F4B6761FA3B931721AA6D1E5B7C50E3A7AE0C7C35F379FC593B74B
311
AF390603EC500371E11E87394C064A1EA902D2589D62CC7F3720A15F9C818DC1EA29C5F2DC6970635F7C5ED5CFE1B123BF612BC4B5A5678E8C9EB894148590B4531C5587C7FA820C2AABAB5F69DD2D6CBF504B03041400060808006264CC4467B74C6B2D0100001E0200002D00000035454244363643442D393542312D3435
311
37372D423636372D4638354238464232304142312F636F72652E786D6C8D515B6EC32010BC0AE22B55850D4EECA41126AA9BE604BD80039B1425068B4795E3176A276AFFFA036876677696E1BBDB70455FE0BCB6A6C5ACA01881915669736E710C27B2C16827B8B336FC6AC3C8F403B438C358F0B3B3719C21694D0013126A
311
AC8219ECBD878091BCA6478BBDFC84A12FFA185287BF14632F2FFD190A56A472EA13DC07970CA069483EB1A8DFBB7DD3BCEDC94BDD31B2AAD76BD235CD9A1C3675B73974157DED182F27A2E0316A35D3B54A76F44983FBAF48260B1EF470B72F1DF401141615652B421BC2AA0F566D97F596D6CF946D29E5656EFF438AA3FA
311
27296A1396D56C77A2792CD23653417065E3F17A3703B7D1BA80F2BC8507F984CBB46E526856B3820FD6A5EF5C5C8E8FDA431D86232864C790E24EDFC1CBFB8832A72578F91365BA73B2E21B504B03041400060808006264CC446A77868595000000F50000002C00000035454244363643442D393542312D343537372D4236
311
36372D4638354238464232304142312F636E782E786D6C5D8E4B0EC2300C44AF12795F023B164E2A246EC00942E396887C503E88E313438550375EBC9979328EAFE0C5937271292A38ECF620284EC9BAB82868751E8E20468D39A5FA5703114D20058C41E392537BACC8D26C9AAF9D7A17EF2B3C9542F56CAAE99897C2A7C9
311
F82EA038B402FA97A3E458A3E4B146BEABE232DD2898DE456E6C0514AE642D5951BEB58D477E3EEC5A7E58BF01504B03041400060808006264CC44FCA4EB60FC000000A00100003700000035454244363643442D393542312D343537372D423636372D4638354238464232304142312F4173736574446174612F636F72652E
311
786D6C8D505B6E842014DD8AB9BF0D0A38A3D62093696407DD0051C69219C1F068BAFCC26893F6AF3F5C721EF79E1C76F95A1FC5A7725E5B3300293114CA4C76D6661920861BEAA0B870E6AC0DBF645018B9AA01320C9C2DCEC6ED80266B823221A1C6CEEA00A5F72A40313DD267003F7DA855963286A4F0F77293D35D2EAA
311
2465A2938E331F5C0A50EC47F20BFC9A578C324856ED2C6731EAF9D0E839DDD437AD1CF0B67BBBB61863548BD7169DA81851D7360289BAEBE8D834A2119855D9CC59D0EB4FC6C92919D40C9C627242B84184BE13DAD7E71E9F5F30E9713265F91F53DCE67F9AA236A1A647DCDDE6813729C893E0ACCA7DA5F12C33CDDC2DFF
311
06504B03041400060808006264CC448457056277010000860500003600000035454244363643442D393542312D343537372D423636372D4638354238464232304142312F4173736574446174612F636E782E786D6CD5544D4F032110FD2B84ABD9AF6A8D69581AA3979E6A62E39DB2B39594850DCC1AFDF7C22ECD36313D79
311
D05E800CEFBD195E8661EBCF4E930F705E5953D32A2F2901236DA3CCA1A603B6D903256BCE9CB57806A3C4880E6A1AC394B383B3439F420DB462D018A25A99630A3E43AB8CC2906383E0045AF7E26C0F0E15784AA416DED7D4CB77E8442E06B40DF863DE081479953BF076701282624C4AB4954287DC60B2C1533E4B939336
311
99C55911399C0D4E9178AA695CCF5927D2CCC9F7CAB0223038F3E8821189895F7D2842F4BD5652C4B7145622601640203A56843D803943D541A2480702A1A17C51567759799F558B5DB558DD2E57E5F2A6AC5665C98A08E76C6FAD4E24658247B627D2868341CA03285E7356444B398B6BC26E8C476124CCD5FF899D3FCBB8
311
26131FBD07DC89BD866DFB3499FEDBAE1C25C9A849B62D39A95E6AC7113EA2E70AAEC9C1570C8DDEBD4D63647CC72FDB70122449D14F4E5E726F0227EC983D57A6FDD75FB8184766F8D12E0C56FE0D504B03041400060808006264CC448DC42F6684000000200100004F00000035454244363643442D393542312D34353737
311
2D423636372D4638354238464232304142312F4173736574446174612F446566696E6974696F6E4974657261746F7250726F706572746965732E62696EEB60D062FA0F050C40C008C40D0C8C0CBC40DA3D352FB5283339383923353791811D28E254E99358995A046242259980A220AE4B6A5A62694E09489B6F6671726A4E
311
4E625E6A7E69B120501EAA542137B104685E628E1E481327500226500C32211D621B23505C828101E424492093C137B1A438C61D2217930EA1F50AF2D2417274C000504B03041400060808006264CC44C2604245F1000000300200004500000035454244363643442D393542312D343537372D423636372D46383542384642
311
32304142312F4173736574446174612F496E7374616E636550726F706572746965732E62696EEB60F8C6FC1F0A18808011881B1818197881B47B6A5E6A5166727072466A6EA20A50C0D4C4D1DCD8D1C94DD7D0DCDC55D7C4DCD450D7C9CDC859D7D2C2D8C9C2D9C9C5D1D0CC921DA80EAA11A4C5D8D0C4C5D5C8D452D7D4C4
311
C458D7C4CC08A4C5C9056882B181B399B3B3A5A3AB25C84E06CD98FE435F35AED8436926A0310D0C0C0C30BE3D900D441FEC816E03D20C0C020E0C020C70A0E2C0801F00354214C019102E2609570066300315343080C103A81B78C03C7402148608990F50B5E8AA181852763A30E005D8B5828C07852748EB077B1620C508
311
C47C401C5C9E58929CA1EB54949897929A02722F5090660800504B03041400060808006264CC440627590E51000000570000004700000035454244363643442D393542312D343537372D423636372D4638354238464232304142312F4173736574446174612F41737365745461626C654F66436F6E74656E74732E62696E53
311
6160603035713437767472D335343777D535313735D475723372D6B5B43076B2707672713434B31402AACB4D2C492DCA4CCC492C28484D2C4ACC4B4E050A82112F90744FCD03CA26072767A4E6260200504B03041400060808006264CC44F865834058000000680000004500000035454244363643442D393542312D343537
311
372D423636372D4638354238464232304142312F4173736574446174612F53747265616D56657273696F6E5461626C652E696E66558CBD0A80300C06F73E4B117FB66E451741D041DC5BF98480A492E4FDD18EAEC7DD4555D89EF28DF51A0B1BD8340C4DE7DD848B988C0ACF0649566493F2408C508DDEBB99D5129FF8F1AF
311
8CF5B9503E20FAE5A16B5AF702504B03041400060808006264CC4482071FD4FB0000009E0100003500000035454244363643442D393542312D343537372D423636372D4638354238464232304142312F536368656D61732F636F72652E786D6C8D90DD6E842010855FC5CC6D8302EEAA35C8A6CDF204ED0B10652DD9150C3F
311
4D1FBFA03669EF7AC39073CE97391976F95A1EC5A7725E5B3300293114CA8C76D2661E20861BEAA0B870E6AC0DBF625018B9A801B20C9CCDCEC6F590466B823221A9C64EEA10A5F72A40313ED267003F7EA84596328694F0F77295E35DCEAA2465B2538E331F5C2A50EC4BF20BFC6D833CAB768FB318F57424F49436EA9B56
311
0E78DBBDBEB41813548BE7169DA8B8A2AE6D041275D7D16BD3884660566598B3A0979F86A35332A80938C5E4847083087D27B4AFCF3D3E3F61D2E304E5F81F28AED33FA1A84DA8E95177C73C70928A6C066755BE561ADB29D3CC97E5DF504B03041400060808006264CC4436CCFB4428010000D30300003400000035454244
311
363643442D393542312D343537372D423636372D4638354238464232304142312F536368656D61732F636E782E786D6CD593CF4EC42010C65F8570356D69758DD950F6E0C19317D717403ABB92A54CC31FA36FEFD0E5B0265E357A21CCF01BBECC072377EFB3636F10A2453FF2BE159C813738597F1C794E87E68EB39D9201
311
315D609C793DC3C84B9A2B790C98979A9AE0A0B34B9475D69F6AF21EE719FDDEBCC2AC39334EC738F2B886ADCE092788A776D249B77D1B20620E06E88622C21C1AED480B7C932357FBB58A1DAC03D91540C91C6CD5293157976A2DF5273B22948C295057954C1F0B29E86571D6E844CD772B7866944C76864A9A003AC1C4D5
311
20FA9B46DC36FDF0DC0FDBEBCD566CAE44BF1542760557F205D1D522EB13045C9841DAF8C41541E558C9AED8A264592BFB001E8235E7C67EDE9D2F72FFC09E27F01384477A8360B5FB2D97BE53FDAB6675EBFCD1D70A34A5EA13504B03041400060808006264CC442F7B2A8D8D0100005E0600003D00000035454244363643
311
442D393542312D343537372D423636372D4638354238464232304142312F536368656D61732F436F6D6D6F6E536368656D612E786D6CC5944D6EC2301085F79C22F20550BB4E90A0486D24D44551BA1FE201AC3A76E43841B97D9D716A151228B448CD2A9267BE37CF3F2F9E5715DA75BEC702669388BE384B97510332614F
311
BA28B4F2AB6C3689A76E2554ADAD116A17099EB00554D8574565BD91224FD81664852CE2B8154A58A1556AD180D566091612664DED569B4E85C89E16E0A9B2B84343744F7E4753390A3B1530085C2BD91E211F89D94302D46B10936CAFC4265D326F95451236E83C7F5BE91CFB9E3104743B67DBD2D938F13C3A124D749E26
311
750EF22A1A551EB9BD06ADA0F879D09BD159FA3AC6BD7CE837AB7C607BD0860F8E1EA4D487A296569412DD55AAB1FADA973B4F9083BB8EDAB4FF3802C72A37A2EC5ED2608A7BB8CDDE56F432ECBE2E360A841CA8FC7ABBDDD1248C2EA913094F69A1B5445024FA2238473550BCEC8BB05B8A99EEA5F6BCC0CF6AC109DE27C7
311
B30BAFDF28F8C11D2C90FB5C21787326969A2ED91EA8B72F1F6D37D888D158BBD0EF3691A49D9F10AE0363E733C8B58751DC3FA1E6BC019523FF2B329ECEBB54F4893D9B7C02504B03041400060808006264CC447229482E27050000001600003E00000035454244363643442D393542312D343537372D423636372D463835
311
4238464232304142312F536368656D61732F47656E65726963536368656D612E786D6CDD586D4FE33810FECEAFB0F27D4BCB1DAB5BA9456A41F4FA0171A2705F2D37718AEF9CA4B29D42EFD7DF783C3549CBB601F676B587549197F1CC3CF3F278E2E1D85AE9E6E9A32CC4C509C3BFE1C3EC8AAD851E2553594AA3D2F03AB9
311
38199EC2AB2836115606B93B5966D2DC0807D24237C4BD4894779B15C9172429562B298C285389CABD40949E954E2EA5612A1B2541E39FD2585595095BD50BADD251920B6D65C28C145955EACD2871A686FBB5777D801A4949543A7746954BD4A9AB54686FF1A83E946C291FB7FD0E5ABF6AA414057875C4E97D23147CC4B1
311
636152555A8A1271A495AE0C5F6C78B5F84BA62E0919C94368B45848C8E3A59761930DBB0D323E93A4237A1D647CB49721EB3C53795EFB000BADABA7B42A4BD02F33E12BC68E120B91D4006C2DF4DD28E9F77E199CA3F169F366D2BC198F9241C29A3E2138B41CFDB8D69570886CC70FAE0AB1943C1799443B4D6533FF8A5D
311
FB57172754C68C0D27555D6696ADA44965E960F5368BAA4C8D2CE09955FF485454A852157501EE268CAE15204C756DD51A44426915E23948010EBADE970AD1F59623A85344156FF1AE85D1C85C4374D55AB90D178EF733B94CD8D1C0A3BB14D0BB860A8C2B5A7983CD2FDFC3E8525716E22AADED06AF771E2B66FAB2D487B8
311
0D8FCAB915546579219DD0542E79AB277E57CB470D3F673158B4FE40B81C10955D0923CB74D3CDF7E8F97D73E9CF59A0AE01E1FFDE8946A40E361AAE60577BA6E219F4CECF623EA1D548066AE720DD50CD1DE29B5EDF9349A09F7D32614433A3041A81AEF7A57C3F04B28B05DC85720804C7E4EA1A4832DDF027E9BBE23D15
311
4E1A8EC52450E9A190FC100A4E6B57D58E572B91020977C20F8923F2BDC4C5814A8E13D342A47FE722953CADF5EBEC34210976E925427A71CF8FF9452B2DBAB352E75C695D171C7EAAC4B92A8C03FD58BA731062332F0402BECA215BC3A3B5626115A94EFD2CC19D2C605715AE36921AE4F379FFC5CAA51762F70D210F015D
311
8E00824C73E06858C9958661921762D5211177B883AF8586D10352021793ED93D6C8718D4A191A46D878151D42F75A115DD4C58A8B02A60898ABBA6CC6BDB32F3B7F31F0E3A0E608FBE7618F3AD01C9F06FD7EBF5B8304C130B2BC8733303CFB01E99C1470738D490917909470D14ACA0462FC4A32683F6E591715AF60FC07
311
9D71F6A7F61B170B05D31CBB4D716003295F6FA4232698BE0676755A51ACB4847904150F3EC794CDE9C58773063B478799F2EC1C4CBF89E2095004B85FC110B24C59D7A0825F23BC1BF1CCAEB62F7DBC70795446D1DB8D56061395D2DB68052EA72C3CC0F760A8996B5315ECD63DC2F7DB0D7DEB056E24A5D1089A6C9930D0
311
6D595A19F8F2B4DC884CD560AB4BEF455C775E037439AAC0D2422BD126F9F075AB680D3F7F244C7B0E5808B848416712D5E57009B447A8275A96197B52EEB11362CA59DB3A8CEE3C932BF74816A04F483B8C1AF8615095CCE7EBDEC0B6C1AE50F4C3650956BA94A5177B0B8910C2186FBADF456C5A883F017113E4DBB53446
311
6592017680EB37A96F85D85BF9819029937CE9BF6436DC12BF843D7A002C411100E024CAA628CAE624FA9D723E38FB0DB698FF22E9345A2F11D6C1086C533F45D19F3B0245150F2D1AFCEB1F7ADEA506890D532BEC15386B93397C17F806387A48B5F6875EC0B5F6741A8E6FB6FF1F66BDE742230DD66AD7C4385BFBAD21FB
311
36A65EB4BD6652F95DD69FB9080F0811CE5A8F6E600787B324015FD7470ECBF6C186B5780C146DAB96F608BDFDF8153F6EA7F377841B567DD8F21F46AE957C7A87755A89BBEF413786A7637F7E174E542F4EFE05504B03041400060808006264CC440A3355BE74010000170400004500000035454244363643442D39354231
311
2D343537372D423636372D4638354238464232304142312F536368656D61732F52656E6465724D6174657269616C536368656D612E786D6CAD93DF6AC23014C6EF7D8A90075895B1BB54D00EA430D968A7B725B6C73690269244C5B75FFED955866C0C7B9593F3E577724EBE9285D660CABA839ECE27C87F6493BFA213E529
311
2E4034A0D6D480629407159E4F486215837A4935047926FB5E8A91CCA5065D2E0CB4A0106B521C345B509A4981D1E1B8E3AC4EF19E720D1829A08D14FC9262A38E363EB9BBCC7CE10819A09BE2CD03F3FEC0A10761A8B1C4B55BF0825EFE86F6644BFA85FABE2A1FCAFB507062707E287305C2BE55FD4F66691413AD1FA83E
311
5353773F38FE29FCBC82761859D64956833F5A7B1B54654715349537180E068919ED331871BA03EBB2D286B6ACA546032244026E4BF9F186A9AD149A489BDE10ECB673E6E8E0F56EF771CCDAFBE03C2E4C64CE06663ECADD01932454BB16224B293950319EC22713A632B26DF9D5C8FB60F2D8BCCBDBCE4912CF0EAC4C7219
311
7E963835A7AC6AB7EBEF5AA478FAF43C7BF1C16A1C2CC7C122C5DF3D3904CA3CC2B7E456A12049FC3B85FF723EF902504B010214000A00000800006264CC443DEE336E79000000790000001B00000000000000000000000000000000006175746F6465736B2D64657369676E2D7061636B6167652E786D6C504B0102140014
311
00060808006264CC44FAA28935A7000000350100001300000000000000000000000000B20000005B436F6E74656E745F54797065735D2E786D6C504B010214001400060808006264CC442415548EF80000009701000008000000000000000000000000008A010000636F72652E786D6C504B010214001400060808006264CC
311
44955737A27E0000009D0000000700000000000000000000000000A8020000636E782E786D6C504B010214001400060808006264CC4467B74C6B2D0100001E0200002D000000000000000000000000004B03000035454244363643442D393542312D343537372D423636372D4638354238464232304142312F636F72652E78
311
6D6C504B010214001400060808006264CC446A77868595000000F50000002C00000000000000000000000000C304000035454244363643442D393542312D343537372D423636372D4638354238464232304142312F636E782E786D6C504B010214001400060808006264CC44FCA4EB60FC000000A001000037000000000000
311
00000000000000A205000035454244363643442D393542312D343537372D423636372D4638354238464232304142312F4173736574446174612F636F72652E786D6C504B010214001400060808006264CC448457056277010000860500003600000000000000000000000000F306000035454244363643442D393542312D34
311
3537372D423636372D4638354238464232304142312F4173736574446174612F636E782E786D6C504B010214001400060808006264CC448DC42F6684000000200100004F00000000000000000000000000BE08000035454244363643442D393542312D343537372D423636372D4638354238464232304142312F4173736574
311
446174612F446566696E6974696F6E4974657261746F7250726F706572746965732E62696E504B010214001400060808006264CC44C2604245F1000000300200004500000000000000000000000000AF09000035454244363643442D393542312D343537372D423636372D4638354238464232304142312F41737365744461
311
74612F496E7374616E636550726F706572746965732E62696E504B010214001400060808006264CC440627590E51000000570000004700000000000000000000000000030B000035454244363643442D393542312D343537372D423636372D4638354238464232304142312F4173736574446174612F41737365745461626C
311
654F66436F6E74656E74732E62696E504B010214001400060808006264CC44F865834058000000680000004500000000000000000000000000B90B000035454244363643442D393542312D343537372D423636372D4638354238464232304142312F4173736574446174612F53747265616D56657273696F6E5461626C652E
311
696E66504B010214001400060808006264CC4482071FD4FB0000009E0100003500000000000000000000000000740C000035454244363643442D393542312D343537372D423636372D4638354238464232304142312F536368656D61732F636F72652E786D6C504B010214001400060808006264CC4436CCFB4428010000D3
311
0300003400000000000000000000000000C20D000035454244363643442D393542312D343537372D423636372D4638354238464232304142312F536368656D61732F636E782E786D6C504B010214001400060808006264CC442F7B2A8D8D0100005E0600003D000000000000000000000000003C0F00003545424436364344
311
2D393542312D343537372D423636372D4638354238464232304142312F536368656D61732F436F6D6D6F6E536368656D612E786D6C504B010214001400060808006264CC447229482E27050000001600003E000000000000000000000000002411000035454244363643442D393542312D343537372D423636372D46383542
311
38464232304142312F536368656D61732F47656E65726963536368656D612E786D6C504B010214001400060808006264CC440A3355BE74010000170400004500000000000000000000000000A716000035454244363643442D393542312D343537372D423636372D4638354238464232304142312F536368656D61732F5265
311
6E6465724D6174657269616C536368656D612E786D6C504B050600000000110011005A0600007E1800000000
310
504B03040A00000800006264CC443DEE336E79000000790000001B0000006175746F6465736B2D64657369676E2D7061636B6167652E786D6C3C3F786D6C2076657273696F6E3D22312E302220656E636F64696E673D227574662D3822203F3E3C666F726D6174733E3C666F726D61743E687474703A2F2F736368656D612E
310
6175746F6465736B2E636F6D2F64657369676E2D7061636B6167652F323030393C2F666F726D61743E3C2F666F726D6174733E504B03041400060808006264CC44D486FD9CA0000000F4000000130000005B436F6E74656E745F54797065735D2E786D6C7D8EC10E82300C865F65E91D8A1E8C310C0EEA1BF002731658846E
310
D98AC1B77784ABF1D8FE5FBFBF75BBCE937A534CCEB38643598122B6FEE978D0B0485F9C41B54DDD7D022595594E1A469170414C76A4D9A4D207E29CF43ECE46F218070CC6BECC4078ACAA135ACF422C856C0E68EA1BF5669944DDD7BCDE7B1F8E415D77AECB980613C2E4AC91FC167A2B244592486606FC29C8FD7F045B9A
310
EF7053A7E60B504B03041400060808006264CC441EEF95CDE90000007C01000008000000636F72652E786D6C8D90516EC3201044AF82F6B7C2661D3B8D2D4C54D747E8051010172506CB40D5E317278ED4FEF56B57C33C7634FCFC3DDFC8975983F5AE072C1810E394D7D64D3DA478A1272067C157EFE32F1B102767D3C326
310
83E0D3EAD3B24BCABB685CCCAAF3DAECA20CC14420EA96971E82FA34B32C648AD911AEC522D5554EA6C0E796E194AC268F2356E7FFECC59A15048EE3A91E07469BE60D69DDBEB774188E48D9916183D56968D92B2F3758F068E7E77DB51A198D065131ACB39962F5815577683AD6BC30EC18E3E566FF03A545FF134AD6C543
310
B5C77D602167CD41EE0F82975B1779DC8BCA73EB4DFC00504B03041400060808006264CC4455019EA25F0000007C00000007000000636E782E786D6C4DCB3B0E80201045D1AD90E915ED2CF8AC45050C11660C8261F98AB1B07AC9C97D42D718D865D3E909258CFD00CCE24AC6E326A164D74DC0B4128928FF326038472BA1
310
3128B1252AC747C6BAB984FC68F0B87FE8960A5C09FE86CFB69FBA01504B03041400060808006264CC44D514CCBC65010000020300000C0000006662782F636F72652E786D6C8D52ED8E8320107C15C2DF8B02567B6D8334E7F511EE05A8528F54C120983EFEAD1F8DD74BD35C4C90CCECECCE8EF2E3AD6DD0A05CAFADC931
310
8B2946CA94B6D2A6CE71F0976887D1517067ADFF55869191ADCAF10863C16B6743B740A5355E190FA8B1955A40D9F7CA63543670C9715F7EAB56C63278A8E8AF7127CBABAC55CC62A0A14EF0DE3B3080E621E389C5E57CE364C6050F41570BAB2B98A62F5A392CD8E9B44B4F058DB2EC8345E9FE731F15C59645744B59C692
310
5DB1A7EF9C8C62C1BD6EEFEE4AA7A457151609652914472CF962C961931D68F646D981524EC6F20751E8AA7F8A82367E932C7667590F5EC1C844FCD91622F2A89703F82182933144784D093F060D8140C85E9E9BFB1E578006557AEB52602A1B566A904D503095A2E9E16466A1F3D400367BDA2779D1E7750FF880D2D4604D
310
7AB89E831FA7F379EA1245A75C34F81B32D6B5B259CDCD16D7731DF4545EDAC6BAFFA8C9B22A59C224E3DF2B7E00504B03041400060808006264CC443C3B83ED7D0000009D0000000B0000006662782F636E782E786D6C4DCCD10A83201886E15B91FFDCA5D5C0811A2AEE3E6259C84CC3E9D8E5AF46073BFAE0E1E3E5C367
310
0DE8EDF2CBA728805E0820171F69F2711150CB8C19A041F29C52F9BB018AE3EA041C0C922F39D5EDA4C9CD630D65D7E0E3F34462D4B56786E04E338B7BAD14D6E64631A3A4BD77D6D0D65868246F7EA57D8FB0FC02504B03041400060808006264CC44F5342B812C01000015020000310000006662782F3043413534384330
310
2D334238452D344241412D424339312D3831303246334543313243452F636F72652E786D6C8D515B6EC32010BC0AE22B55850DC6B19C081325567A825E8018E2A2C460F1A872FC42ED48ED5F7E58343B333BB0ECF098EEE05B39AFADE920293004CA0C566A337630862B6A213870E6AC0D7F68101831A90E661872363A1BE7
310
151AAC09CA84841A2BD50A0AEF558060B8A74B07FDF0A52651881812C3DF8A590C3731AA8214A99D789CF9E05200B00CC927E4B83F6EEBB6C7889EDA33AA4FC7233AF53B825A82AB0F7AEE49D59F59B908398B51CB55AE658AA3AF5AB9574DB298B3A0A767FCC129119484BCC2A446B841A4FA24D59E6EF778FB8EC91E6356
310
66FA3F519CE58BA2A84DA0D51A779179C8092B970667D2C6CBFD19463D66EB02C8F3365E0D6FE95505C60D6976B4A1AC5CB8E907926953AFA63E58977E7873BB243A5D9D9B9AB3322F2995DF0DA69A17CA7F00504B03041400060808006264CC44662BE6505601000033030000300000006662782F30434135343843302D33
310
4238452D344241412D424339312D3831303246334543313243452F636E782E786D6CBD93CD6EC32010845F0571ADFC83E358518489D4439FA0875E316C521A1B2CC055F3F65D1292E69243A5AA1764CD0E33AB4F98EFBEA6917C820FC6D99EB2B2A604AC72DAD8434F97B82F3694EC04F7CEC53B1B25564ED0D32453C10FDE
310
2D739634ECE532465447638F59F410DCE2150494D34D323A25470C005B2C28C23480D6A0C9CD885F7BF0B80A8AC389C477202FCF6FC40D1FA062E0554A11BC4A1D82A73337DD992851A30CA1A741BDC3244BB944A7211C4B2DA32C5979ED7AB0D34F124917AE958B372495F7349D54E48D4AE4C82B1C0A1EA2477AD9144F33
310
5021E779344A46845C9D8D178FE08BB1B16BB3D720788FEE55D36D3618769E091ECD04D9A13CC8089A8AA6666D5177056B5E59B35DADB7F5FAA966DBBAE655B20B3E3837E64B1803DECD44391BC1462A18AFD2F811BEEC23DA7864EDFCE9172011406EBDD0B965FC251FD6ADDAF61FF954E7F78DB83CFE05E21B504B030414
310
00060808006264CC44D61889CD4D0700004F1C0000340000006662782F30434135343843302D334238452D344241412D424339312D3831303246334543313243452F6F626A656374732E786D6CED595B6FA34618FD2B88BEB40FC6C676B24945A8126713596DDA55A35DF521121AC3984CC3C59A81ACDD5FDF3317306093C5
310
6DFAD6071B1B66CE77BFCC87F7D3364DAC57CA05CBB32BDB7526B645B3308F58165FD965B11E5DD8D64FBEC7F3BC682CB3AD8CA4F4CA96B76DDF8B795E6ECCAD88AE4999149DBB77377F5822A419B5AD3021425CD9227CA629714859E411152F4E440AE2C4EBADE33A7A611B36E664F3DC01DD104EB3029CE27E06144B33E5
310
B6FF4EECB1EF8DE573DF93DF66D574D0AA59FFAAB192BACD25CB4441B2F080A50ECC74104B33777EFB717A76393A9BCF67A3F9F9D41DDDDCDDDC8EDC0FB3C9E27CB1B8BCFE7809F656799E189922BAA15904FBED6CDFF5C6F2492DBAD1C031AEC33CCB68A814095529B1BA808C0A906AA86FD2FEEB4A891A8F95848DFF33F9
310
DCB0D0B8DD3142CFAA818A68E1421043AE92B8BA36E5CB577F427031C429B9A0D2A945C1615DA31E8EA8B0FD8937D6777D6FB5B70513564A0ACA1949AC84AD38E1300A96CA25BEA7371818191C1C50969440594E3F6EFB1622F3DBA1738CCB75992432326C5F055680F0A385509CB1BF28DF73DFD40C7882854B96151786CB
310
62B7A1B67FE98DD54DDF9397D9D43CD48AB4D60989E12810533FED08BA90A1BFBCB5FD9FEF56DB47990E8E13DFF07C4379219D4EDA51F105473657A92543D61D6439B901C268A59A9D7BA5FC0ECDFF8AECB1670576E36C3BDFCECDDA82934CAC739EC236D6C41A4DF035B15CF52D7F377E79E37A73DB7A7DFA44984A555DFC
310
7B7DB66550BA32FC37D4E97BAF70F89CCFCCA3C79024F0E707964141D249AC24C72DA4F6F56A6BFB4B244E247AEC2289EF4264B0FB8A9FDED8C0ECAD52859789BA0C1A3534A6438C04B5298F041B3D76BA47F5E02CDC9BA929629F7ACFDEC55DAF6F1F7F7E2CF99A84F4C1C4F42D5DB38C15A89AC7196AE9BC2511AA5DC8D9
310
466EB57D23549D2A9C3D5A6BD30BDD7DCD7904ED1C1AE9B169A4D4F0276022692869ADB8D29CFCD34320C4BE389739CAFB0605482E0B7C03FF8189902609C9685E5674EB9428BDBB4E13A6D1B0FD99B6CB6CDAF17B4E5F996C451069FB152D4D7CD1BDCAFD6799477A84F9BCFC155E6BA3DEE3F28647DF0F508CF84A8AF0F9
310
DB588F6ADDE806B922A291D14EAD85D5BE30847992F360B50B74CE3C8AFCA5157848A7DA721205B1A822B84A4EB1962188D87A5D0A64E823F6FBB25C347D64E2CCDC33ABF9DD09EB39F236B200E126823B3402969298066B12F5916B52ABB18582EC81E6749D402EF6CA8A5D408A6012D1F814D59C047EF9AEE871920BC132
310
2A50F98E2ABFA98D898394A4AD59B12CADDA513413414A0B929CA20109D3A35C55C054B71CA209F9368FB5F7BE65B126E87FE4119CA02BCDB380A1A9DD0ED085EB9C4D07F10E6FABB0951849896624DC055F298B9F8B0194EA90AC8CA8AF1D338638DC9445906F4808B71E007B102BD2A81DD015095F64250AC232792F0711
310
3459072C49CA34C0876538C30C09ED615A6880EBDC57D014ED1D294A3E84C8F9D9E4808EEE3EBA29B04168CD12F4DE414A363D5A6F2544D5D958B5F20D7A4F30ADCA741390342FB3418EE2CCBA1E69E0BB6695B003F9954D271AD00AD800FA1EBAF5BAD456391BAE9E04381816CF3D9A6865A70A5221F503CA4C8DB854996F
310
1708926E127D403CA8B7ED4AE6D6E1F936016E02FF7D09A4F9A08235EF28A1EA6C9BFD26B42AB37DC9993163F15CA6AB8CB0E311D92AE70FA4104FF7BA6C3FC5FAEA6CB2B8220B50744535321A9DBAD73C6AC27EF07B0DFE79E960CAD303BF94B64B695610D9913EC81FC9EFE47899E8A7A4F72D655F3098D66FF78F27CA83
310
1D83D13FC956927E3D9182D9B5903DDA01A9CA11EAAB3CE4A0C9845B192F98FD7FD469CE47FE3FEAE0588DFCAFCF40086A95F58CAF48FF3CE1A86362F95F9E786E76BF909D9CF998165459AB35B70AA5EB9F743CA9EBA66C56DEE378A2062B356A5DDD8EB65848C455B118DC2556995003F671FC8FBB89BEEAACC919EBC73A
310
3507A77513EE4127D43A1BAB23717650835B69FB6C7EFD61767D738731F2878FA3F9873339559E2E469717B39B8BC5CDEDB57B7E592BC8B8479DF05409F4D13120E5E162FECA3468C4C22859E4098B304D88AC98E638C560A63060E6CF532A5487026483159937090376BFEAE16C41560935BBC36782A976225000A0A3322C
310
DAF7ADEF304F9523CD2B1B932EE7055FC6D16C0B05F8CA7E9503C8900A6785D9989C422AF04E0C433F248B65EFA337D5FFEB5D5237AD12512F19522A8C5C3A7F1801D0236E30B26B4D48146FE6F9698257EC58A4C0CF5559A08FD3B2EC6FD4C22832B0BB16CA4CFA1296BD18D25B44E3DB62B98E5AD3D2C8A0F1FE9B4EA051
310
4705E1B11AD24BFE0C4BD7B79FC6180E5ACBDFAC4D52C6B0E570A411A770E652F645F0227885C1DC10D94C2F7E7CFAC473BC974AAD3B0617B0BEDF5E9CFFF0B4C8D334CFF4ADA76B1C0023BCDDB21E9FF1AE2A7A42EB47E51B01F1349DB8B3273589372F07821511D4219178C10D6F5C72562BBA657EF8E541D53096184B53
310
743C74796B99BC88B656031D0CA6F59B390B3124DF01C98851815D49FBE6307EAC9682558E31BAFF37504B03041400060800006264CC44000000000000000000000000350000006662782F30434135343843302D334238452D344241412D424339312D3831303246334543313243452F76657274696365732E62696E504B03
310
041400060808006264CC44F270F1330600000004000000360000006662782F30434135343843302D334238452D344241412D424339312D3831303246334543313243452F747269616E676C65732E62696E636660600000504B03041400060800006264CC44000000000000000000000000370000006662782F304341353438
310
43302D334238452D344241412D424339312D3831303246334543313243452F617474726962757465732E62696E504B03041400060808006264CC44B28BD8DE8F00000041010000360000006662782F30434135343843302D334238452D344241412D424339312D3831303246334543313243452F6469726563746F72792E78
310
6D6C858F410EC2201045AF4266AF15DDB800BA74E7C21B903225242D6328188F2FA5C4183471359997F9FF81E89FF3C41E1816475E02DF1F80A11FC8386F25A438EECEC07A250251FC3803E6F58C12560C4AD840E95E91C151A72936F496F35732D860FE635F62C8F2DA16B505C545B74125BAA2FA9E05D7CC053D063734D5
310
A7665FD55B6B8D15D5F1BFEAFD8490FFA45E504B03041400060808006264CC446FD935ADFE000000A00100003B0000006662782F30434135343843302D334238452D344241412D424339312D3831303246334543313243452F7265736F75726365732F636F72652E786D6C8D905D6EC3201084AF8278ADB0C1B1D3D8C24471
310
AD9EA0174078E3A0C460F153F5F885D895DAB7BEB068E61BED68F9F96B79A04F705E5BD36356508CC0283B6933F738862B39617416DC591B7E611819B9408FB38C059F9D8DEB2E296B029890546327D845E93D048CD4237D7AECD50D1659C81812E1EFC52AD55DCE50B022D98913DC07970AA06D497EB170E06D740A3C2F37
310
57F018F5B4337A4A3BF55583C3828DE3A91E2FEFA4692E8CD4ED5B4B86E1C8083D52D6B0EA34B4F49597392C78D0CB4F47E5400698B0A828AB134C58F5C1AAEED074B479A1ACA3949719FF138AEBF4CF50D4261CAABDEE16F3A96B2AF234042FF3BDD2781E33CD7C5BF10D504B010214000A00000800006264CC443DEE336E
310
79000000790000001B00000000000000000000000000000000006175746F6465736B2D64657369676E2D7061636B6167652E786D6C504B010214001400060808006264CC44D486FD9CA0000000F40000001300000000000000000000000000B20000005B436F6E74656E745F54797065735D2E786D6C504B01021400140006
310
0808006264CC441EEF95CDE90000007C010000080000000000000000000000000083010000636F72652E786D6C504B010214001400060808006264CC4455019EA25F0000007C000000070000000000000000000000000092020000636E782E786D6C504B010214001400060808006264CC44D514CCBC65010000020300000C
310
00000000000000000000000000160300006662782F636F72652E786D6C504B010214001400060808006264CC443C3B83ED7D0000009D0000000B00000000000000000000000000A50400006662782F636E782E786D6C504B010214001400060808006264CC44F5342B812C0100001502000031000000000000000000000000
310
004B0500006662782F30434135343843302D334238452D344241412D424339312D3831303246334543313243452F636F72652E786D6C504B010214001400060808006264CC44662BE65056010000330300003000000000000000000000000000C60600006662782F30434135343843302D334238452D344241412D42433931
310
2D3831303246334543313243452F636E782E786D6C504B010214001400060808006264CC44D61889CD4D0700004F1C000034000000000000000000000000006A0800006662782F30434135343843302D334238452D344241412D424339312D3831303246334543313243452F6F626A656374732E786D6C504B010214001400
310
060800006264CC440000000000000000000000003500000000000000000000000000091000006662782F30434135343843302D334238452D344241412D424339312D3831303246334543313243452F76657274696365732E62696E504B010214001400060808006264CC44F270F13306000000040000003600000000000000
310
0000000000005C1000006662782F30434135343843302D334238452D344241412D424339312D3831303246334543313243452F747269616E676C65732E62696E504B010214001400060800006264CC440000000000000000000000003700000000000000000000000000B61000006662782F30434135343843302D33423845
310
2D344241412D424339312D3831303246334543313243452F617474726962757465732E62696E504B010214001400060808006264CC44B28BD8DE8F0000004101000036000000000000000000000000000B1100006662782F30434135343843302D334238452D344241412D424339312D3831303246334543313243452F6469
310
726563746F72792E786D6C504B010214001400060808006264CC446FD935ADFE000000A00100003B00000000000000000000000000EE1100006662782F30434135343843302D334238452D344241412D424339312D3831303246334543313243452F7265736F75726365732F636F72652E786D6C504B0506000000000E000E
310
0080040000451300000000
  0
XRECORD
  5
17
102
{ACAD_REACTORS
330
12
102
}
330
12
100
AcDbXrecord
280
     1
270
     1
271
     1
  0
XRECORD
  5
16
102
{ACAD_REACTORS
330
12
102
}
330
12
100
AcDbXrecord
280
     1
270
     1
271
     1
  0
XRECORD
  5
18
102
{ACAD_REACTORS
330
12
102
}
330
12
100
AcDbXrecord
280
     1
270
     1
271
     1
  0
XRECORD
  5
15
102
{ACAD_REACTORS
330
12
102
}
330
12
100
AcDbXrecord
280
     1
270
     1
271
     1
  0
XRECORD
  5
1524
102
{ACAD_REACTORS
330
22
102
}
330
22
100
AcDbXrecord
280
     1
102
MATERIAL
148
0.0
149
0.0
149
0.0
 93
        0
 94
      127
282
     0
 72
     0
 77
     0
171
     0
175
     0
179
     0
273
     0
  0
XRECORD
  5
24
102
{ACAD_REACTORS
330
22
102
}
330
22
100
AcDbXrecord
280
     1
270
     1
271
     1
  0
XRECORD
  5
23
102
{ACAD_REACTORS
330
22
102
}
330
22
100
AcDbXrecord
280
     1
270
     1
271
     1
  0
XRECORD
  5
27
102
{ACAD_REACTORS
330
22
102
}
330
22
100
AcDbXrecord
280
     1
270
     1
271
     1
  0
XRECORD
  5
26
102
{ACAD_REACTORS
330
22
102
}
330
22
100
AcDbXrecord
280
     1
270
     1
271
     1
  0
XRECORD
  5
28
102
{ACAD_REACTORS
330
22
102
}
330
22
100
AcDbXrecord
280
     1
270
     1
271
     1
  0
XRECORD
  5
25
102
{ACAD_REACTORS
330
22
102
}
330
22
100
AcDbXrecord
280
     1
270
     1
271
     1
  0
XRECORD
  5
1557
102
{ACAD_REACTORS
330
1556
102
}
330
1556
100
AcDbXrecord
280
     1
102
ACAD_ROUNDTRIP_2012_MLEADER_STYLE
298
     1
  0
CELLSTYLEMAP
  5
14FC
102
{ACAD_REACTORS
330
1333
102
}
330
1333
100
AcDbCellStyleMap
 90
        3
300
CELLSTYLE
  1
TABLEFORMAT_BEGIN
 90
        5
170
     1
 91
        0
 92
    32768
 62
   257
 93
        1
300
CONTENTFORMAT
  1
CONTENTFORMAT_BEGIN
 90
        0
 91
        0
 92
      512
 93
        0
300

 40
0.0
140
1.0
 94
        5
 62
     0
340
55
144
0.25
309
CONTENTFORMAT_END
171
     0
 94
        0
309
TABLEFORMAT_END
  1
CELLSTYLE_BEGIN
 90
        1
 91
        1
300
_TITLE
309
CELLSTYLE_END
300
CELLSTYLE
  1
TABLEFORMAT_BEGIN
 90
        5
170
     1
 91
        0
 92
        0
 62
   257
 93
        1
300
CONTENTFORMAT
  1
CONTENTFORMAT_BEGIN
 90
        0
 91
        0
 92
      512
 93
        0
300

 40
0.0
140
1.0
 94
        5
 62
     0
340
55
144
0.18
309
CONTENTFORMAT_END
171
     0
 94
        0
309
TABLEFORMAT_END
  1
CELLSTYLE_BEGIN
 90
        2
 91
        1
300
_HEADER
309
CELLSTYLE_END
300
CELLSTYLE
  1
TABLEFORMAT_BEGIN
 90
        5
170
     1
 91
        0
 92
        0
 62
   257
 93
        1
300
CONTENTFORMAT
  1
CONTENTFORMAT_BEGIN
 90
        0
 91
        0
 92
      512
 93
        0
300

 40
0.0
140
1.0
 94
        2
 62
     0
340
55
144
0.18
309
CONTENTFORMAT_END
171
     0
 94
        0
309
TABLEFORMAT_END
  1
CELLSTYLE_BEGIN
 90
        3
 91
        2
300
_DATA
309
CELLSTYLE_END
  0
XRECORD
  5
1555
102
{ACAD_REACTORS
330
1333
102
}
330
1333
100
AcDbXrecord
280
     1
102
ACAD_ROUNDTRIP_PRE2007_TABLESTYLE
 90
      512
 91
        0
  1

 92
      512
 93
        0
  2

 94
      512
 95
        0
  3

  0
XRECORD
  5
1530
102
{ACAD_REACTORS
330
152F
102
}
330
152F
100
AcDbXrecord
280
     1
102
RTVSPost2010Prop28
280
     1
102
RTVSPost2010PropOp28
 70
     1
102
RTVSPost2010Prop29
280
     1
102
RTVSPost2010PropOp29
 70
     1
102
RTVSPost2010Prop30
280
     0
102
RTVSPost2010PropOp30
 70
     1
102
RTVSPost2010Prop31
280
     0
102
RTVSPost2010PropOp31
 70
     1
102
RTVSPost2010Prop32
280
     0
102
RTVSPost2010PropOp32
 70
     1
102
RTVSPost2010Prop33
280
     0
102
RTVSPost2010PropOp33
 70
     1
102
RTVSPost2010Prop34
280
     0
102
RTVSPost2010PropOp34
 70
     1
102
RTVSPost2010Prop35
280
     0
102
RTVSPost2010PropOp35
 70
     1
102
RTVSPost2010Prop36
280
     0
102
RTVSPost2010PropOp36
 70
     1
102
RTVSPost2010Prop37
 90
       50
102
RTVSPost2010PropOp37
 70
     1
102
RTVSPost2010Prop38
140
0.0
102
RTVSPost2010PropOp38
 70
     1
102
RTVSPost2010Prop39
140
1.0
102
RTVSPost2010PropOp39
 70
     1
102
RTVSPost2010Prop40
 90
        0
102
RTVSPost2010PropOp40
 70
     1
102
RTVSPost2010Prop41ColorIndex
 90
       18
102
RTVSPost2010Prop41ColorRGB
 90
        0
102
RTVSPost2010PropOp41
 70
     1
102
RTVSPost2010Prop42
 90
       50
102
RTVSPost2010PropOp42
 70
     1
102
RTVSPost2010Prop43
 90
        3
102
RTVSPost2010PropOp43
 70
     1
102
RTVSPost2010Prop44ColorIndex
 90
        5
102
RTVSPost2010Prop44ColorRGB
 90
      255
102
RTVSPost2010PropOp44
 70
     1
102
RTVSPost2010Prop45
280
     0
102
RTVSPost2010PropOp45
 70
     1
102
RTVSPost2010Prop46
 90
       50
102
RTVSPost2010PropOp46
 70
     1
102
RTVSPost2010Prop47
 90
       50
102
RTVSPost2010PropOp47
 70
     1
102
RTVSPost2010Prop48
 90
       50
102
RTVSPost2010PropOp48
 70
     1
102
RTVSPost2010Prop49
280
     0
102
RTVSPost2010PropOp49
 70
     1
102
RTVSPost2010Prop50
 90
       50
102
RTVSPost2010PropOp50
 70
     1
102
RTVSPost2010Prop51ColorIndex
 90
      256
102
RTVSPost2010Prop51ColorRGB
 90
-16777216
102
RTVSPost2010PropOp51
 70
     0
102
RTVSPost2010Prop52
140
1.0
102
RTVSPost2010PropOp52
 70
     0
102
RTVSPost2010Prop53
 90
        2
102
RTVSPost2010PropOp53
 70
     1
102
RTVSPost2010Prop54
  1
strokes_ogs.tif
102
RTVSPost2010PropOp54
 70
     1
102
RTVSPost2010Prop55
280
     0
102
RTVSPost2010PropOp55
 70
     1
102
RTVSPost2010Prop56
140
1.0
102
RTVSPost2010PropOp56
 70
     1
102
RTVSPost2010Prop57
140
1.0
102
RTVSPost2010PropOp57
 70
     1
102
RTVSPropertyOp0
 70
     1
102
RTVSPropertyOp1
 70
     1
102
RTVSPropertyOp2
 70
     1
102
RTVSPropertyOp3
 70
     1
102
RTVSPropertyOp4
 70
     1
102
RTVSPropertyOp5
 70
     1
102
RTVSPropertyOp6
 70
     1
102
RTVSPropertyOp7
 70
     1
102
RTVSPropertyOp8
 70
     1
102
RTVSPropertyOp9
 70
     1
102
RTVSPropertyOp10
 70
     1
102
RTVSPropertyOp11
 70
     1
102
RTVSPropertyOp12
 70
     1
102
RTVSPropertyOp13
 70
     1
102
RTVSPropertyOp14
 70
     1
102
RTVSPropertyOp15
 70
     1
102
RTVSPropertyOp16
 70
     1
102
RTVSPropertyOp17
 70
     1
102
RTVSPropertyOp18
 70
     1
102
RTVSPropertyOp19
 70
     1
102
RTVSPropertyOp20
 70
     1
102
RTVSPropertyOp21
 70
     1
102
RTVSPropertyOp22
 70
     1
102
RTVSPropertyOp23
 70
     1
102
RTVSPropertyOp24
 70
     1
102
RTVSPropertyOp25
 70
     1
102
RTVSPropertyOp26
 70
     1
102
RTVSPropertyOp27
 70
     1
102
RTVSPropertyOp28
 70
     1
102
RTVSPropertyOp29
 70
     1
102
RTVSPropertyOp30
 70
     1
102
RTVSPropertyOp31
 70
     1
102
RTVSPropertyOp32
 70
     1
102
RTVSPropertyOp33
 70
     1
102
RTVSPropertyOp34
 70
     1
102
RTVSPropertyOp35
 70
     1
102
RTVSPropertyOp36
 70
     1
102
RTVSPropertyOp37
 70
     1
102
RTVSPropertyOp38
 70
     1
102
RTVSPropertyOp39
 70
     1
102
RTVSPropertyOp40
 70
     1
102
RTVSPropertyOp41
 70
     1
102
RTVSPropertyOp42
 70
     1
102
RTVSPropertyOp43
 70
     1
102
RTVSPropertyOp44
 70
     1
102
RTVSPropertyOp45
 70
     1
102
RTVSPropertyOp46
 70
     1
102
RTVSPropertyOp47
 70
     1
102
RTVSPropertyOp48
 70
     1
102
RTVSPropertyOp49
 70
     1
102
RTVSPropertyOp50
 70
     1
102
RTVSPropertyOp51
 70
     0
102
RTVSPropertyOp52
 70
     0
102
RTVSPropertyOp53
 70
     1
102
RTVSPropertyOp54
 70
     1
102
RTVSPropertyOp55
 70
     1
102
RTVSPropertyOp56
 70
     1
102
RTVSPropertyOp57
 70
     1
102
RTVSPropertyOp58
 70
     1
102
RTVSPropertyOp59
 70
     1
102
RTVSPropertyOp60
 70
     1
102
RTVSPropertyOp61
 70
     1
102
RTVSPropertyOp62
 70
     1
  0
XRECORD
  5
152E
102
{ACAD_REACTORS
330
152D
102
}
330
152D
100
AcDbXrecord
280
     1
102
RTVSPost2010Prop28
280
     0
102
RTVSPost2010PropOp28
 70
     1
102
RTVSPost2010Prop29
280
     1
102
RTVSPost2010PropOp29
 70
     1
102
RTVSPost2010Prop30
280
     1
102
RTVSPost2010PropOp30
 70
     1
102
RTVSPost2010Prop31
280
     0
102
RTVSPost2010PropOp31
 70
     1
102
RTVSPost2010Prop32
280
     0
102
RTVSPost2010PropOp32
 70
     1
102
RTVSPost2010Prop33
280
     0
102
RTVSPost2010PropOp33
 70
     1
102
RTVSPost2010Prop34
280
     0
102
RTVSPost2010PropOp34
 70
     1
102
RTVSPost2010Prop35
280
     0
102
RTVSPost2010PropOp35
 70
     1
102
RTVSPost2010Prop36
280
     0
102
RTVSPost2010PropOp36
 70
     1
102
RTVSPost2010Prop37
 90
       50
102
RTVSPost2010PropOp37
 70
     1
102
RTVSPost2010Prop38
140
0.0
102
RTVSPost2010PropOp38
 70
     1
102
RTVSPost2010Prop39
140
1.0
102
RTVSPost2010PropOp39
 70
     1
102
RTVSPost2010Prop40
 90
        0
102
RTVSPost2010PropOp40
 70
     1
102
RTVSPost2010Prop41ColorIndex
 90
       18
102
RTVSPost2010Prop41ColorRGB
 90
        0
102
RTVSPost2010PropOp41
 70
     1
102
RTVSPost2010Prop42
 90
       50
102
RTVSPost2010PropOp42
 70
     1
102
RTVSPost2010Prop43
 90
        3
102
RTVSPost2010PropOp43
 70
     1
102
RTVSPost2010Prop44ColorIndex
 90
        5
102
RTVSPost2010Prop44ColorRGB
 90
      255
102
RTVSPost2010PropOp44
 70
     1
102
RTVSPost2010Prop45
280
     0
102
RTVSPost2010PropOp45
 70
     1
102
RTVSPost2010Prop46
 90
       50
102
RTVSPost2010PropOp46
 70
     1
102
RTVSPost2010Prop47
 90
       50
102
RTVSPost2010PropOp47
 70
     1
102
RTVSPost2010Prop48
 90
       50
102
RTVSPost2010PropOp48
 70
     1
102
RTVSPost2010Prop49
280
     0
102
RTVSPost2010PropOp49
 70
     1
102
RTVSPost2010Prop50
 90
       50
102
RTVSPost2010PropOp50
 70
     1
102
RTVSPost2010Prop51ColorIndex
 90
      256
102
RTVSPost2010Prop51ColorRGB
 90
-16777216
102
RTVSPost2010PropOp51
 70
     0
102
RTVSPost2010Prop52
140
1.0
102
RTVSPost2010PropOp52
 70
     0
102
RTVSPost2010Prop53
 90
        2
102
RTVSPost2010PropOp53
 70
     1
102
RTVSPost2010Prop54
  1
strokes_ogs.tif
102
RTVSPost2010PropOp54
 70
     1
102
RTVSPost2010Prop55
280
     0
102
RTVSPost2010PropOp55
 70
     1
102
RTVSPost2010Prop56
140
1.0
102
RTVSPost2010PropOp56
 70
     1
102
RTVSPost2010Prop57
140
1.0
102
RTVSPost2010PropOp57
 70
     1
102
RTVSPropertyOp0
 70
     1
102
RTVSPropertyOp1
 70
     1
102
RTVSPropertyOp2
 70
     1
102
RTVSPropertyOp3
 70
     1
102
RTVSPropertyOp4
 70
     1
102
RTVSPropertyOp5
 70
     1
102
RTVSPropertyOp6
 70
     1
102
RTVSPropertyOp7
 70
     1
102
RTVSPropertyOp8
 70
     1
102
RTVSPropertyOp9
 70
     1
102
RTVSPropertyOp10
 70
     1
102
RTVSPropertyOp11
 70
     1
102
RTVSPropertyOp12
 70
     1
102
RTVSPropertyOp13
 70
     1
102
RTVSPropertyOp14
 70
     1
102
RTVSPropertyOp15
 70
     1
102
RTVSPropertyOp16
 70
     1
102
RTVSPropertyOp17
 70
     1
102
RTVSPropertyOp18
 70
     1
102
RTVSPropertyOp19
 70
     1
102
RTVSPropertyOp20
 70
     1
102
RTVSPropertyOp21
 70
     1
102
RTVSPropertyOp22
 70
     1
102
RTVSPropertyOp23
 70
     1
102
RTVSPropertyOp24
 70
     1
102
RTVSPropertyOp25
 70
     1
102
RTVSPropertyOp26
 70
     1
102
RTVSPropertyOp27
 70
     1
102
RTVSPropertyOp28
 70
     1
102
RTVSPropertyOp29
 70
     1
102
RTVSPropertyOp30
 70
     1
102
RTVSPropertyOp31
 70
     1
102
RTVSPropertyOp32
 70
     1
102
RTVSPropertyOp33
 70
     1
102
RTVSPropertyOp34
 70
     1
102
RTVSPropertyOp35
 70
     1
102
RTVSPropertyOp36
 70
     1
102
RTVSPropertyOp37
 70
     1
102
RTVSPropertyOp38
 70
     1
102
RTVSPropertyOp39
 70
     1
102
RTVSPropertyOp40
 70
     1
102
RTVSPropertyOp41
 70
     1
102
RTVSPropertyOp42
 70
     1
102
RTVSPropertyOp43
 70
     1
102
RTVSPropertyOp44
 70
     1
102
RTVSPropertyOp45
 70
     1
102
RTVSPropertyOp46
 70
     1
102
RTVSPropertyOp47
 70
     1
102
RTVSPropertyOp48
 70
     1
102
RTVSPropertyOp49
 70
     1
102
RTVSPropertyOp50
 70
     1
102
RTVSPropertyOp51
 70
     0
102
RTVSPropertyOp52
 70
     0
102
RTVSPropertyOp53
 70
     1
102
RTVSPropertyOp54
 70
     1
102
RTVSPropertyOp55
 70
     1
102
RTVSPropertyOp56
 70
     1
102
RTVSPropertyOp57
 70
     1
102
RTVSPropertyOp58
 70
     1
102
RTVSPropertyOp59
 70
     1
102
RTVSPropertyOp60
 70
     1
102
RTVSPropertyOp61
 70
     1
102
RTVSPropertyOp62
 70
     1
  0
XRECORD
  5
153C
102
{ACAD_REACTORS
330
153B
102
}
330
153B
100
AcDbXrecord
280
     1
102
RTVSPost2010Prop28
280
     0
102
RTVSPost2010PropOp28
 70
     1
102
RTVSPost2010Prop29
280
     1
102
RTVSPost2010PropOp29
 70
     1
102
RTVSPost2010Prop30
280
     1
102
RTVSPost2010PropOp30
 70
     1
102
RTVSPost2010Prop31
280
     0
102
RTVSPost2010PropOp31
 70
     1
102
RTVSPost2010Prop32
280
     0
102
RTVSPost2010PropOp32
 70
     1
102
RTVSPost2010Prop33
280
     0
102
RTVSPost2010PropOp33
 70
     1
102
RTVSPost2010Prop34
280
     0
102
RTVSPost2010PropOp34
 70
     1
102
RTVSPost2010Prop35
280
     0
102
RTVSPost2010PropOp35
 70
     1
102
RTVSPost2010Prop36
280
     0
102
RTVSPost2010PropOp36
 70
     1
102
RTVSPost2010Prop37
 90
       50
102
RTVSPost2010PropOp37
 70
     1
102
RTVSPost2010Prop38
140
0.0
102
RTVSPost2010PropOp38
 70
     1
102
RTVSPost2010Prop39
140
1.0
102
RTVSPost2010PropOp39
 70
     1
102
RTVSPost2010Prop40
 90
        0
102
RTVSPost2010PropOp40
 70
     1
102
RTVSPost2010Prop41ColorIndex
 90
       18
102
RTVSPost2010Prop41ColorRGB
 90
        0
102
RTVSPost2010PropOp41
 70
     1
102
RTVSPost2010Prop42
 90
       50
102
RTVSPost2010PropOp42
 70
     1
102
RTVSPost2010Prop43
 90
        3
102
RTVSPost2010PropOp43
 70
     1
102
RTVSPost2010Prop44ColorIndex
 90
        5
102
RTVSPost2010Prop44ColorRGB
 90
      255
102
RTVSPost2010PropOp44
 70
     1
102
RTVSPost2010Prop45
280
     0
102
RTVSPost2010PropOp45
 70
     1
102
RTVSPost2010Prop46
 90
       50
102
RTVSPost2010PropOp46
 70
     1
102
RTVSPost2010Prop47
 90
       50
102
RTVSPost2010PropOp47
 70
     1
102
RTVSPost2010Prop48
 90
       50
102
RTVSPost2010PropOp48
 70
     1
102
RTVSPost2010Prop49
280
     0
102
RTVSPost2010PropOp49
 70
     1
102
RTVSPost2010Prop50
 90
       50
102
RTVSPost2010PropOp50
 70
     1
102
RTVSPost2010Prop51ColorIndex
 90
      256
102
RTVSPost2010Prop51ColorRGB
 90
-16777216
102
RTVSPost2010PropOp51
 70
     0
102
RTVSPost2010Prop52
140
1.0
102
RTVSPost2010PropOp52
 70
     0
102
RTVSPost2010Prop53
 90
        2
102
RTVSPost2010PropOp53
 70
     1
102
RTVSPost2010Prop54
  1
strokes_ogs.tif
102
RTVSPost2010PropOp54
 70
     1
102
RTVSPost2010Prop55
280
     0
102
RTVSPost2010PropOp55
 70
     1
102
RTVSPost2010Prop56
140
1.0
102
RTVSPost2010PropOp56
 70
     1
102
RTVSPost2010Prop57
140
1.0
102
RTVSPost2010PropOp57
 70
     1
102
RTVSPropertyOp0
 70
     1
102
RTVSPropertyOp1
 70
     1
102
RTVSPropertyOp2
 70
     1
102
RTVSPropertyOp3
 70
     1
102
RTVSPropertyOp4
 70
     1
102
RTVSPropertyOp5
 70
     1
102
RTVSPropertyOp6
 70
     1
102
RTVSPropertyOp7
 70
     1
102
RTVSPropertyOp8
 70
     1
102
RTVSPropertyOp9
 70
     1
102
RTVSPropertyOp10
 70
     1
102
RTVSPropertyOp11
 70
     1
102
RTVSPropertyOp12
 70
     1
102
RTVSPropertyOp13
 70
     1
102
RTVSPropertyOp14
 70
     1
102
RTVSPropertyOp15
 70
     1
102
RTVSPropertyOp16
 70
     1
102
RTVSPropertyOp17
 70
     1
102
RTVSPropertyOp18
 70
     1
102
RTVSPropertyOp19
 70
     1
102
RTVSPropertyOp20
 70
     1
102
RTVSPropertyOp21
 70
     1
102
RTVSPropertyOp22
 70
     1
102
RTVSPropertyOp23
 70
     1
102
RTVSPropertyOp24
 70
     1
102
RTVSPropertyOp25
 70
     1
102
RTVSPropertyOp26
 70
     1
102
RTVSPropertyOp27
 70
     1
102
RTVSPropertyOp28
 70
     1
102
RTVSPropertyOp29
 70
     1
102
RTVSPropertyOp30
 70
     1
102
RTVSPropertyOp31
 70
     1
102
RTVSPropertyOp32
 70
     1
102
RTVSPropertyOp33
 70
     1
102
RTVSPropertyOp34
 70
     1
102
RTVSPropertyOp35
 70
     1
102
RTVSPropertyOp36
 70
     1
102
RTVSPropertyOp37
 70
     1
102
RTVSPropertyOp38
 70
     1
102
RTVSPropertyOp39
 70
     1
102
RTVSPropertyOp40
 70
     1
102
RTVSPropertyOp41
 70
     1
102
RTVSPropertyOp42
 70
     1
102
RTVSPropertyOp43
 70
     1
102
RTVSPropertyOp44
 70
     1
102
RTVSPropertyOp45
 70
     1
102
RTVSPropertyOp46
 70
     1
102
RTVSPropertyOp47
 70
     1
102
RTVSPropertyOp48
 70
     1
102
RTVSPropertyOp49
 70
     1
102
RTVSPropertyOp50
 70
     1
102
RTVSPropertyOp51
 70
     0
102
RTVSPropertyOp52
 70
     0
102
RTVSPropertyOp53
 70
     1
102
RTVSPropertyOp54
 70
     1
102
RTVSPropertyOp55
 70
     1
102
RTVSPropertyOp56
 70
     1
102
RTVSPropertyOp57
 70
     1
102
RTVSPropertyOp58
 70
     1
102
RTVSPropertyOp59
 70
     1
102
RTVSPropertyOp60
 70
     1
102
RTVSPropertyOp61
 70
     1
102
RTVSPropertyOp62
 70
     1
  0
XRECORD
  5
1544
102
{ACAD_REACTORS
330
1543
102
}
330
1543
100
AcDbXrecord
280
     1
102
RTVSPost2010Prop28
280
     0
102
RTVSPost2010PropOp28
 70
     1
102
RTVSPost2010Prop29
280
     1
102
RTVSPost2010PropOp29
 70
     1
102
RTVSPost2010Prop30
280
     1
102
RTVSPost2010PropOp30
 70
     1
102
RTVSPost2010Prop31
280
     0
102
RTVSPost2010PropOp31
 70
     1
102
RTVSPost2010Prop32
280
     0
102
RTVSPost2010PropOp32
 70
     1
102
RTVSPost2010Prop33
280
     0
102
RTVSPost2010PropOp33
 70
     1
102
RTVSPost2010Prop34
280
     0
102
RTVSPost2010PropOp34
 70
     1
102
RTVSPost2010Prop35
280
     0
102
RTVSPost2010PropOp35
 70
     1
102
RTVSPost2010Prop36
280
     0
102
RTVSPost2010PropOp36
 70
     1
102
RTVSPost2010Prop37
 90
       50
102
RTVSPost2010PropOp37
 70
     1
102
RTVSPost2010Prop38
140
0.0
102
RTVSPost2010PropOp38
 70
     1
102
RTVSPost2010Prop39
140
1.0
102
RTVSPost2010PropOp39
 70
     1
102
RTVSPost2010Prop40
 90
        0
102
RTVSPost2010PropOp40
 70
     1
102
RTVSPost2010Prop41ColorIndex
 90
       18
102
RTVSPost2010Prop41ColorRGB
 90
        0
102
RTVSPost2010PropOp41
 70
     1
102
RTVSPost2010Prop42
 90
       50
102
RTVSPost2010PropOp42
 70
     1
102
RTVSPost2010Prop43
 90
        3
102
RTVSPost2010PropOp43
 70
     1
102
RTVSPost2010Prop44ColorIndex
 90
        5
102
RTVSPost2010Prop44ColorRGB
 90
      255
102
RTVSPost2010PropOp44
 70
     1
102
RTVSPost2010Prop45
280
     0
102
RTVSPost2010PropOp45
 70
     1
102
RTVSPost2010Prop46
 90
       50
102
RTVSPost2010PropOp46
 70
     1
102
RTVSPost2010Prop47
 90
       50
102
RTVSPost2010PropOp47
 70
     1
102
RTVSPost2010Prop48
 90
       50
102
RTVSPost2010PropOp48
 70
     1
102
RTVSPost2010Prop49
280
     0
102
RTVSPost2010PropOp49
 70
     1
102
RTVSPost2010Prop50
 90
       50
102
RTVSPost2010PropOp50
 70
     1
102
RTVSPost2010Prop51ColorIndex
 90
      256
102
RTVSPost2010Prop51ColorRGB
 90
-16777216
102
RTVSPost2010PropOp51
 70
     0
102
RTVSPost2010Prop52
140
1.0
102
RTVSPost2010PropOp52
 70
     0
102
RTVSPost2010Prop53
 90
        2
102
RTVSPost2010PropOp53
 70
     1
102
RTVSPost2010Prop54
  1
strokes_ogs.tif
102
RTVSPost2010PropOp54
 70
     1
102
RTVSPost2010Prop55
280
     0
102
RTVSPost2010PropOp55
 70
     1
102
RTVSPost2010Prop56
140
1.0
102
RTVSPost2010PropOp56
 70
     1
102
RTVSPost2010Prop57
140
1.0
102
RTVSPost2010PropOp57
 70
     1
102
RTVSPropertyOp0
 70
     1
102
RTVSPropertyOp1
 70
     1
102
RTVSPropertyOp2
 70
     1
102
RTVSPropertyOp3
 70
     1
102
RTVSPropertyOp4
 70
     1
102
RTVSPropertyOp5
 70
     1
102
RTVSPropertyOp6
 70
     1
102
RTVSPropertyOp7
 70
     1
102
RTVSPropertyOp8
 70
     1
102
RTVSPropertyOp9
 70
     1
102
RTVSPropertyOp10
 70
     1
102
RTVSPropertyOp11
 70
     1
102
RTVSPropertyOp12
 70
     1
102
RTVSPropertyOp13
 70
     1
102
RTVSPropertyOp14
 70
     1
102
RTVSPropertyOp15
 70
     1
102
RTVSPropertyOp16
 70
     1
102
RTVSPropertyOp17
 70
     1
102
RTVSPropertyOp18
 70
     1
102
RTVSPropertyOp19
 70
     1
102
RTVSPropertyOp20
 70
     1
102
RTVSPropertyOp21
 70
     1
102
RTVSPropertyOp22
 70
     1
102
RTVSPropertyOp23
 70
     1
102
RTVSPropertyOp24
 70
     1
102
RTVSPropertyOp25
 70
     1
102
RTVSPropertyOp26
 70
     1
102
RTVSPropertyOp27
 70
     1
102
RTVSPropertyOp28
 70
     1
102
RTVSPropertyOp29
 70
     1
102
RTVSPropertyOp30
 70
     1
102
RTVSPropertyOp31
 70
     1
102
RTVSPropertyOp32
 70
     1
102
RTVSPropertyOp33
 70
     1
102
RTVSPropertyOp34
 70
     1
102
RTVSPropertyOp35
 70
     1
102
RTVSPropertyOp36
 70
     1
102
RTVSPropertyOp37
 70
     1
102
RTVSPropertyOp38
 70
     1
102
RTVSPropertyOp39
 70
     1
102
RTVSPropertyOp40
 70
     1
102
RTVSPropertyOp41
 70
     1
102
RTVSPropertyOp42
 70
     1
102
RTVSPropertyOp43
 70
     1
102
RTVSPropertyOp44
 70
     1
102
RTVSPropertyOp45
 70
     1
102
RTVSPropertyOp46
 70
     1
102
RTVSPropertyOp47
 70
     1
102
RTVSPropertyOp48
 70
     1
102
RTVSPropertyOp49
 70
     1
102
RTVSPropertyOp50
 70
     1
102
RTVSPropertyOp51
 70
     0
102
RTVSPropertyOp52
 70
     0
102
RTVSPropertyOp53
 70
     1
102
RTVSPropertyOp54
 70
     1
102
RTVSPropertyOp55
 70
     1
102
RTVSPropertyOp56
 70
     1
102
RTVSPropertyOp57
 70
     1
102
RTVSPropertyOp58
 70
     1
102
RTVSPropertyOp59
 70
     1
102
RTVSPropertyOp60
 70
     1
102
RTVSPropertyOp61
 70
     1
102
RTVSPropertyOp62
 70
     1
  0
XRECORD
  5
1536
102
{ACAD_REACTORS
330
1535
102
}
330
1535
100
AcDbXrecord
280
     1
102
RTVSPost2010Prop28
280
     0
102
RTVSPost2010PropOp28
 70
     1
102
RTVSPost2010Prop29
280
     1
102
RTVSPost2010PropOp29
 70
     1
102
RTVSPost2010Prop30
280
     1
102
RTVSPost2010PropOp30
 70
     1
102
RTVSPost2010Prop31
280
     0
102
RTVSPost2010PropOp31
 70
     1
102
RTVSPost2010Prop32
280
     0
102
RTVSPost2010PropOp32
 70
     1
102
RTVSPost2010Prop33
280
     0
102
RTVSPost2010PropOp33
 70
     1
102
RTVSPost2010Prop34
280
     0
102
RTVSPost2010PropOp34
 70
     1
102
RTVSPost2010Prop35
280
     0
102
RTVSPost2010PropOp35
 70
     1
102
RTVSPost2010Prop36
280
     0
102
RTVSPost2010PropOp36
 70
     1
102
RTVSPost2010Prop37
 90
       50
102
RTVSPost2010PropOp37
 70
     1
102
RTVSPost2010Prop38
140
0.0
102
RTVSPost2010PropOp38
 70
     1
102
RTVSPost2010Prop39
140
1.0
102
RTVSPost2010PropOp39
 70
     1
102
RTVSPost2010Prop40
 90
        0
102
RTVSPost2010PropOp40
 70
     1
102
RTVSPost2010Prop41ColorIndex
 90
       18
102
RTVSPost2010Prop41ColorRGB
 90
        0
102
RTVSPost2010PropOp41
 70
     1
102
RTVSPost2010Prop42
 90
       50
102
RTVSPost2010PropOp42
 70
     1
102
RTVSPost2010Prop43
 90
        3
102
RTVSPost2010PropOp43
 70
     1
102
RTVSPost2010Prop44ColorIndex
 90
        5
102
RTVSPost2010Prop44ColorRGB
 90
      255
102
RTVSPost2010PropOp44
 70
     1
102
RTVSPost2010Prop45
280
     0
102
RTVSPost2010PropOp45
 70
     1
102
RTVSPost2010Prop46
 90
       50
102
RTVSPost2010PropOp46
 70
     1
102
RTVSPost2010Prop47
 90
       50
102
RTVSPost2010PropOp47
 70
     1
102
RTVSPost2010Prop48
 90
       50
102
RTVSPost2010PropOp48
 70
     1
102
RTVSPost2010Prop49
280
     0
102
RTVSPost2010PropOp49
 70
     1
102
RTVSPost2010Prop50
 90
       50
102
RTVSPost2010PropOp50
 70
     1
102
RTVSPost2010Prop51ColorIndex
 90
      256
102
RTVSPost2010Prop51ColorRGB
 90
-16777216
102
RTVSPost2010PropOp51
 70
     0
102
RTVSPost2010Prop52
140
1.0
102
RTVSPost2010PropOp52
 70
     0
102
RTVSPost2010Prop53
 90
        2
102
RTVSPost2010PropOp53
 70
     1
102
RTVSPost2010Prop54
  1
strokes_ogs.tif
102
RTVSPost2010PropOp54
 70
     1
102
RTVSPost2010Prop55
280
     0
102
RTVSPost2010PropOp55
 70
     1
102
RTVSPost2010Prop56
140
1.0
102
RTVSPost2010PropOp56
 70
     1
102
RTVSPost2010Prop57
140
1.0
102
RTVSPost2010PropOp57
 70
     1
102
RTVSPropertyOp0
 70
     1
102
RTVSPropertyOp1
 70
     1
102
RTVSPropertyOp2
 70
     1
102
RTVSPropertyOp3
 70
     1
102
RTVSPropertyOp4
 70
     1
102
RTVSPropertyOp5
 70
     1
102
RTVSPropertyOp6
 70
     1
102
RTVSPropertyOp7
 70
     1
102
RTVSPropertyOp8
 70
     1
102
RTVSPropertyOp9
 70
     1
102
RTVSPropertyOp10
 70
     1
102
RTVSPropertyOp11
 70
     1
102
RTVSPropertyOp12
 70
     1
102
RTVSPropertyOp13
 70
     1
102
RTVSPropertyOp14
 70
     1
102
RTVSPropertyOp15
 70
     1
102
RTVSPropertyOp16
 70
     1
102
RTVSPropertyOp17
 70
     1
102
RTVSPropertyOp18
 70
     1
102
RTVSPropertyOp19
 70
     1
102
RTVSPropertyOp20
 70
     1
102
RTVSPropertyOp21
 70
     1
102
RTVSPropertyOp22
 70
     1
102
RTVSPropertyOp23
 70
     1
102
RTVSPropertyOp24
 70
     1
102
RTVSPropertyOp25
 70
     1
102
RTVSPropertyOp26
 70
     1
102
RTVSPropertyOp27
 70
     1
102
RTVSPropertyOp28
 70
     1
102
RTVSPropertyOp29
 70
     1
102
RTVSPropertyOp30
 70
     1
102
RTVSPropertyOp31
 70
     1
102
RTVSPropertyOp32
 70
     1
102
RTVSPropertyOp33
 70
     1
102
RTVSPropertyOp34
 70
     1
102
RTVSPropertyOp35
 70
     1
102
RTVSPropertyOp36
 70
     1
102
RTVSPropertyOp37
 70
     1
102
RTVSPropertyOp38
 70
     1
102
RTVSPropertyOp39
 70
     1
102
RTVSPropertyOp40
 70
     1
102
RTVSPropertyOp41
 70
     1
102
RTVSPropertyOp42
 70
     1
102
RTVSPropertyOp43
 70
     1
102
RTVSPropertyOp44
 70
     1
102
RTVSPropertyOp45
 70
     1
102
RTVSPropertyOp46
 70
     1
102
RTVSPropertyOp47
 70
     1
102
RTVSPropertyOp48
 70
     1
102
RTVSPropertyOp49
 70
     1
102
RTVSPropertyOp50
 70
     1
102
RTVSPropertyOp51
 70
     0
102
RTVSPropertyOp52
 70
     0
102
RTVSPropertyOp53
 70
     1
102
RTVSPropertyOp54
 70
     1
102
RTVSPropertyOp55
 70
     1
102
RTVSPropertyOp56
 70
     1
102
RTVSPropertyOp57
 70
     1
102
RTVSPropertyOp58
 70
     1
102
RTVSPropertyOp59
 70
     1
102
RTVSPropertyOp60
 70
     1
102
RTVSPropertyOp61
 70
     1
102
RTVSPropertyOp62
 70
     1
  0
XRECORD
  5
153A
102
{ACAD_REACTORS
330
1539
102
}
330
1539
100
AcDbXrecord
280
     1
102
RTVSPost2010Prop28
280
     0
102
RTVSPost2010PropOp28
 70
     1
102
RTVSPost2010Prop29
280
     1
102
RTVSPost2010PropOp29
 70
     1
102
RTVSPost2010Prop30
280
     1
102
RTVSPost2010PropOp30
 70
     1
102
RTVSPost2010Prop31
280
     0
102
RTVSPost2010PropOp31
 70
     1
102
RTVSPost2010Prop32
280
     0
102
RTVSPost2010PropOp32
 70
     1
102
RTVSPost2010Prop33
280
     0
102
RTVSPost2010PropOp33
 70
     1
102
RTVSPost2010Prop34
280
     0
102
RTVSPost2010PropOp34
 70
     1
102
RTVSPost2010Prop35
280
     0
102
RTVSPost2010PropOp35
 70
     1
102
RTVSPost2010Prop36
280
     0
102
RTVSPost2010PropOp36
 70
     1
102
RTVSPost2010Prop37
 90
       50
102
RTVSPost2010PropOp37
 70
     1
102
RTVSPost2010Prop38
140
0.0
102
RTVSPost2010PropOp38
 70
     1
102
RTVSPost2010Prop39
140
1.0
102
RTVSPost2010PropOp39
 70
     1
102
RTVSPost2010Prop40
 90
        0
102
RTVSPost2010PropOp40
 70
     1
102
RTVSPost2010Prop41ColorIndex
 90
       18
102
RTVSPost2010Prop41ColorRGB
 90
        0
102
RTVSPost2010PropOp41
 70
     1
102
RTVSPost2010Prop42
 90
       50
102
RTVSPost2010PropOp42
 70
     1
102
RTVSPost2010Prop43
 90
        3
102
RTVSPost2010PropOp43
 70
     1
102
RTVSPost2010Prop44ColorIndex
 90
        5
102
RTVSPost2010Prop44ColorRGB
 90
      255
102
RTVSPost2010PropOp44
 70
     1
102
RTVSPost2010Prop45
280
     0
102
RTVSPost2010PropOp45
 70
     1
102
RTVSPost2010Prop46
 90
       50
102
RTVSPost2010PropOp46
 70
     1
102
RTVSPost2010Prop47
 90
       50
102
RTVSPost2010PropOp47
 70
     1
102
RTVSPost2010Prop48
 90
       50
102
RTVSPost2010PropOp48
 70
     1
102
RTVSPost2010Prop49
280
     0
102
RTVSPost2010PropOp49
 70
     1
102
RTVSPost2010Prop50
 90
       50
102
RTVSPost2010PropOp50
 70
     1
102
RTVSPost2010Prop51ColorIndex
 90
      256
102
RTVSPost2010Prop51ColorRGB
 90
-16777216
102
RTVSPost2010PropOp51
 70
     0
102
RTVSPost2010Prop52
140
1.0
102
RTVSPost2010PropOp52
 70
     0
102
RTVSPost2010Prop53
 90
        2
102
RTVSPost2010PropOp53
 70
     1
102
RTVSPost2010Prop54
  1
strokes_ogs.tif
102
RTVSPost2010PropOp54
 70
     1
102
RTVSPost2010Prop55
280
     0
102
RTVSPost2010PropOp55
 70
     1
102
RTVSPost2010Prop56
140
1.0
102
RTVSPost2010PropOp56
 70
     1
102
RTVSPost2010Prop57
140
1.0
102
RTVSPost2010PropOp57
 70
     1
102
RTVSPropertyOp0
 70
     1
102
RTVSPropertyOp1
 70
     1
102
RTVSPropertyOp2
 70
     1
102
RTVSPropertyOp3
 70
     1
102
RTVSPropertyOp4
 70
     1
102
RTVSPropertyOp5
 70
     1
102
RTVSPropertyOp6
 70
     1
102
RTVSPropertyOp7
 70
     1
102
RTVSPropertyOp8
 70
     1
102
RTVSPropertyOp9
 70
     1
102
RTVSPropertyOp10
 70
     1
102
RTVSPropertyOp11
 70
     1
102
RTVSPropertyOp12
 70
     1
102
RTVSPropertyOp13
 70
     1
102
RTVSPropertyOp14
 70
     1
102
RTVSPropertyOp15
 70
     1
102
RTVSPropertyOp16
 70
     1
102
RTVSPropertyOp17
 70
     1
102
RTVSPropertyOp18
 70
     1
102
RTVSPropertyOp19
 70
     1
102
RTVSPropertyOp20
 70
     1
102
RTVSPropertyOp21
 70
     1
102
RTVSPropertyOp22
 70
     1
102
RTVSPropertyOp23
 70
     1
102
RTVSPropertyOp24
 70
     1
102
RTVSPropertyOp25
 70
     1
102
RTVSPropertyOp26
 70
     1
102
RTVSPropertyOp27
 70
     1
102
RTVSPropertyOp28
 70
     1
102
RTVSPropertyOp29
 70
     1
102
RTVSPropertyOp30
 70
     1
102
RTVSPropertyOp31
 70
     1
102
RTVSPropertyOp32
 70
     1
102
RTVSPropertyOp33
 70
     1
102
RTVSPropertyOp34
 70
     1
102
RTVSPropertyOp35
 70
     1
102
RTVSPropertyOp36
 70
     1
102
RTVSPropertyOp37
 70
     1
102
RTVSPropertyOp38
 70
     1
102
RTVSPropertyOp39
 70
     1
102
RTVSPropertyOp40
 70
     1
102
RTVSPropertyOp41
 70
     1
102
RTVSPropertyOp42
 70
     1
102
RTVSPropertyOp43
 70
     1
102
RTVSPropertyOp44
 70
     1
102
RTVSPropertyOp45
 70
     1
102
RTVSPropertyOp46
 70
     1
102
RTVSPropertyOp47
 70
     1
102
RTVSPropertyOp48
 70
     1
102
RTVSPropertyOp49
 70
     1
102
RTVSPropertyOp50
 70
     1
102
RTVSPropertyOp51
 70
     0
102
RTVSPropertyOp52
 70
     0
102
RTVSPropertyOp53
 70
     1
102
RTVSPropertyOp54
 70
     1
102
RTVSPropertyOp55
 70
     1
102
RTVSPropertyOp56
 70
     1
102
RTVSPropertyOp57
 70
     1
102
RTVSPropertyOp58
 70
     1
102
RTVSPropertyOp59
 70
     1
102
RTVSPropertyOp60
 70
     1
102
RTVSPropertyOp61
 70
     1
102
RTVSPropertyOp62
 70
     1
  0
XRECORD
  5
1554
102
{ACAD_REACTORS
330
1553
102
}
330
1553
100
AcDbXrecord
280
     1
102
RTVSPost2010Prop28
280
     0
102
RTVSPost2010PropOp28
 70
     0
102
RTVSPost2010Prop29
280
     1
102
RTVSPost2010PropOp29
 70
     0
102
RTVSPost2010Prop30
280
     1
102
RTVSPost2010PropOp30
 70
     0
102
RTVSPost2010Prop31
280
     0
102
RTVSPost2010PropOp31
 70
     0
102
RTVSPost2010Prop32
280
     0
102
RTVSPost2010PropOp32
 70
     0
102
RTVSPost2010Prop33
280
     0
102
RTVSPost2010PropOp33
 70
     0
102
RTVSPost2010Prop34
280
     0
102
RTVSPost2010PropOp34
 70
     0
102
RTVSPost2010Prop35
280
     0
102
RTVSPost2010PropOp35
 70
     0
102
RTVSPost2010Prop36
280
     0
102
RTVSPost2010PropOp36
 70
     0
102
RTVSPost2010Prop37
 90
       50
102
RTVSPost2010PropOp37
 70
     0
102
RTVSPost2010Prop38
140
0.0
102
RTVSPost2010PropOp38
 70
     0
102
RTVSPost2010Prop39
140
1.0
102
RTVSPost2010PropOp39
 70
     0
102
RTVSPost2010Prop40
 90
        0
102
RTVSPost2010PropOp40
 70
     0
102
RTVSPost2010Prop41ColorIndex
 90
       18
102
RTVSPost2010Prop41ColorRGB
 90
        0
102
RTVSPost2010PropOp41
 70
     0
102
RTVSPost2010Prop42
 90
       50
102
RTVSPost2010PropOp42
 70
     0
102
RTVSPost2010Prop43
 90
        3
102
RTVSPost2010PropOp43
 70
     0
102
RTVSPost2010Prop44ColorIndex
 90
        5
102
RTVSPost2010Prop44ColorRGB
 90
      255
102
RTVSPost2010PropOp44
 70
     0
102
RTVSPost2010Prop45
280
     0
102
RTVSPost2010PropOp45
 70
     0
102
RTVSPost2010Prop46
 90
       50
102
RTVSPost2010PropOp46
 70
     0
102
RTVSPost2010Prop47
 90
       50
102
RTVSPost2010PropOp47
 70
     0
102
RTVSPost2010Prop48
 90
       50
102
RTVSPost2010PropOp48
 70
     0
102
RTVSPost2010Prop49
280
     0
102
RTVSPost2010PropOp49
 70
     0
102
RTVSPost2010Prop50
 90
       50
102
RTVSPost2010PropOp50
 70
     0
102
RTVSPost2010Prop51ColorIndex
 90
      256
102
RTVSPost2010Prop51ColorRGB
 90
-16777216
102
RTVSPost2010PropOp51
 70
     0
102
RTVSPost2010Prop52
140
1.0
102
RTVSPost2010PropOp52
 70
     0
102
RTVSPost2010Prop53
 90
        2
102
RTVSPost2010PropOp53
 70
     0
102
RTVSPost2010Prop54
  1
strokes_ogs.tif
102
RTVSPost2010PropOp54
 70
     0
102
RTVSPost2010Prop55
280
     0
102
RTVSPost2010PropOp55
 70
     0
102
RTVSPost2010Prop56
140
1.0
102
RTVSPost2010PropOp56
 70
     0
102
RTVSPost2010Prop57
140
1.0
102
RTVSPost2010PropOp57
 70
     0
102
RTVSPropertyOp0
 70
     0
102
RTVSPropertyOp1
 70
     0
102
RTVSPropertyOp2
 70
     0
102
RTVSPropertyOp3
 70
     0
102
RTVSPropertyOp4
 70
     0
102
RTVSPropertyOp5
 70
     0
102
RTVSPropertyOp6
 70
     0
102
RTVSPropertyOp7
 70
     0
102
RTVSPropertyOp8
 70
     0
102
RTVSPropertyOp9
 70
     0
102
RTVSPropertyOp10
 70
     0
102
RTVSPropertyOp11
 70
     0
102
RTVSPropertyOp12
 70
     0
102
RTVSPropertyOp13
 70
     0
102
RTVSPropertyOp14
 70
     2
102
RTVSPropertyOp15
 70
     0
102
RTVSPropertyOp16
 70
     0
102
RTVSPropertyOp17
 70
     0
102
RTVSPropertyOp18
 70
     0
102
RTVSPropertyOp19
 70
     0
102
RTVSPropertyOp20
 70
     0
102
RTVSPropertyOp21
 70
     0
102
RTVSPropertyOp22
 70
     0
102
RTVSPropertyOp23
 70
     0
102
RTVSPropertyOp24
 70
     0
102
RTVSPropertyOp25
 70
     0
102
RTVSPropertyOp26
 70
     0
102
RTVSPropertyOp27
 70
     0
102
RTVSPropertyOp28
 70
     0
102
RTVSPropertyOp29
 70
     0
102
RTVSPropertyOp30
 70
     0
102
RTVSPropertyOp31
 70
     0
102
RTVSPropertyOp32
 70
     0
102
RTVSPropertyOp33
 70
     0
102
RTVSPropertyOp34
 70
     0
102
RTVSPropertyOp35
 70
     0
102
RTVSPropertyOp36
 70
     0
102
RTVSPropertyOp37
 70
     0
102
RTVSPropertyOp38
 70
     0
102
RTVSPropertyOp39
 70
     0
102
RTVSPropertyOp40
 70
     0
102
RTVSPropertyOp41
 70
     0
102
RTVSPropertyOp42
 70
     0
102
RTVSPropertyOp43
 70
     0
102
RTVSPropertyOp44
 70
     0
102
RTVSPropertyOp45
 70
     0
102
RTVSPropertyOp46
 70
     0
102
RTVSPropertyOp47
 70
     0
102
RTVSPropertyOp48
 70
     0
102
RTVSPropertyOp49
 70
     0
102
RTVSPropertyOp50
 70
     0
102
RTVSPropertyOp51
 70
     0
102
RTVSPropertyOp52
 70
     0
102
RTVSPropertyOp53
 70
     0
102
RTVSPropertyOp54
 70
     0
102
RTVSPropertyOp55
 70
     0
102
RTVSPropertyOp56
 70
     0
102
RTVSPropertyOp57
 70
     0
102
RTVSPropertyOp58
 70
     0
102
RTVSPropertyOp59
 70
     0
102
RTVSPropertyOp60
 70
     0
102
RTVSPropertyOp61
 70
     0
102
RTVSPropertyOp62
 70
     0
  0
XRECORD
  5
1542
102
{ACAD_REACTORS
330
1541
102
}
330
1541
100
AcDbXrecord
280
     1
102
RTVSPost2010Prop28
280
     0
102
RTVSPost2010PropOp28
 70
     1
102
RTVSPost2010Prop29
280
     1
102
RTVSPost2010PropOp29
 70
     1
102
RTVSPost2010Prop30
280
     1
102
RTVSPost2010PropOp30
 70
     1
102
RTVSPost2010Prop31
280
     0
102
RTVSPost2010PropOp31
 70
     1
102
RTVSPost2010Prop32
280
     0
102
RTVSPost2010PropOp32
 70
     1
102
RTVSPost2010Prop33
280
     0
102
RTVSPost2010PropOp33
 70
     1
102
RTVSPost2010Prop34
280
     0
102
RTVSPost2010PropOp34
 70
     1
102
RTVSPost2010Prop35
280
     0
102
RTVSPost2010PropOp35
 70
     1
102
RTVSPost2010Prop36
280
     0
102
RTVSPost2010PropOp36
 70
     1
102
RTVSPost2010Prop37
 90
       50
102
RTVSPost2010PropOp37
 70
     1
102
RTVSPost2010Prop38
140
0.0
102
RTVSPost2010PropOp38
 70
     1
102
RTVSPost2010Prop39
140
1.0
102
RTVSPost2010PropOp39
 70
     1
102
RTVSPost2010Prop40
 90
        0
102
RTVSPost2010PropOp40
 70
     1
102
RTVSPost2010Prop41ColorIndex
 90
       18
102
RTVSPost2010Prop41ColorRGB
 90
        0
102
RTVSPost2010PropOp41
 70
     1
102
RTVSPost2010Prop42
 90
       50
102
RTVSPost2010PropOp42
 70
     1
102
RTVSPost2010Prop43
 90
        3
102
RTVSPost2010PropOp43
 70
     1
102
RTVSPost2010Prop44ColorIndex
 90
        5
102
RTVSPost2010Prop44ColorRGB
 90
      255
102
RTVSPost2010PropOp44
 70
     1
102
RTVSPost2010Prop45
280
     0
102
RTVSPost2010PropOp45
 70
     1
102
RTVSPost2010Prop46
 90
       50
102
RTVSPost2010PropOp46
 70
     1
102
RTVSPost2010Prop47
 90
       50
102
RTVSPost2010PropOp47
 70
     1
102
RTVSPost2010Prop48
 90
       50
102
RTVSPost2010PropOp48
 70
     1
102
RTVSPost2010Prop49
280
     0
102
RTVSPost2010PropOp49
 70
     1
102
RTVSPost2010Prop50
 90
       50
102
RTVSPost2010PropOp50
 70
     1
102
RTVSPost2010Prop51ColorIndex
 90
      256
102
RTVSPost2010Prop51ColorRGB
 90
-16777216
102
RTVSPost2010PropOp51
 70
     0
102
RTVSPost2010Prop52
140
1.0
102
RTVSPost2010PropOp52
 70
     0
102
RTVSPost2010Prop53
 90
        2
102
RTVSPost2010PropOp53
 70
     1
102
RTVSPost2010Prop54
  1
strokes_ogs.tif
102
RTVSPost2010PropOp54
 70
     1
102
RTVSPost2010Prop55
280
     0
102
RTVSPost2010PropOp55
 70
     1
102
RTVSPost2010Prop56
140
1.0
102
RTVSPost2010PropOp56
 70
     1
102
RTVSPost2010Prop57
140
1.0
102
RTVSPost2010PropOp57
 70
     1
102
RTVSPropertyOp0
 70
     1
102
RTVSPropertyOp1
 70
     1
102
RTVSPropertyOp2
 70
     1
102
RTVSPropertyOp3
 70
     1
102
RTVSPropertyOp4
 70
     1
102
RTVSPropertyOp5
 70
     1
102
RTVSPropertyOp6
 70
     1
102
RTVSPropertyOp7
 70
     1
102
RTVSPropertyOp8
 70
     1
102
RTVSPropertyOp9
 70
     1
102
RTVSPropertyOp10
 70
     1
102
RTVSPropertyOp11
 70
     1
102
RTVSPropertyOp12
 70
     1
102
RTVSPropertyOp13
 70
     1
102
RTVSPropertyOp14
 70
     1
102
RTVSPropertyOp15
 70
     1
102
RTVSPropertyOp16
 70
     1
102
RTVSPropertyOp17
 70
     1
102
RTVSPropertyOp18
 70
     1
102
RTVSPropertyOp19
 70
     1
102
RTVSPropertyOp20
 70
     1
102
RTVSPropertyOp21
 70
     1
102
RTVSPropertyOp22
 70
     1
102
RTVSPropertyOp23
 70
     1
102
RTVSPropertyOp24
 70
     1
102
RTVSPropertyOp25
 70
     1
102
RTVSPropertyOp26
 70
     1
102
RTVSPropertyOp27
 70
     1
102
RTVSPropertyOp28
 70
     1
102
RTVSPropertyOp29
 70
     1
102
RTVSPropertyOp30
 70
     1
102
RTVSPropertyOp31
 70
     1
102
RTVSPropertyOp32
 70
     1
102
RTVSPropertyOp33
 70
     1
102
RTVSPropertyOp34
 70
     1
102
RTVSPropertyOp35
 70
     1
102
RTVSPropertyOp36
 70
     1
102
RTVSPropertyOp37
 70
     1
102
RTVSPropertyOp38
 70
     1
102
RTVSPropertyOp39
 70
     1
102
RTVSPropertyOp40
 70
     1
102
RTVSPropertyOp41
 70
     1
102
RTVSPropertyOp42
 70
     1
102
RTVSPropertyOp43
 70
     1
102
RTVSPropertyOp44
 70
     1
102
RTVSPropertyOp45
 70
     1
102
RTVSPropertyOp46
 70
     1
102
RTVSPropertyOp47
 70
     1
102
RTVSPropertyOp48
 70
     1
102
RTVSPropertyOp49
 70
     1
102
RTVSPropertyOp50
 70
     1
102
RTVSPropertyOp51
 70
     0
102
RTVSPropertyOp52
 70
     0
102
RTVSPropertyOp53
 70
     1
102
RTVSPropertyOp54
 70
     1
102
RTVSPropertyOp55
 70
     1
102
RTVSPropertyOp56
 70
     1
102
RTVSPropertyOp57
 70
     1
102
RTVSPropertyOp58
 70
     1
102
RTVSPropertyOp59
 70
     1
102
RTVSPropertyOp60
 70
     1
102
RTVSPropertyOp61
 70
     1
102
RTVSPropertyOp62
 70
     1
  0
XRECORD
  5
1526
102
{ACAD_REACTORS
330
1525
102
}
330
1525
100
AcDbXrecord
280
     1
102
RTVSPost2010Prop28
280
     0
102
RTVSPost2010PropOp28
 70
     1
102
RTVSPost2010Prop29
280
     1
102
RTVSPost2010PropOp29
 70
     1
102
RTVSPost2010Prop30
280
     1
102
RTVSPost2010PropOp30
 70
     1
102
RTVSPost2010Prop31
280
     0
102
RTVSPost2010PropOp31
 70
     1
102
RTVSPost2010Prop32
280
     0
102
RTVSPost2010PropOp32
 70
     1
102
RTVSPost2010Prop33
280
     0
102
RTVSPost2010PropOp33
 70
     1
102
RTVSPost2010Prop34
280
     0
102
RTVSPost2010PropOp34
 70
     1
102
RTVSPost2010Prop35
280
     0
102
RTVSPost2010PropOp35
 70
     1
102
RTVSPost2010Prop36
280
     0
102
RTVSPost2010PropOp36
 70
     1
102
RTVSPost2010Prop37
 90
       50
102
RTVSPost2010PropOp37
 70
     1
102
RTVSPost2010Prop38
140
0.0
102
RTVSPost2010PropOp38
 70
     1
102
RTVSPost2010Prop39
140
1.0
102
RTVSPost2010PropOp39
 70
     1
102
RTVSPost2010Prop40
 90
        0
102
RTVSPost2010PropOp40
 70
     1
102
RTVSPost2010Prop41ColorIndex
 90
       18
102
RTVSPost2010Prop41ColorRGB
 90
        0
102
RTVSPost2010PropOp41
 70
     1
102
RTVSPost2010Prop42
 90
       50
102
RTVSPost2010PropOp42
 70
     1
102
RTVSPost2010Prop43
 90
        3
102
RTVSPost2010PropOp43
 70
     1
102
RTVSPost2010Prop44ColorIndex
 90
        5
102
RTVSPost2010Prop44ColorRGB
 90
      255
102
RTVSPost2010PropOp44
 70
     1
102
RTVSPost2010Prop45
280
     0
102
RTVSPost2010PropOp45
 70
     1
102
RTVSPost2010Prop46
 90
       50
102
RTVSPost2010PropOp46
 70
     1
102
RTVSPost2010Prop47
 90
       50
102
RTVSPost2010PropOp47
 70
     1
102
RTVSPost2010Prop48
 90
       50
102
RTVSPost2010PropOp48
 70
     1
102
RTVSPost2010Prop49
280
     0
102
RTVSPost2010PropOp49
 70
     1
102
RTVSPost2010Prop50
 90
       50
102
RTVSPost2010PropOp50
 70
     1
102
RTVSPost2010Prop51ColorIndex
 90
      256
102
RTVSPost2010Prop51ColorRGB
 90
-16777216
102
RTVSPost2010PropOp51
 70
     0
102
RTVSPost2010Prop52
140
1.0
102
RTVSPost2010PropOp52
 70
     0
102
RTVSPost2010Prop53
 90
        2
102
RTVSPost2010PropOp53
 70
     1
102
RTVSPost2010Prop54
  1
strokes_ogs.tif
102
RTVSPost2010PropOp54
 70
     1
102
RTVSPost2010Prop55
280
     0
102
RTVSPost2010PropOp55
 70
     1
102
RTVSPost2010Prop56
140
1.0
102
RTVSPost2010PropOp56
 70
     1
102
RTVSPost2010Prop57
140
1.0
102
RTVSPost2010PropOp57
 70
     1
102
RTVSPropertyOp0
 70
     1
102
RTVSPropertyOp1
 70
     1
102
RTVSPropertyOp2
 70
     1
102
RTVSPropertyOp3
 70
     1
102
RTVSPropertyOp4
 70
     1
102
RTVSPropertyOp5
 70
     1
102
RTVSPropertyOp6
 70
     1
102
RTVSPropertyOp7
 70
     1
102
RTVSPropertyOp8
 70
     1
102
RTVSPropertyOp9
 70
     1
102
RTVSPropertyOp10
 70
     1
102
RTVSPropertyOp11
 70
     1
102
RTVSPropertyOp12
 70
     1
102
RTVSPropertyOp13
 70
     1
102
RTVSPropertyOp14
 70
     1
102
RTVSPropertyOp15
 70
     1
102
RTVSPropertyOp16
 70
     1
102
RTVSPropertyOp17
 70
     1
102
RTVSPropertyOp18
 70
     1
102
RTVSPropertyOp19
 70
     1
102
RTVSPropertyOp20
 70
     1
102
RTVSPropertyOp21
 70
     1
102
RTVSPropertyOp22
 70
     1
102
RTVSPropertyOp23
 70
     1
102
RTVSPropertyOp24
 70
     1
102
RTVSPropertyOp25
 70
     1
102
RTVSPropertyOp26
 70
     1
102
RTVSPropertyOp27
 70
     1
102
RTVSPropertyOp28
 70
     1
102
RTVSPropertyOp29
 70
     1
102
RTVSPropertyOp30
 70
     1
102
RTVSPropertyOp31
 70
     1
102
RTVSPropertyOp32
 70
     1
102
RTVSPropertyOp33
 70
     1
102
RTVSPropertyOp34
 70
     1
102
RTVSPropertyOp35
 70
     1
102
RTVSPropertyOp36
 70
     1
102
RTVSPropertyOp37
 70
     1
102
RTVSPropertyOp38
 70
     1
102
RTVSPropertyOp39
 70
     1
102
RTVSPropertyOp40
 70
     1
102
RTVSPropertyOp41
 70
     1
102
RTVSPropertyOp42
 70
     1
102
RTVSPropertyOp43
 70
     1
102
RTVSPropertyOp44
 70
     1
102
RTVSPropertyOp45
 70
     1
102
RTVSPropertyOp46
 70
     1
102
RTVSPropertyOp47
 70
     1
102
RTVSPropertyOp48
 70
     1
102
RTVSPropertyOp49
 70
     1
102
RTVSPropertyOp50
 70
     1
102
RTVSPropertyOp51
 70
     0
102
RTVSPropertyOp52
 70
     0
102
RTVSPropertyOp53
 70
     1
102
RTVSPropertyOp54
 70
     1
102
RTVSPropertyOp55
 70
     1
102
RTVSPropertyOp56
 70
     1
102
RTVSPropertyOp57
 70
     1
102
RTVSPropertyOp58
 70
     1
102
RTVSPropertyOp59
 70
     1
102
RTVSPropertyOp60
 70
     1
102
RTVSPropertyOp61
 70
     1
102
RTVSPropertyOp62
 70
     1
  0
XRECORD
  5
1528
102
{ACAD_REACTORS
330
1527
102
}
330
1527
100
AcDbXrecord
280
     1
102
RTVSPost2010Prop28
280
     0
102
RTVSPost2010PropOp28
 70
     1
102
RTVSPost2010Prop29
280
     1
102
RTVSPost2010PropOp29
 70
     1
102
RTVSPost2010Prop30
280
     1
102
RTVSPost2010PropOp30
 70
     1
102
RTVSPost2010Prop31
280
     0
102
RTVSPost2010PropOp31
 70
     1
102
RTVSPost2010Prop32
280
     0
102
RTVSPost2010PropOp32
 70
     1
102
RTVSPost2010Prop33
280
     0
102
RTVSPost2010PropOp33
 70
     1
102
RTVSPost2010Prop34
280
     0
102
RTVSPost2010PropOp34
 70
     1
102
RTVSPost2010Prop35
280
     0
102
RTVSPost2010PropOp35
 70
     1
102
RTVSPost2010Prop36
280
     0
102
RTVSPost2010PropOp36
 70
     1
102
RTVSPost2010Prop37
 90
       50
102
RTVSPost2010PropOp37
 70
     1
102
RTVSPost2010Prop38
140
0.0
102
RTVSPost2010PropOp38
 70
     1
102
RTVSPost2010Prop39
140
1.0
102
RTVSPost2010PropOp39
 70
     1
102
RTVSPost2010Prop40
 90
        0
102
RTVSPost2010PropOp40
 70
     1
102
RTVSPost2010Prop41ColorIndex
 90
       18
102
RTVSPost2010Prop41ColorRGB
 90
        0
102
RTVSPost2010PropOp41
 70
     1
102
RTVSPost2010Prop42
 90
       50
102
RTVSPost2010PropOp42
 70
     1
102
RTVSPost2010Prop43
 90
        3
102
RTVSPost2010PropOp43
 70
     1
102
RTVSPost2010Prop44ColorIndex
 90
        5
102
RTVSPost2010Prop44ColorRGB
 90
      255
102
RTVSPost2010PropOp44
 70
     1
102
RTVSPost2010Prop45
280
     0
102
RTVSPost2010PropOp45
 70
     1
102
RTVSPost2010Prop46
 90
       50
102
RTVSPost2010PropOp46
 70
     1
102
RTVSPost2010Prop47
 90
       50
102
RTVSPost2010PropOp47
 70
     1
102
RTVSPost2010Prop48
 90
       50
102
RTVSPost2010PropOp48
 70
     1
102
RTVSPost2010Prop49
280
     0
102
RTVSPost2010PropOp49
 70
     1
102
RTVSPost2010Prop50
 90
       50
102
RTVSPost2010PropOp50
 70
     1
102
RTVSPost2010Prop51ColorIndex
 90
      256
102
RTVSPost2010Prop51ColorRGB
 90
-16777216
102
RTVSPost2010PropOp51
 70
     0
102
RTVSPost2010Prop52
140
1.0
102
RTVSPost2010PropOp52
 70
     0
102
RTVSPost2010Prop53
 90
        2
102
RTVSPost2010PropOp53
 70
     1
102
RTVSPost2010Prop54
  1
strokes_ogs.tif
102
RTVSPost2010PropOp54
 70
     1
102
RTVSPost2010Prop55
280
     0
102
RTVSPost2010PropOp55
 70
     1
102
RTVSPost2010Prop56
140
1.0
102
RTVSPost2010PropOp56
 70
     1
102
RTVSPost2010Prop57
140
1.0
102
RTVSPost2010PropOp57
 70
     1
102
RTVSPropertyOp0
 70
     1
102
RTVSPropertyOp1
 70
     1
102
RTVSPropertyOp2
 70
     1
102
RTVSPropertyOp3
 70
     1
102
RTVSPropertyOp4
 70
     1
102
RTVSPropertyOp5
 70
     1
102
RTVSPropertyOp6
 70
     1
102
RTVSPropertyOp7
 70
     1
102
RTVSPropertyOp8
 70
     1
102
RTVSPropertyOp9
 70
     1
102
RTVSPropertyOp10
 70
     1
102
RTVSPropertyOp11
 70
     1
102
RTVSPropertyOp12
 70
     1
102
RTVSPropertyOp13
 70
     1
102
RTVSPropertyOp14
 70
     1
102
RTVSPropertyOp15
 70
     1
102
RTVSPropertyOp16
 70
     1
102
RTVSPropertyOp17
 70
     1
102
RTVSPropertyOp18
 70
     1
102
RTVSPropertyOp19
 70
     1
102
RTVSPropertyOp20
 70
     1
102
RTVSPropertyOp21
 70
     1
102
RTVSPropertyOp22
 70
     1
102
RTVSPropertyOp23
 70
     1
102
RTVSPropertyOp24
 70
     1
102
RTVSPropertyOp25
 70
     1
102
RTVSPropertyOp26
 70
     1
102
RTVSPropertyOp27
 70
     1
102
RTVSPropertyOp28
 70
     1
102
RTVSPropertyOp29
 70
     1
102
RTVSPropertyOp30
 70
     1
102
RTVSPropertyOp31
 70
     1
102
RTVSPropertyOp32
 70
     1
102
RTVSPropertyOp33
 70
     1
102
RTVSPropertyOp34
 70
     1
102
RTVSPropertyOp35
 70
     1
102
RTVSPropertyOp36
 70
     1
102
RTVSPropertyOp37
 70
     1
102
RTVSPropertyOp38
 70
     1
102
RTVSPropertyOp39
 70
     1
102
RTVSPropertyOp40
 70
     1
102
RTVSPropertyOp41
 70
     1
102
RTVSPropertyOp42
 70
     1
102
RTVSPropertyOp43
 70
     1
102
RTVSPropertyOp44
 70
     1
102
RTVSPropertyOp45
 70
     1
102
RTVSPropertyOp46
 70
     1
102
RTVSPropertyOp47
 70
     1
102
RTVSPropertyOp48
 70
     1
102
RTVSPropertyOp49
 70
     1
102
RTVSPropertyOp50
 70
     1
102
RTVSPropertyOp51
 70
     0
102
RTVSPropertyOp52
 70
     0
102
RTVSPropertyOp53
 70
     1
102
RTVSPropertyOp54
 70
     1
102
RTVSPropertyOp55
 70
     1
102
RTVSPropertyOp56
 70
     1
102
RTVSPropertyOp57
 70
     1
102
RTVSPropertyOp58
 70
     1
102
RTVSPropertyOp59
 70
     1
102
RTVSPropertyOp60
 70
     1
102
RTVSPropertyOp61
 70
     1
102
RTVSPropertyOp62
 70
     1
  0
XRECORD
  5
152A
102
{ACAD_REACTORS
330
1529
102
}
330
1529
100
AcDbXrecord
280
     1
102
RTVSPost2010Prop28
280
     0
102
RTVSPost2010PropOp28
 70
     1
102
RTVSPost2010Prop29
280
     1
102
RTVSPost2010PropOp29
 70
     1
102
RTVSPost2010Prop30
280
     1
102
RTVSPost2010PropOp30
 70
     1
102
RTVSPost2010Prop31
280
     0
102
RTVSPost2010PropOp31
 70
     1
102
RTVSPost2010Prop32
280
     0
102
RTVSPost2010PropOp32
 70
     1
102
RTVSPost2010Prop33
280
     0
102
RTVSPost2010PropOp33
 70
     1
102
RTVSPost2010Prop34
280
     0
102
RTVSPost2010PropOp34
 70
     1
102
RTVSPost2010Prop35
280
     0
102
RTVSPost2010PropOp35
 70
     1
102
RTVSPost2010Prop36
280
     0
102
RTVSPost2010PropOp36
 70
     1
102
RTVSPost2010Prop37
 90
       50
102
RTVSPost2010PropOp37
 70
     1
102
RTVSPost2010Prop38
140
0.0
102
RTVSPost2010PropOp38
 70
     1
102
RTVSPost2010Prop39
140
1.0
102
RTVSPost2010PropOp39
 70
     1
102
RTVSPost2010Prop40
 90
        0
102
RTVSPost2010PropOp40
 70
     1
102
RTVSPost2010Prop41ColorIndex
 90
       18
102
RTVSPost2010Prop41ColorRGB
 90
        0
102
RTVSPost2010PropOp41
 70
     1
102
RTVSPost2010Prop42
 90
       50
102
RTVSPost2010PropOp42
 70
     1
102
RTVSPost2010Prop43
 90
        3
102
RTVSPost2010PropOp43
 70
     1
102
RTVSPost2010Prop44ColorIndex
 90
        5
102
RTVSPost2010Prop44ColorRGB
 90
      255
102
RTVSPost2010PropOp44
 70
     1
102
RTVSPost2010Prop45
280
     0
102
RTVSPost2010PropOp45
 70
     1
102
RTVSPost2010Prop46
 90
       50
102
RTVSPost2010PropOp46
 70
     1
102
RTVSPost2010Prop47
 90
       50
102
RTVSPost2010PropOp47
 70
     1
102
RTVSPost2010Prop48
 90
       50
102
RTVSPost2010PropOp48
 70
     1
102
RTVSPost2010Prop49
280
     0
102
RTVSPost2010PropOp49
 70
     1
102
RTVSPost2010Prop50
 90
       50
102
RTVSPost2010PropOp50
 70
     1
102
RTVSPost2010Prop51ColorIndex
 90
      256
102
RTVSPost2010Prop51ColorRGB
 90
-16777216
102
RTVSPost2010PropOp51
 70
     0
102
RTVSPost2010Prop52
140
1.0
102
RTVSPost2010PropOp52
 70
     0
102
RTVSPost2010Prop53
 90
        2
102
RTVSPost2010PropOp53
 70
     1
102
RTVSPost2010Prop54
  1
strokes_ogs.tif
102
RTVSPost2010PropOp54
 70
     1
102
RTVSPost2010Prop55
280
     0
102
RTVSPost2010PropOp55
 70
     1
102
RTVSPost2010Prop56
140
1.0
102
RTVSPost2010PropOp56
 70
     1
102
RTVSPost2010Prop57
140
1.0
102
RTVSPost2010PropOp57
 70
     1
102
RTVSPropertyOp0
 70
     1
102
RTVSPropertyOp1
 70
     1
102
RTVSPropertyOp2
 70
     1
102
RTVSPropertyOp3
 70
     1
102
RTVSPropertyOp4
 70
     1
102
RTVSPropertyOp5
 70
     1
102
RTVSPropertyOp6
 70
     1
102
RTVSPropertyOp7
 70
     1
102
RTVSPropertyOp8
 70
     1
102
RTVSPropertyOp9
 70
     1
102
RTVSPropertyOp10
 70
     1
102
RTVSPropertyOp11
 70
     1
102
RTVSPropertyOp12
 70
     1
102
RTVSPropertyOp13
 70
     1
102
RTVSPropertyOp14
 70
     1
102
RTVSPropertyOp15
 70
     1
102
RTVSPropertyOp16
 70
     1
102
RTVSPropertyOp17
 70
     1
102
RTVSPropertyOp18
 70
     1
102
RTVSPropertyOp19
 70
     1
102
RTVSPropertyOp20
 70
     1
102
RTVSPropertyOp21
 70
     1
102
RTVSPropertyOp22
 70
     1
102
RTVSPropertyOp23
 70
     1
102
RTVSPropertyOp24
 70
     1
102
RTVSPropertyOp25
 70
     1
102
RTVSPropertyOp26
 70
     1
102
RTVSPropertyOp27
 70
     1
102
RTVSPropertyOp28
 70
     1
102
RTVSPropertyOp29
 70
     1
102
RTVSPropertyOp30
 70
     1
102
RTVSPropertyOp31
 70
     1
102
RTVSPropertyOp32
 70
     1
102
RTVSPropertyOp33
 70
     1
102
RTVSPropertyOp34
 70
     1
102
RTVSPropertyOp35
 70
     1
102
RTVSPropertyOp36
 70
     1
102
RTVSPropertyOp37
 70
     1
102
RTVSPropertyOp38
 70
     1
102
RTVSPropertyOp39
 70
     1
102
RTVSPropertyOp40
 70
     1
102
RTVSPropertyOp41
 70
     1
102
RTVSPropertyOp42
 70
     1
102
RTVSPropertyOp43
 70
     1
102
RTVSPropertyOp44
 70
     1
102
RTVSPropertyOp45
 70
     1
102
RTVSPropertyOp46
 70
     1
102
RTVSPropertyOp47
 70
     1
102
RTVSPropertyOp48
 70
     1
102
RTVSPropertyOp49
 70
     1
102
RTVSPropertyOp50
 70
     1
102
RTVSPropertyOp51
 70
     0
102
RTVSPropertyOp52
 70
     0
102
RTVSPropertyOp53
 70
     1
102
RTVSPropertyOp54
 70
     1
102
RTVSPropertyOp55
 70
     1
102
RTVSPropertyOp56
 70
     1
102
RTVSPropertyOp57
 70
     1
102
RTVSPropertyOp58
 70
     1
102
RTVSPropertyOp59
 70
     1
102
RTVSPropertyOp60
 70
     1
102
RTVSPropertyOp61
 70
     1
102
RTVSPropertyOp62
 70
     1
  0
XRECORD
  5
152C
102
{ACAD_REACTORS
330
152B
102
}
330
152B
100
AcDbXrecord
280
     1
102
RTVSPost2010Prop28
280
     0
102
RTVSPost2010PropOp28
 70
     1
102
RTVSPost2010Prop29
280
     1
102
RTVSPost2010PropOp29
 70
     1
102
RTVSPost2010Prop30
280
     1
102
RTVSPost2010PropOp30
 70
     1
102
RTVSPost2010Prop31
280
     0
102
RTVSPost2010PropOp31
 70
     1
102
RTVSPost2010Prop32
280
     0
102
RTVSPost2010PropOp32
 70
     1
102
RTVSPost2010Prop33
280
     0
102
RTVSPost2010PropOp33
 70
     1
102
RTVSPost2010Prop34
280
     0
102
RTVSPost2010PropOp34
 70
     1
102
RTVSPost2010Prop35
280
     0
102
RTVSPost2010PropOp35
 70
     1
102
RTVSPost2010Prop36
280
     0
102
RTVSPost2010PropOp36
 70
     1
102
RTVSPost2010Prop37
 90
       50
102
RTVSPost2010PropOp37
 70
     1
102
RTVSPost2010Prop38
140
0.0
102
RTVSPost2010PropOp38
 70
     1
102
RTVSPost2010Prop39
140
1.0
102
RTVSPost2010PropOp39
 70
     1
102
RTVSPost2010Prop40
 90
        0
102
RTVSPost2010PropOp40
 70
     1
102
RTVSPost2010Prop41ColorIndex
 90
       18
102
RTVSPost2010Prop41ColorRGB
 90
        0
102
RTVSPost2010PropOp41
 70
     1
102
RTVSPost2010Prop42
 90
       50
102
RTVSPost2010PropOp42
 70
     1
102
RTVSPost2010Prop43
 90
        3
102
RTVSPost2010PropOp43
 70
     1
102
RTVSPost2010Prop44ColorIndex
 90
        5
102
RTVSPost2010Prop44ColorRGB
 90
      255
102
RTVSPost2010PropOp44
 70
     1
102
RTVSPost2010Prop45
280
     0
102
RTVSPost2010PropOp45
 70
     1
102
RTVSPost2010Prop46
 90
       50
102
RTVSPost2010PropOp46
 70
     1
102
RTVSPost2010Prop47
 90
       50
102
RTVSPost2010PropOp47
 70
     1
102
RTVSPost2010Prop48
 90
       50
102
RTVSPost2010PropOp48
 70
     1
102
RTVSPost2010Prop49
280
     0
102
RTVSPost2010PropOp49
 70
     1
102
RTVSPost2010Prop50
 90
       50
102
RTVSPost2010PropOp50
 70
     1
102
RTVSPost2010Prop51ColorIndex
 90
      256
102
RTVSPost2010Prop51ColorRGB
 90
-16777216
102
RTVSPost2010PropOp51
 70
     0
102
RTVSPost2010Prop52
140
1.0
102
RTVSPost2010PropOp52
 70
     0
102
RTVSPost2010Prop53
 90
        2
102
RTVSPost2010PropOp53
 70
     1
102
RTVSPost2010Prop54
  1
strokes_ogs.tif
102
RTVSPost2010PropOp54
 70
     1
102
RTVSPost2010Prop55
280
     0
102
RTVSPost2010PropOp55
 70
     1
102
RTVSPost2010Prop56
140
1.0
102
RTVSPost2010PropOp56
 70
     1
102
RTVSPost2010Prop57
140
1.0
102
RTVSPost2010PropOp57
 70
     1
102
RTVSPropertyOp0
 70
     1
102
RTVSPropertyOp1
 70
     1
102
RTVSPropertyOp2
 70
     1
102
RTVSPropertyOp3
 70
     1
102
RTVSPropertyOp4
 70
     1
102
RTVSPropertyOp5
 70
     1
102
RTVSPropertyOp6
 70
     1
102
RTVSPropertyOp7
 70
     1
102
RTVSPropertyOp8
 70
     1
102
RTVSPropertyOp9
 70
     1
102
RTVSPropertyOp10
 70
     1
102
RTVSPropertyOp11
 70
     1
102
RTVSPropertyOp12
 70
     1
102
RTVSPropertyOp13
 70
     1
102
RTVSPropertyOp14
 70
     1
102
RTVSPropertyOp15
 70
     1
102
RTVSPropertyOp16
 70
     1
102
RTVSPropertyOp17
 70
     1
102
RTVSPropertyOp18
 70
     1
102
RTVSPropertyOp19
 70
     1
102
RTVSPropertyOp20
 70
     1
102
RTVSPropertyOp21
 70
     1
102
RTVSPropertyOp22
 70
     1
102
RTVSPropertyOp23
 70
     1
102
RTVSPropertyOp24
 70
     1
102
RTVSPropertyOp25
 70
     1
102
RTVSPropertyOp26
 70
     1
102
RTVSPropertyOp27
 70
     1
102
RTVSPropertyOp28
 70
     1
102
RTVSPropertyOp29
 70
     1
102
RTVSPropertyOp30
 70
     1
102
RTVSPropertyOp31
 70
     1
102
RTVSPropertyOp32
 70
     1
102
RTVSPropertyOp33
 70
     1
102
RTVSPropertyOp34
 70
     1
102
RTVSPropertyOp35
 70
     1
102
RTVSPropertyOp36
 70
     1
102
RTVSPropertyOp37
 70
     1
102
RTVSPropertyOp38
 70
     1
102
RTVSPropertyOp39
 70
     1
102
RTVSPropertyOp40
 70
     1
102
RTVSPropertyOp41
 70
     1
102
RTVSPropertyOp42
 70
     1
102
RTVSPropertyOp43
 70
     1
102
RTVSPropertyOp44
 70
     1
102
RTVSPropertyOp45
 70
     1
102
RTVSPropertyOp46
 70
     1
102
RTVSPropertyOp47
 70
     1
102
RTVSPropertyOp48
 70
     1
102
RTVSPropertyOp49
 70
     1
102
RTVSPropertyOp50
 70
     1
102
RTVSPropertyOp51
 70
     0
102
RTVSPropertyOp52
 70
     0
102
RTVSPropertyOp53
 70
     1
102
RTVSPropertyOp54
 70
     1
102
RTVSPropertyOp55
 70
     1
102
RTVSPropertyOp56
 70
     1
102
RTVSPropertyOp57
 70
     1
102
RTVSPropertyOp58
 70
     1
102
RTVSPropertyOp59
 70
     1
102
RTVSPropertyOp60
 70
     1
102
RTVSPropertyOp61
 70
     1
102
RTVSPropertyOp62
 70
     1
  0
XRECORD
  5
1534
102
{ACAD_REACTORS
330
1533
102
}
330
1533
100
AcDbXrecord
280
     1
102
RTVSPost2010Prop28
280
     0
102
RTVSPost2010PropOp28
 70
     1
102
RTVSPost2010Prop29
280
     1
102
RTVSPost2010PropOp29
 70
     1
102
RTVSPost2010Prop30
280
     1
102
RTVSPost2010PropOp30
 70
     1
102
RTVSPost2010Prop31
280
     0
102
RTVSPost2010PropOp31
 70
     1
102
RTVSPost2010Prop32
280
     0
102
RTVSPost2010PropOp32
 70
     1
102
RTVSPost2010Prop33
280
     0
102
RTVSPost2010PropOp33
 70
     1
102
RTVSPost2010Prop34
280
     0
102
RTVSPost2010PropOp34
 70
     1
102
RTVSPost2010Prop35
280
     0
102
RTVSPost2010PropOp35
 70
     1
102
RTVSPost2010Prop36
280
     0
102
RTVSPost2010PropOp36
 70
     1
102
RTVSPost2010Prop37
 90
       50
102
RTVSPost2010PropOp37
 70
     1
102
RTVSPost2010Prop38
140
0.0
102
RTVSPost2010PropOp38
 70
     1
102
RTVSPost2010Prop39
140
1.0
102
RTVSPost2010PropOp39
 70
     1
102
RTVSPost2010Prop40
 90
        0
102
RTVSPost2010PropOp40
 70
     1
102
RTVSPost2010Prop41ColorIndex
 90
       18
102
RTVSPost2010Prop41ColorRGB
 90
        0
102
RTVSPost2010PropOp41
 70
     1
102
RTVSPost2010Prop42
 90
       50
102
RTVSPost2010PropOp42
 70
     1
102
RTVSPost2010Prop43
 90
        3
102
RTVSPost2010PropOp43
 70
     1
102
RTVSPost2010Prop44ColorIndex
 90
        5
102
RTVSPost2010Prop44ColorRGB
 90
      255
102
RTVSPost2010PropOp44
 70
     1
102
RTVSPost2010Prop45
280
     0
102
RTVSPost2010PropOp45
 70
     1
102
RTVSPost2010Prop46
 90
       50
102
RTVSPost2010PropOp46
 70
     1
102
RTVSPost2010Prop47
 90
       50
102
RTVSPost2010PropOp47
 70
     1
102
RTVSPost2010Prop48
 90
       50
102
RTVSPost2010PropOp48
 70
     1
102
RTVSPost2010Prop49
280
     0
102
RTVSPost2010PropOp49
 70
     1
102
RTVSPost2010Prop50
 90
       50
102
RTVSPost2010PropOp50
 70
     1
102
RTVSPost2010Prop51ColorIndex
 90
      256
102
RTVSPost2010Prop51ColorRGB
 90
-16777216
102
RTVSPost2010PropOp51
 70
     0
102
RTVSPost2010Prop52
140
1.0
102
RTVSPost2010PropOp52
 70
     0
102
RTVSPost2010Prop53
 90
        2
102
RTVSPost2010PropOp53
 70
     1
102
RTVSPost2010Prop54
  1
strokes_ogs.tif
102
RTVSPost2010PropOp54
 70
     1
102
RTVSPost2010Prop55
280
     0
102
RTVSPost2010PropOp55
 70
     1
102
RTVSPost2010Prop56
140
1.0
102
RTVSPost2010PropOp56
 70
     1
102
RTVSPost2010Prop57
140
1.0
102
RTVSPost2010PropOp57
 70
     1
102
RTVSPropertyOp0
 70
     1
102
RTVSPropertyOp1
 70
     1
102
RTVSPropertyOp2
 70
     1
102
RTVSPropertyOp3
 70
     1
102
RTVSPropertyOp4
 70
     1
102
RTVSPropertyOp5
 70
     1
102
RTVSPropertyOp6
 70
     1
102
RTVSPropertyOp7
 70
     1
102
RTVSPropertyOp8
 70
     1
102
RTVSPropertyOp9
 70
     1
102
RTVSPropertyOp10
 70
     1
102
RTVSPropertyOp11
 70
     1
102
RTVSPropertyOp12
 70
     1
102
RTVSPropertyOp13
 70
     1
102
RTVSPropertyOp14
 70
     1
102
RTVSPropertyOp15
 70
     1
102
RTVSPropertyOp16
 70
     1
102
RTVSPropertyOp17
 70
     1
102
RTVSPropertyOp18
 70
     1
102
RTVSPropertyOp19
 70
     1
102
RTVSPropertyOp20
 70
     1
102
RTVSPropertyOp21
 70
     1
102
RTVSPropertyOp22
 70
     1
102
RTVSPropertyOp23
 70
     1
102
RTVSPropertyOp24
 70
     1
102
RTVSPropertyOp25
 70
     1
102
RTVSPropertyOp26
 70
     1
102
RTVSPropertyOp27
 70
     1
102
RTVSPropertyOp28
 70
     1
102
RTVSPropertyOp29
 70
     1
102
RTVSPropertyOp30
 70
     1
102
RTVSPropertyOp31
 70
     1
102
RTVSPropertyOp32
 70
     1
102
RTVSPropertyOp33
 70
     1
102
RTVSPropertyOp34
 70
     1
102
RTVSPropertyOp35
 70
     1
102
RTVSPropertyOp36
 70
     1
102
RTVSPropertyOp37
 70
     1
102
RTVSPropertyOp38
 70
     1
102
RTVSPropertyOp39
 70
     1
102
RTVSPropertyOp40
 70
     1
102
RTVSPropertyOp41
 70
     1
102
RTVSPropertyOp42
 70
     1
102
RTVSPropertyOp43
 70
     1
102
RTVSPropertyOp44
 70
     1
102
RTVSPropertyOp45
 70
     1
102
RTVSPropertyOp46
 70
     1
102
RTVSPropertyOp47
 70
     1
102
RTVSPropertyOp48
 70
     1
102
RTVSPropertyOp49
 70
     1
102
RTVSPropertyOp50
 70
     1
102
RTVSPropertyOp51
 70
     0
102
RTVSPropertyOp52
 70
     0
102
RTVSPropertyOp53
 70
     1
102
RTVSPropertyOp54
 70
     1
102
RTVSPropertyOp55
 70
     1
102
RTVSPropertyOp56
 70
     1
102
RTVSPropertyOp57
 70
     1
102
RTVSPropertyOp58
 70
     1
102
RTVSPropertyOp59
 70
     1
102
RTVSPropertyOp60
 70
     1
102
RTVSPropertyOp61
 70
     1
102
RTVSPropertyOp62
 70
     1
  0
XRECORD
  5
1550
102
{ACAD_REACTORS
330
154F
102
}
330
154F
100
AcDbXrecord
280
     1
102
RTVSPost2010Prop28
280
     0
102
RTVSPost2010PropOp28
 70
     0
102
RTVSPost2010Prop29
280
     1
102
RTVSPost2010PropOp29
 70
     0
102
RTVSPost2010Prop30
280
     1
102
RTVSPost2010PropOp30
 70
     0
102
RTVSPost2010Prop31
280
     0
102
RTVSPost2010PropOp31
 70
     0
102
RTVSPost2010Prop32
280
     0
102
RTVSPost2010PropOp32
 70
     0
102
RTVSPost2010Prop33
280
     0
102
RTVSPost2010PropOp33
 70
     0
102
RTVSPost2010Prop34
280
     0
102
RTVSPost2010PropOp34
 70
     0
102
RTVSPost2010Prop35
280
     0
102
RTVSPost2010PropOp35
 70
     0
102
RTVSPost2010Prop36
280
     0
102
RTVSPost2010PropOp36
 70
     0
102
RTVSPost2010Prop37
 90
       50
102
RTVSPost2010PropOp37
 70
     0
102
RTVSPost2010Prop38
140
0.0
102
RTVSPost2010PropOp38
 70
     0
102
RTVSPost2010Prop39
140
1.0
102
RTVSPost2010PropOp39
 70
     0
102
RTVSPost2010Prop40
 90
        0
102
RTVSPost2010PropOp40
 70
     0
102
RTVSPost2010Prop41ColorIndex
 90
       18
102
RTVSPost2010Prop41ColorRGB
 90
        0
102
RTVSPost2010PropOp41
 70
     0
102
RTVSPost2010Prop42
 90
       50
102
RTVSPost2010PropOp42
 70
     0
102
RTVSPost2010Prop43
 90
        3
102
RTVSPost2010PropOp43
 70
     0
102
RTVSPost2010Prop44ColorIndex
 90
        5
102
RTVSPost2010Prop44ColorRGB
 90
      255
102
RTVSPost2010PropOp44
 70
     0
102
RTVSPost2010Prop45
280
     0
102
RTVSPost2010PropOp45
 70
     0
102
RTVSPost2010Prop46
 90
       50
102
RTVSPost2010PropOp46
 70
     0
102
RTVSPost2010Prop47
 90
       50
102
RTVSPost2010PropOp47
 70
     0
102
RTVSPost2010Prop48
 90
       50
102
RTVSPost2010PropOp48
 70
     0
102
RTVSPost2010Prop49
280
     0
102
RTVSPost2010PropOp49
 70
     0
102
RTVSPost2010Prop50
 90
       50
102
RTVSPost2010PropOp50
 70
     0
102
RTVSPost2010Prop51ColorIndex
 90
      256
102
RTVSPost2010Prop51ColorRGB
 90
-16777216
102
RTVSPost2010PropOp51
 70
     0
102
RTVSPost2010Prop52
140
1.0
102
RTVSPost2010PropOp52
 70
     0
102
RTVSPost2010Prop53
 90
        2
102
RTVSPost2010PropOp53
 70
     0
102
RTVSPost2010Prop54
  1
strokes_ogs.tif
102
RTVSPost2010PropOp54
 70
     0
102
RTVSPost2010Prop55
280
     0
102
RTVSPost2010PropOp55
 70
     0
102
RTVSPost2010Prop56
140
1.0
102
RTVSPost2010PropOp56
 70
     0
102
RTVSPost2010Prop57
140
1.0
102
RTVSPost2010PropOp57
 70
     0
102
RTVSPropertyOp0
 70
     0
102
RTVSPropertyOp1
 70
     0
102
RTVSPropertyOp2
 70
     0
102
RTVSPropertyOp3
 70
     0
102
RTVSPropertyOp4
 70
     0
102
RTVSPropertyOp5
 70
     0
102
RTVSPropertyOp6
 70
     0
102
RTVSPropertyOp7
 70
     0
102
RTVSPropertyOp8
 70
     0
102
RTVSPropertyOp9
 70
     0
102
RTVSPropertyOp10
 70
     0
102
RTVSPropertyOp11
 70
     0
102
RTVSPropertyOp12
 70
     0
102
RTVSPropertyOp13
 70
     0
102
RTVSPropertyOp14
 70
     2
102
RTVSPropertyOp15
 70
     0
102
RTVSPropertyOp16
 70
     0
102
RTVSPropertyOp17
 70
     0
102
RTVSPropertyOp18
 70
     0
102
RTVSPropertyOp19
 70
     0
102
RTVSPropertyOp20
 70
     0
102
RTVSPropertyOp21
 70
     0
102
RTVSPropertyOp22
 70
     0
102
RTVSPropertyOp23
 70
     0
102
RTVSPropertyOp24
 70
     0
102
RTVSPropertyOp25
 70
     0
102
RTVSPropertyOp26
 70
     0
102
RTVSPropertyOp27
 70
     0
102
RTVSPropertyOp28
 70
     0
102
RTVSPropertyOp29
 70
     0
102
RTVSPropertyOp30
 70
     0
102
RTVSPropertyOp31
 70
     0
102
RTVSPropertyOp32
 70
     0
102
RTVSPropertyOp33
 70
     0
102
RTVSPropertyOp34
 70
     0
102
RTVSPropertyOp35
 70
     0
102
RTVSPropertyOp36
 70
     0
102
RTVSPropertyOp37
 70
     0
102
RTVSPropertyOp38
 70
     0
102
RTVSPropertyOp39
 70
     0
102
RTVSPropertyOp40
 70
     0
102
RTVSPropertyOp41
 70
     0
102
RTVSPropertyOp42
 70
     0
102
RTVSPropertyOp43
 70
     0
102
RTVSPropertyOp44
 70
     0
102
RTVSPropertyOp45
 70
     0
102
RTVSPropertyOp46
 70
     0
102
RTVSPropertyOp47
 70
     0
102
RTVSPropertyOp48
 70
     0
102
RTVSPropertyOp49
 70
     0
102
RTVSPropertyOp50
 70
     0
102
RTVSPropertyOp51
 70
     0
102
RTVSPropertyOp52
 70
     0
102
RTVSPropertyOp53
 70
     0
102
RTVSPropertyOp54
 70
     0
102
RTVSPropertyOp55
 70
     0
102
RTVSPropertyOp56
 70
     0
102
RTVSPropertyOp57
 70
     0
102
RTVSPropertyOp58
 70
     0
102
RTVSPropertyOp59
 70
     0
102
RTVSPropertyOp60
 70
     0
102
RTVSPropertyOp61
 70
     0
102
RTVSPropertyOp62
 70
     0
  0
XRECORD
  5
1540
102
{ACAD_REACTORS
330
153F
102
}
330
153F
100
AcDbXrecord
280
     1
102
RTVSPost2010Prop28
280
     0
102
RTVSPost2010PropOp28
 70
     1
102
RTVSPost2010Prop29
280
     1
102
RTVSPost2010PropOp29
 70
     1
102
RTVSPost2010Prop30
280
     1
102
RTVSPost2010PropOp30
 70
     1
102
RTVSPost2010Prop31
280
     0
102
RTVSPost2010PropOp31
 70
     1
102
RTVSPost2010Prop32
280
     0
102
RTVSPost2010PropOp32
 70
     1
102
RTVSPost2010Prop33
280
     0
102
RTVSPost2010PropOp33
 70
     1
102
RTVSPost2010Prop34
280
     0
102
RTVSPost2010PropOp34
 70
     1
102
RTVSPost2010Prop35
280
     0
102
RTVSPost2010PropOp35
 70
     1
102
RTVSPost2010Prop36
280
     0
102
RTVSPost2010PropOp36
 70
     1
102
RTVSPost2010Prop37
 90
       50
102
RTVSPost2010PropOp37
 70
     1
102
RTVSPost2010Prop38
140
0.0
102
RTVSPost2010PropOp38
 70
     1
102
RTVSPost2010Prop39
140
1.0
102
RTVSPost2010PropOp39
 70
     1
102
RTVSPost2010Prop40
 90
        0
102
RTVSPost2010PropOp40
 70
     1
102
RTVSPost2010Prop41ColorIndex
 90
       18
102
RTVSPost2010Prop41ColorRGB
 90
        0
102
RTVSPost2010PropOp41
 70
     1
102
RTVSPost2010Prop42
 90
       50
102
RTVSPost2010PropOp42
 70
     1
102
RTVSPost2010Prop43
 90
        3
102
RTVSPost2010PropOp43
 70
     1
102
RTVSPost2010Prop44ColorIndex
 90
        5
102
RTVSPost2010Prop44ColorRGB
 90
      255
102
RTVSPost2010PropOp44
 70
     1
102
RTVSPost2010Prop45
280
     0
102
RTVSPost2010PropOp45
 70
     1
102
RTVSPost2010Prop46
 90
       50
102
RTVSPost2010PropOp46
 70
     1
102
RTVSPost2010Prop47
 90
       50
102
RTVSPost2010PropOp47
 70
     1
102
RTVSPost2010Prop48
 90
       50
102
RTVSPost2010PropOp48
 70
     1
102
RTVSPost2010Prop49
280
     0
102
RTVSPost2010PropOp49
 70
     1
102
RTVSPost2010Prop50
 90
       50
102
RTVSPost2010PropOp50
 70
     1
102
RTVSPost2010Prop51ColorIndex
 90
      256
102
RTVSPost2010Prop51ColorRGB
 90
-16777216
102
RTVSPost2010PropOp51
 70
     0
102
RTVSPost2010Prop52
140
1.0
102
RTVSPost2010PropOp52
 70
     0
102
RTVSPost2010Prop53
 90
        2
102
RTVSPost2010PropOp53
 70
     1
102
RTVSPost2010Prop54
  1
strokes_ogs.tif
102
RTVSPost2010PropOp54
 70
     1
102
RTVSPost2010Prop55
280
     0
102
RTVSPost2010PropOp55
 70
     1
102
RTVSPost2010Prop56
140
1.0
102
RTVSPost2010PropOp56
 70
     1
102
RTVSPost2010Prop57
140
1.0
102
RTVSPost2010PropOp57
 70
     1
102
RTVSPropertyOp0
 70
     1
102
RTVSPropertyOp1
 70
     1
102
RTVSPropertyOp2
 70
     1
102
RTVSPropertyOp3
 70
     1
102
RTVSPropertyOp4
 70
     1
102
RTVSPropertyOp5
 70
     1
102
RTVSPropertyOp6
 70
     1
102
RTVSPropertyOp7
 70
     1
102
RTVSPropertyOp8
 70
     1
102
RTVSPropertyOp9
 70
     1
102
RTVSPropertyOp10
 70
     1
102
RTVSPropertyOp11
 70
     1
102
RTVSPropertyOp12
 70
     1
102
RTVSPropertyOp13
 70
     1
102
RTVSPropertyOp14
 70
     1
102
RTVSPropertyOp15
 70
     1
102
RTVSPropertyOp16
 70
     1
102
RTVSPropertyOp17
 70
     1
102
RTVSPropertyOp18
 70
     1
102
RTVSPropertyOp19
 70
     1
102
RTVSPropertyOp20
 70
     1
102
RTVSPropertyOp21
 70
     1
102
RTVSPropertyOp22
 70
     1
102
RTVSPropertyOp23
 70
     1
102
RTVSPropertyOp24
 70
     1
102
RTVSPropertyOp25
 70
     1
102
RTVSPropertyOp26
 70
     1
102
RTVSPropertyOp27
 70
     1
102
RTVSPropertyOp28
 70
     1
102
RTVSPropertyOp29
 70
     1
102
RTVSPropertyOp30
 70
     1
102
RTVSPropertyOp31
 70
     1
102
RTVSPropertyOp32
 70
     1
102
RTVSPropertyOp33
 70
     1
102
RTVSPropertyOp34
 70
     1
102
RTVSPropertyOp35
 70
     1
102
RTVSPropertyOp36
 70
     1
102
RTVSPropertyOp37
 70
     1
102
RTVSPropertyOp38
 70
     1
102
RTVSPropertyOp39
 70
     1
102
RTVSPropertyOp40
 70
     1
102
RTVSPropertyOp41
 70
     1
102
RTVSPropertyOp42
 70
     1
102
RTVSPropertyOp43
 70
     1
102
RTVSPropertyOp44
 70
     1
102
RTVSPropertyOp45
 70
     1
102
RTVSPropertyOp46
 70
     1
102
RTVSPropertyOp47
 70
     1
102
RTVSPropertyOp48
 70
     1
102
RTVSPropertyOp49
 70
     1
102
RTVSPropertyOp50
 70
     1
102
RTVSPropertyOp51
 70
     0
102
RTVSPropertyOp52
 70
     0
102
RTVSPropertyOp53
 70
     1
102
RTVSPropertyOp54
 70
     1
102
RTVSPropertyOp55
 70
     1
102
RTVSPropertyOp56
 70
     1
102
RTVSPropertyOp57
 70
     1
102
RTVSPropertyOp58
 70
     1
102
RTVSPropertyOp59
 70
     1
102
RTVSPropertyOp60
 70
     1
102
RTVSPropertyOp61
 70
     1
102
RTVSPropertyOp62
 70
     1
  0
XRECORD
  5
1552
102
{ACAD_REACTORS
330
1551
102
}
330
1551
100
AcDbXrecord
280
     1
102
RTVSPost2010Prop28
280
     0
102
RTVSPost2010PropOp28
 70
     0
102
RTVSPost2010Prop29
280
     1
102
RTVSPost2010PropOp29
 70
     0
102
RTVSPost2010Prop30
280
     1
102
RTVSPost2010PropOp30
 70
     0
102
RTVSPost2010Prop31
280
     0
102
RTVSPost2010PropOp31
 70
     0
102
RTVSPost2010Prop32
280
     0
102
RTVSPost2010PropOp32
 70
     0
102
RTVSPost2010Prop33
280
     0
102
RTVSPost2010PropOp33
 70
     0
102
RTVSPost2010Prop34
280
     0
102
RTVSPost2010PropOp34
 70
     0
102
RTVSPost2010Prop35
280
     0
102
RTVSPost2010PropOp35
 70
     0
102
RTVSPost2010Prop36
280
     0
102
RTVSPost2010PropOp36
 70
     0
102
RTVSPost2010Prop37
 90
       50
102
RTVSPost2010PropOp37
 70
     0
102
RTVSPost2010Prop38
140
0.0
102
RTVSPost2010PropOp38
 70
     0
102
RTVSPost2010Prop39
140
1.0
102
RTVSPost2010PropOp39
 70
     0
102
RTVSPost2010Prop40
 90
        0
102
RTVSPost2010PropOp40
 70
     0
102
RTVSPost2010Prop41ColorIndex
 90
       18
102
RTVSPost2010Prop41ColorRGB
 90
        0
102
RTVSPost2010PropOp41
 70
     0
102
RTVSPost2010Prop42
 90
       50
102
RTVSPost2010PropOp42
 70
     0
102
RTVSPost2010Prop43
 90
        3
102
RTVSPost2010PropOp43
 70
     0
102
RTVSPost2010Prop44ColorIndex
 90
        5
102
RTVSPost2010Prop44ColorRGB
 90
      255
102
RTVSPost2010PropOp44
 70
     0
102
RTVSPost2010Prop45
280
     0
102
RTVSPost2010PropOp45
 70
     0
102
RTVSPost2010Prop46
 90
       50
102
RTVSPost2010PropOp46
 70
     0
102
RTVSPost2010Prop47
 90
       50
102
RTVSPost2010PropOp47
 70
     0
102
RTVSPost2010Prop48
 90
       50
102
RTVSPost2010PropOp48
 70
     0
102
RTVSPost2010Prop49
280
     0
102
RTVSPost2010PropOp49
 70
     0
102
RTVSPost2010Prop50
 90
       50
102
RTVSPost2010PropOp50
 70
     0
102
RTVSPost2010Prop51ColorIndex
 90
      256
102
RTVSPost2010Prop51ColorRGB
 90
-16777216
102
RTVSPost2010PropOp51
 70
     0
102
RTVSPost2010Prop52
140
1.0
102
RTVSPost2010PropOp52
 70
     0
102
RTVSPost2010Prop53
 90
        2
102
RTVSPost2010PropOp53
 70
     0
102
RTVSPost2010Prop54
  1
strokes_ogs.tif
102
RTVSPost2010PropOp54
 70
     0
102
RTVSPost2010Prop55
280
     0
102
RTVSPost2010PropOp55
 70
     0
102
RTVSPost2010Prop56
140
1.0
102
RTVSPost2010PropOp56
 70
     0
102
RTVSPost2010Prop57
140
1.0
102
RTVSPost2010PropOp57
 70
     0
102
RTVSPropertyOp0
 70
     0
102
RTVSPropertyOp1
 70
     0
102
RTVSPropertyOp2
 70
     0
102
RTVSPropertyOp3
 70
     0
102
RTVSPropertyOp4
 70
     0
102
RTVSPropertyOp5
 70
     0
102
RTVSPropertyOp6
 70
     0
102
RTVSPropertyOp7
 70
     0
102
RTVSPropertyOp8
 70
     0
102
RTVSPropertyOp9
 70
     0
102
RTVSPropertyOp10
 70
     0
102
RTVSPropertyOp11
 70
     0
102
RTVSPropertyOp12
 70
     0
102
RTVSPropertyOp13
 70
     0
102
RTVSPropertyOp14
 70
     2
102
RTVSPropertyOp15
 70
     0
102
RTVSPropertyOp16
 70
     0
102
RTVSPropertyOp17
 70
     0
102
RTVSPropertyOp18
 70
     0
102
RTVSPropertyOp19
 70
     0
102
RTVSPropertyOp20
 70
     0
102
RTVSPropertyOp21
 70
     0
102
RTVSPropertyOp22
 70
     0
102
RTVSPropertyOp23
 70
     0
102
RTVSPropertyOp24
 70
     0
102
RTVSPropertyOp25
 70
     0
102
RTVSPropertyOp26
 70
     0
102
RTVSPropertyOp27
 70
     0
102
RTVSPropertyOp28
 70
     0
102
RTVSPropertyOp29
 70
     0
102
RTVSPropertyOp30
 70
     0
102
RTVSPropertyOp31
 70
     0
102
RTVSPropertyOp32
 70
     0
102
RTVSPropertyOp33
 70
     0
102
RTVSPropertyOp34
 70
     0
102
RTVSPropertyOp35
 70
     0
102
RTVSPropertyOp36
 70
     0
102
RTVSPropertyOp37
 70
     0
102
RTVSPropertyOp38
 70
     0
102
RTVSPropertyOp39
 70
     0
102
RTVSPropertyOp40
 70
     0
102
RTVSPropertyOp41
 70
     0
102
RTVSPropertyOp42
 70
     0
102
RTVSPropertyOp43
 70
     0
102
RTVSPropertyOp44
 70
     0
102
RTVSPropertyOp45
 70
     0
102
RTVSPropertyOp46
 70
     0
102
RTVSPropertyOp47
 70
     0
102
RTVSPropertyOp48
 70
     0
102
RTVSPropertyOp49
 70
     0
102
RTVSPropertyOp50
 70
     0
102
RTVSPropertyOp51
 70
     0
102
RTVSPropertyOp52
 70
     0
102
RTVSPropertyOp53
 70
     0
102
RTVSPropertyOp54
 70
     0
102
RTVSPropertyOp55
 70
     0
102
RTVSPropertyOp56
 70
     0
102
RTVSPropertyOp57
 70
     0
102
RTVSPropertyOp58
 70
     0
102
RTVSPropertyOp59
 70
     0
102
RTVSPropertyOp60
 70
     0
102
RTVSPropertyOp61
 70
     0
102
RTVSPropertyOp62
 70
     0
  0
XRECORD
  5
1538
102
{ACAD_REACTORS
330
1537
102
}
330
1537
100
AcDbXrecord
280
     1
102
RTVSPost2010Prop28
280
     0
102
RTVSPost2010PropOp28
 70
     1
102
RTVSPost2010Prop29
280
     1
102
RTVSPost2010PropOp29
 70
     1
102
RTVSPost2010Prop30
280
     1
102
RTVSPost2010PropOp30
 70
     1
102
RTVSPost2010Prop31
280
     0
102
RTVSPost2010PropOp31
 70
     1
102
RTVSPost2010Prop32
280
     0
102
RTVSPost2010PropOp32
 70
     1
102
RTVSPost2010Prop33
280
     0
102
RTVSPost2010PropOp33
 70
     1
102
RTVSPost2010Prop34
280
     0
102
RTVSPost2010PropOp34
 70
     1
102
RTVSPost2010Prop35
280
     0
102
RTVSPost2010PropOp35
 70
     1
102
RTVSPost2010Prop36
280
     0
102
RTVSPost2010PropOp36
 70
     1
102
RTVSPost2010Prop37
 90
       50
102
RTVSPost2010PropOp37
 70
     1
102
RTVSPost2010Prop38
140
0.0
102
RTVSPost2010PropOp38
 70
     1
102
RTVSPost2010Prop39
140
1.0
102
RTVSPost2010PropOp39
 70
     1
102
RTVSPost2010Prop40
 90
        0
102
RTVSPost2010PropOp40
 70
     1
102
RTVSPost2010Prop41ColorIndex
 90
       18
102
RTVSPost2010Prop41ColorRGB
 90
        0
102
RTVSPost2010PropOp41
 70
     1
102
RTVSPost2010Prop42
 90
       50
102
RTVSPost2010PropOp42
 70
     1
102
RTVSPost2010Prop43
 90
        3
102
RTVSPost2010PropOp43
 70
     1
102
RTVSPost2010Prop44ColorIndex
 90
        5
102
RTVSPost2010Prop44ColorRGB
 90
      255
102
RTVSPost2010PropOp44
 70
     1
102
RTVSPost2010Prop45
280
     0
102
RTVSPost2010PropOp45
 70
     1
102
RTVSPost2010Prop46
 90
       50
102
RTVSPost2010PropOp46
 70
     1
102
RTVSPost2010Prop47
 90
       50
102
RTVSPost2010PropOp47
 70
     1
102
RTVSPost2010Prop48
 90
       50
102
RTVSPost2010PropOp48
 70
     1
102
RTVSPost2010Prop49
280
     0
102
RTVSPost2010PropOp49
 70
     1
102
RTVSPost2010Prop50
 90
       50
102
RTVSPost2010PropOp50
 70
     1
102
RTVSPost2010Prop51ColorIndex
 90
      256
102
RTVSPost2010Prop51ColorRGB
 90
-16777216
102
RTVSPost2010PropOp51
 70
     0
102
RTVSPost2010Prop52
140
1.0
102
RTVSPost2010PropOp52
 70
     0
102
RTVSPost2010Prop53
 90
        2
102
RTVSPost2010PropOp53
 70
     1
102
RTVSPost2010Prop54
  1
strokes_ogs.tif
102
RTVSPost2010PropOp54
 70
     1
102
RTVSPost2010Prop55
280
     0
102
RTVSPost2010PropOp55
 70
     1
102
RTVSPost2010Prop56
140
1.0
102
RTVSPost2010PropOp56
 70
     1
102
RTVSPost2010Prop57
140
1.0
102
RTVSPost2010PropOp57
 70
     1
102
RTVSPropertyOp0
 70
     1
102
RTVSPropertyOp1
 70
     1
102
RTVSPropertyOp2
 70
     1
102
RTVSPropertyOp3
 70
     1
102
RTVSPropertyOp4
 70
     1
102
RTVSPropertyOp5
 70
     1
102
RTVSPropertyOp6
 70
     1
102
RTVSPropertyOp7
 70
     1
102
RTVSPropertyOp8
 70
     1
102
RTVSPropertyOp9
 70
     1
102
RTVSPropertyOp10
 70
     1
102
RTVSPropertyOp11
 70
     1
102
RTVSPropertyOp12
 70
     1
102
RTVSPropertyOp13
 70
     1
102
RTVSPropertyOp14
 70
     1
102
RTVSPropertyOp15
 70
     1
102
RTVSPropertyOp16
 70
     1
102
RTVSPropertyOp17
 70
     1
102
RTVSPropertyOp18
 70
     1
102
RTVSPropertyOp19
 70
     1
102
RTVSPropertyOp20
 70
     1
102
RTVSPropertyOp21
 70
     1
102
RTVSPropertyOp22
 70
     1
102
RTVSPropertyOp23
 70
     1
102
RTVSPropertyOp24
 70
     1
102
RTVSPropertyOp25
 70
     1
102
RTVSPropertyOp26
 70
     1
102
RTVSPropertyOp27
 70
     1
102
RTVSPropertyOp28
 70
     1
102
RTVSPropertyOp29
 70
     1
102
RTVSPropertyOp30
 70
     1
102
RTVSPropertyOp31
 70
     1
102
RTVSPropertyOp32
 70
     1
102
RTVSPropertyOp33
 70
     1
102
RTVSPropertyOp34
 70
     1
102
RTVSPropertyOp35
 70
     1
102
RTVSPropertyOp36
 70
     1
102
RTVSPropertyOp37
 70
     1
102
RTVSPropertyOp38
 70
     1
102
RTVSPropertyOp39
 70
     1
102
RTVSPropertyOp40
 70
     1
102
RTVSPropertyOp41
 70
     1
102
RTVSPropertyOp42
 70
     1
102
RTVSPropertyOp43
 70
     1
102
RTVSPropertyOp44
 70
     1
102
RTVSPropertyOp45
 70
     1
102
RTVSPropertyOp46
 70
     1
102
RTVSPropertyOp47
 70
     1
102
RTVSPropertyOp48
 70
     1
102
RTVSPropertyOp49
 70
     1
102
RTVSPropertyOp50
 70
     1
102
RTVSPropertyOp51
 70
     0
102
RTVSPropertyOp52
 70
     0
102
RTVSPropertyOp53
 70
     1
102
RTVSPropertyOp54
 70
     1
102
RTVSPropertyOp55
 70
     1
102
RTVSPropertyOp56
 70
     1
102
RTVSPropertyOp57
 70
     1
102
RTVSPropertyOp58
 70
     1
102
RTVSPropertyOp59
 70
     1
102
RTVSPropertyOp60
 70
     1
102
RTVSPropertyOp61
 70
     1
102
RTVSPropertyOp62
 70
     1
  0
XRECORD
  5
154E
102
{ACAD_REACTORS
330
154D
102
}
330
154D
100
AcDbXrecord
280
     1
102
RTVSPost2010Prop28
280
     0
102
RTVSPost2010PropOp28
 70
     1
102
RTVSPost2010Prop29
280
     1
102
RTVSPost2010PropOp29
 70
     1
102
RTVSPost2010Prop30
280
     1
102
RTVSPost2010PropOp30
 70
     1
102
RTVSPost2010Prop31
280
     0
102
RTVSPost2010PropOp31
 70
     1
102
RTVSPost2010Prop32
280
     0
102
RTVSPost2010PropOp32
 70
     1
102
RTVSPost2010Prop33
280
     0
102
RTVSPost2010PropOp33
 70
     1
102
RTVSPost2010Prop34
280
     0
102
RTVSPost2010PropOp34
 70
     1
102
RTVSPost2010Prop35
280
     0
102
RTVSPost2010PropOp35
 70
     1
102
RTVSPost2010Prop36
280
     0
102
RTVSPost2010PropOp36
 70
     1
102
RTVSPost2010Prop37
 90
       50
102
RTVSPost2010PropOp37
 70
     1
102
RTVSPost2010Prop38
140
0.0
102
RTVSPost2010PropOp38
 70
     1
102
RTVSPost2010Prop39
140
1.0
102
RTVSPost2010PropOp39
 70
     1
102
RTVSPost2010Prop40
 90
        0
102
RTVSPost2010PropOp40
 70
     1
102
RTVSPost2010Prop41ColorIndex
 90
       18
102
RTVSPost2010Prop41ColorRGB
 90
        0
102
RTVSPost2010PropOp41
 70
     1
102
RTVSPost2010Prop42
 90
       50
102
RTVSPost2010PropOp42
 70
     1
102
RTVSPost2010Prop43
 90
        3
102
RTVSPost2010PropOp43
 70
     1
102
RTVSPost2010Prop44ColorIndex
 90
        5
102
RTVSPost2010Prop44ColorRGB
 90
      255
102
RTVSPost2010PropOp44
 70
     1
102
RTVSPost2010Prop45
280
     0
102
RTVSPost2010PropOp45
 70
     1
102
RTVSPost2010Prop46
 90
       50
102
RTVSPost2010PropOp46
 70
     1
102
RTVSPost2010Prop47
 90
       50
102
RTVSPost2010PropOp47
 70
     1
102
RTVSPost2010Prop48
 90
       50
102
RTVSPost2010PropOp48
 70
     1
102
RTVSPost2010Prop49
280
     0
102
RTVSPost2010PropOp49
 70
     1
102
RTVSPost2010Prop50
 90
       50
102
RTVSPost2010PropOp50
 70
     1
102
RTVSPost2010Prop51ColorIndex
 90
      256
102
RTVSPost2010Prop51ColorRGB
 90
-16777216
102
RTVSPost2010PropOp51
 70
     0
102
RTVSPost2010Prop52
140
1.0
102
RTVSPost2010PropOp52
 70
     0
102
RTVSPost2010Prop53
 90
        2
102
RTVSPost2010PropOp53
 70
     1
102
RTVSPost2010Prop54
  1
strokes_ogs.tif
102
RTVSPost2010PropOp54
 70
     1
102
RTVSPost2010Prop55
280
     0
102
RTVSPost2010PropOp55
 70
     1
102
RTVSPost2010Prop56
140
1.0
102
RTVSPost2010PropOp56
 70
     1
102
RTVSPost2010Prop57
140
1.0
102
RTVSPost2010PropOp57
 70
     1
102
RTVSPropertyOp0
 70
     1
102
RTVSPropertyOp1
 70
     1
102
RTVSPropertyOp2
 70
     1
102
RTVSPropertyOp3
 70
     1
102
RTVSPropertyOp4
 70
     1
102
RTVSPropertyOp5
 70
     1
102
RTVSPropertyOp6
 70
     1
102
RTVSPropertyOp7
 70
     1
102
RTVSPropertyOp8
 70
     1
102
RTVSPropertyOp9
 70
     1
102
RTVSPropertyOp10
 70
     1
102
RTVSPropertyOp11
 70
     1
102
RTVSPropertyOp12
 70
     1
102
RTVSPropertyOp13
 70
     1
102
RTVSPropertyOp14
 70
     1
102
RTVSPropertyOp15
 70
     1
102
RTVSPropertyOp16
 70
     1
102
RTVSPropertyOp17
 70
     1
102
RTVSPropertyOp18
 70
     1
102
RTVSPropertyOp19
 70
     1
102
RTVSPropertyOp20
 70
     1
102
RTVSPropertyOp21
 70
     1
102
RTVSPropertyOp22
 70
     1
102
RTVSPropertyOp23
 70
     1
102
RTVSPropertyOp24
 70
     1
102
RTVSPropertyOp25
 70
     1
102
RTVSPropertyOp26
 70
     1
102
RTVSPropertyOp27
 70
     1
102
RTVSPropertyOp28
 70
     1
102
RTVSPropertyOp29
 70
     1
102
RTVSPropertyOp30
 70
     1
102
RTVSPropertyOp31
 70
     1
102
RTVSPropertyOp32
 70
     1
102
RTVSPropertyOp33
 70
     1
102
RTVSPropertyOp34
 70
     1
102
RTVSPropertyOp35
 70
     1
102
RTVSPropertyOp36
 70
     1
102
RTVSPropertyOp37
 70
     1
102
RTVSPropertyOp38
 70
     1
102
RTVSPropertyOp39
 70
     1
102
RTVSPropertyOp40
 70
     1
102
RTVSPropertyOp41
 70
     1
102
RTVSPropertyOp42
 70
     1
102
RTVSPropertyOp43
 70
     1
102
RTVSPropertyOp44
 70
     1
102
RTVSPropertyOp45
 70
     1
102
RTVSPropertyOp46
 70
     1
102
RTVSPropertyOp47
 70
     1
102
RTVSPropertyOp48
 70
     1
102
RTVSPropertyOp49
 70
     1
102
RTVSPropertyOp50
 70
     1
102
RTVSPropertyOp51
 70
     0
102
RTVSPropertyOp52
 70
     0
102
RTVSPropertyOp53
 70
     1
102
RTVSPropertyOp54
 70
     1
102
RTVSPropertyOp55
 70
     1
102
RTVSPropertyOp56
 70
     1
102
RTVSPropertyOp57
 70
     1
102
RTVSPropertyOp58
 70
     1
102
RTVSPropertyOp59
 70
     1
102
RTVSPropertyOp60
 70
     1
102
RTVSPropertyOp61
 70
     1
102
RTVSPropertyOp62
 70
     1
  0
XRECORD
  5
154C
102
{ACAD_REACTORS
330
154B
102
}
330
154B
100
AcDbXrecord
280
     1
102
RTVSPost2010Prop28
280
     0
102
RTVSPost2010PropOp28
 70
     1
102
RTVSPost2010Prop29
280
     1
102
RTVSPost2010PropOp29
 70
     1
102
RTVSPost2010Prop30
280
     1
102
RTVSPost2010PropOp30
 70
     1
102
RTVSPost2010Prop31
280
     0
102
RTVSPost2010PropOp31
 70
     1
102
RTVSPost2010Prop32
280
     0
102
RTVSPost2010PropOp32
 70
     1
102
RTVSPost2010Prop33
280
     0
102
RTVSPost2010PropOp33
 70
     1
102
RTVSPost2010Prop34
280
     0
102
RTVSPost2010PropOp34
 70
     1
102
RTVSPost2010Prop35
280
     0
102
RTVSPost2010PropOp35
 70
     1
102
RTVSPost2010Prop36
280
     0
102
RTVSPost2010PropOp36
 70
     1
102
RTVSPost2010Prop37
 90
       50
102
RTVSPost2010PropOp37
 70
     1
102
RTVSPost2010Prop38
140
0.0
102
RTVSPost2010PropOp38
 70
     1
102
RTVSPost2010Prop39
140
1.0
102
RTVSPost2010PropOp39
 70
     1
102
RTVSPost2010Prop40
 90
        0
102
RTVSPost2010PropOp40
 70
     1
102
RTVSPost2010Prop41ColorIndex
 90
       18
102
RTVSPost2010Prop41ColorRGB
 90
        0
102
RTVSPost2010PropOp41
 70
     1
102
RTVSPost2010Prop42
 90
       50
102
RTVSPost2010PropOp42
 70
     1
102
RTVSPost2010Prop43
 90
        3
102
RTVSPost2010PropOp43
 70
     1
102
RTVSPost2010Prop44ColorIndex
 90
        5
102
RTVSPost2010Prop44ColorRGB
 90
      255
102
RTVSPost2010PropOp44
 70
     1
102
RTVSPost2010Prop45
280
     0
102
RTVSPost2010PropOp45
 70
     1
102
RTVSPost2010Prop46
 90
       50
102
RTVSPost2010PropOp46
 70
     1
102
RTVSPost2010Prop47
 90
       50
102
RTVSPost2010PropOp47
 70
     1
102
RTVSPost2010Prop48
 90
       50
102
RTVSPost2010PropOp48
 70
     1
102
RTVSPost2010Prop49
280
     0
102
RTVSPost2010PropOp49
 70
     1
102
RTVSPost2010Prop50
 90
       50
102
RTVSPost2010PropOp50
 70
     1
102
RTVSPost2010Prop51ColorIndex
 90
      256
102
RTVSPost2010Prop51ColorRGB
 90
-16777216
102
RTVSPost2010PropOp51
 70
     0
102
RTVSPost2010Prop52
140
1.0
102
RTVSPost2010PropOp52
 70
     0
102
RTVSPost2010Prop53
 90
        2
102
RTVSPost2010PropOp53
 70
     1
102
RTVSPost2010Prop54
  1
strokes_ogs.tif
102
RTVSPost2010PropOp54
 70
     1
102
RTVSPost2010Prop55
280
     0
102
RTVSPost2010PropOp55
 70
     1
102
RTVSPost2010Prop56
140
1.0
102
RTVSPost2010PropOp56
 70
     1
102
RTVSPost2010Prop57
140
1.0
102
RTVSPost2010PropOp57
 70
     1
102
RTVSPropertyOp0
 70
     1
102
RTVSPropertyOp1
 70
     1
102
RTVSPropertyOp2
 70
     1
102
RTVSPropertyOp3
 70
     1
102
RTVSPropertyOp4
 70
     1
102
RTVSPropertyOp5
 70
     1
102
RTVSPropertyOp6
 70
     1
102
RTVSPropertyOp7
 70
     1
102
RTVSPropertyOp8
 70
     1
102
RTVSPropertyOp9
 70
     1
102
RTVSPropertyOp10
 70
     1
102
RTVSPropertyOp11
 70
     1
102
RTVSPropertyOp12
 70
     1
102
RTVSPropertyOp13
 70
     1
102
RTVSPropertyOp14
 70
     1
102
RTVSPropertyOp15
 70
     1
102
RTVSPropertyOp16
 70
     1
102
RTVSPropertyOp17
 70
     1
102
RTVSPropertyOp18
 70
     1
102
RTVSPropertyOp19
 70
     1
102
RTVSPropertyOp20
 70
     1
102
RTVSPropertyOp21
 70
     1
102
RTVSPropertyOp22
 70
     1
102
RTVSPropertyOp23
 70
     1
102
RTVSPropertyOp24
 70
     1
102
RTVSPropertyOp25
 70
     1
102
RTVSPropertyOp26
 70
     1
102
RTVSPropertyOp27
 70
     1
102
RTVSPropertyOp28
 70
     1
102
RTVSPropertyOp29
 70
     1
102
RTVSPropertyOp30
 70
     1
102
RTVSPropertyOp31
 70
     1
102
RTVSPropertyOp32
 70
     1
102
RTVSPropertyOp33
 70
     1
102
RTVSPropertyOp34
 70
     1
102
RTVSPropertyOp35
 70
     1
102
RTVSPropertyOp36
 70
     1
102
RTVSPropertyOp37
 70
     1
102
RTVSPropertyOp38
 70
     1
102
RTVSPropertyOp39
 70
     1
102
RTVSPropertyOp40
 70
     1
102
RTVSPropertyOp41
 70
     1
102
RTVSPropertyOp42
 70
     1
102
RTVSPropertyOp43
 70
     1
102
RTVSPropertyOp44
 70
     1
102
RTVSPropertyOp45
 70
     1
102
RTVSPropertyOp46
 70
     1
102
RTVSPropertyOp47
 70
     1
102
RTVSPropertyOp48
 70
     1
102
RTVSPropertyOp49
 70
     1
102
RTVSPropertyOp50
 70
     1
102
RTVSPropertyOp51
 70
     0
102
RTVSPropertyOp52
 70
     0
102
RTVSPropertyOp53
 70
     1
102
RTVSPropertyOp54
 70
     1
102
RTVSPropertyOp55
 70
     1
102
RTVSPropertyOp56
 70
     1
102
RTVSPropertyOp57
 70
     1
102
RTVSPropertyOp58
 70
     1
102
RTVSPropertyOp59
 70
     1
102
RTVSPropertyOp60
 70
     1
102
RTVSPropertyOp61
 70
     1
102
RTVSPropertyOp62
 70
     1
  0
XRECORD
  5
1546
102
{ACAD_REACTORS
330
1545
102
}
330
1545
100
AcDbXrecord
280
     1
102
RTVSPost2010Prop28
280
     0
102
RTVSPost2010PropOp28
 70
     1
102
RTVSPost2010Prop29
280
     1
102
RTVSPost2010PropOp29
 70
     1
102
RTVSPost2010Prop30
280
     1
102
RTVSPost2010PropOp30
 70
     1
102
RTVSPost2010Prop31
280
     0
102
RTVSPost2010PropOp31
 70
     1
102
RTVSPost2010Prop32
280
     0
102
RTVSPost2010PropOp32
 70
     1
102
RTVSPost2010Prop33
280
     0
102
RTVSPost2010PropOp33
 70
     1
102
RTVSPost2010Prop34
280
     0
102
RTVSPost2010PropOp34
 70
     1
102
RTVSPost2010Prop35
280
     0
102
RTVSPost2010PropOp35
 70
     1
102
RTVSPost2010Prop36
280
     0
102
RTVSPost2010PropOp36
 70
     1
102
RTVSPost2010Prop37
 90
       50
102
RTVSPost2010PropOp37
 70
     1
102
RTVSPost2010Prop38
140
0.0
102
RTVSPost2010PropOp38
 70
     1
102
RTVSPost2010Prop39
140
1.0
102
RTVSPost2010PropOp39
 70
     1
102
RTVSPost2010Prop40
 90
        0
102
RTVSPost2010PropOp40
 70
     1
102
RTVSPost2010Prop41ColorIndex
 90
       18
102
RTVSPost2010Prop41ColorRGB
 90
        0
102
RTVSPost2010PropOp41
 70
     1
102
RTVSPost2010Prop42
 90
       50
102
RTVSPost2010PropOp42
 70
     1
102
RTVSPost2010Prop43
 90
        3
102
RTVSPost2010PropOp43
 70
     1
102
RTVSPost2010Prop44ColorIndex
 90
        5
102
RTVSPost2010Prop44ColorRGB
 90
      255
102
RTVSPost2010PropOp44
 70
     1
102
RTVSPost2010Prop45
280
     0
102
RTVSPost2010PropOp45
 70
     1
102
RTVSPost2010Prop46
 90
       50
102
RTVSPost2010PropOp46
 70
     1
102
RTVSPost2010Prop47
 90
       50
102
RTVSPost2010PropOp47
 70
     1
102
RTVSPost2010Prop48
 90
       50
102
RTVSPost2010PropOp48
 70
     1
102
RTVSPost2010Prop49
280
     0
102
RTVSPost2010PropOp49
 70
     1
102
RTVSPost2010Prop50
 90
       50
102
RTVSPost2010PropOp50
 70
     1
102
RTVSPost2010Prop51ColorIndex
 90
      256
102
RTVSPost2010Prop51ColorRGB
 90
-16777216
102
RTVSPost2010PropOp51
 70
     0
102
RTVSPost2010Prop52
140
1.0
102
RTVSPost2010PropOp52
 70
     0
102
RTVSPost2010Prop53
 90
        2
102
RTVSPost2010PropOp53
 70
     1
102
RTVSPost2010Prop54
  1
strokes_ogs.tif
102
RTVSPost2010PropOp54
 70
     1
102
RTVSPost2010Prop55
280
     0
102
RTVSPost2010PropOp55
 70
     1
102
RTVSPost2010Prop56
140
1.0
102
RTVSPost2010PropOp56
 70
     1
102
RTVSPost2010Prop57
140
1.0
102
RTVSPost2010PropOp57
 70
     1
102
RTVSPropertyOp0
 70
     1
102
RTVSPropertyOp1
 70
     1
102
RTVSPropertyOp2
 70
     1
102
RTVSPropertyOp3
 70
     1
102
RTVSPropertyOp4
 70
     1
102
RTVSPropertyOp5
 70
     1
102
RTVSPropertyOp6
 70
     1
102
RTVSPropertyOp7
 70
     1
102
RTVSPropertyOp8
 70
     1
102
RTVSPropertyOp9
 70
     1
102
RTVSPropertyOp10
 70
     1
102
RTVSPropertyOp11
 70
     1
102
RTVSPropertyOp12
 70
     1
102
RTVSPropertyOp13
 70
     1
102
RTVSPropertyOp14
 70
     1
102
RTVSPropertyOp15
 70
     1
102
RTVSPropertyOp16
 70
     1
102
RTVSPropertyOp17
 70
     1
102
RTVSPropertyOp18
 70
     1
102
RTVSPropertyOp19
 70
     1
102
RTVSPropertyOp20
 70
     1
102
RTVSPropertyOp21
 70
     1
102
RTVSPropertyOp22
 70
     1
102
RTVSPropertyOp23
 70
     1
102
RTVSPropertyOp24
 70
     1
102
RTVSPropertyOp25
 70
     1
102
RTVSPropertyOp26
 70
     1
102
RTVSPropertyOp27
 70
     1
102
RTVSPropertyOp28
 70
     1
102
RTVSPropertyOp29
 70
     1
102
RTVSPropertyOp30
 70
     1
102
RTVSPropertyOp31
 70
     1
102
RTVSPropertyOp32
 70
     1
102
RTVSPropertyOp33
 70
     1
102
RTVSPropertyOp34
 70
     1
102
RTVSPropertyOp35
 70
     1
102
RTVSPropertyOp36
 70
     1
102
RTVSPropertyOp37
 70
     1
102
RTVSPropertyOp38
 70
     1
102
RTVSPropertyOp39
 70
     1
102
RTVSPropertyOp40
 70
     1
102
RTVSPropertyOp41
 70
     1
102
RTVSPropertyOp42
 70
     1
102
RTVSPropertyOp43
 70
     1
102
RTVSPropertyOp44
 70
     1
102
RTVSPropertyOp45
 70
     1
102
RTVSPropertyOp46
 70
     1
102
RTVSPropertyOp47
 70
     1
102
RTVSPropertyOp48
 70
     1
102
RTVSPropertyOp49
 70
     1
102
RTVSPropertyOp50
 70
     1
102
RTVSPropertyOp51
 70
     0
102
RTVSPropertyOp52
 70
     0
102
RTVSPropertyOp53
 70
     1
102
RTVSPropertyOp54
 70
     1
102
RTVSPropertyOp55
 70
     1
102
RTVSPropertyOp56
 70
     1
102
RTVSPropertyOp57
 70
     1
102
RTVSPropertyOp58
 70
     1
102
RTVSPropertyOp59
 70
     1
102
RTVSPropertyOp60
 70
     1
102
RTVSPropertyOp61
 70
     1
102
RTVSPropertyOp62
 70
     1
  0
XRECORD
  5
1548
102
{ACAD_REACTORS
330
1547
102
}
330
1547
100
AcDbXrecord
280
     1
102
RTVSPost2010Prop28
280
     0
102
RTVSPost2010PropOp28
 70
     1
102
RTVSPost2010Prop29
280
     1
102
RTVSPost2010PropOp29
 70
     1
102
RTVSPost2010Prop30
280
     1
102
RTVSPost2010PropOp30
 70
     1
102
RTVSPost2010Prop31
280
     0
102
RTVSPost2010PropOp31
 70
     1
102
RTVSPost2010Prop32
280
     0
102
RTVSPost2010PropOp32
 70
     1
102
RTVSPost2010Prop33
280
     0
102
RTVSPost2010PropOp33
 70
     1
102
RTVSPost2010Prop34
280
     0
102
RTVSPost2010PropOp34
 70
     1
102
RTVSPost2010Prop35
280
     0
102
RTVSPost2010PropOp35
 70
     1
102
RTVSPost2010Prop36
280
     0
102
RTVSPost2010PropOp36
 70
     1
102
RTVSPost2010Prop37
 90
       50
102
RTVSPost2010PropOp37
 70
     1
102
RTVSPost2010Prop38
140
0.0
102
RTVSPost2010PropOp38
 70
     1
102
RTVSPost2010Prop39
140
1.0
102
RTVSPost2010PropOp39
 70
     1
102
RTVSPost2010Prop40
 90
        0
102
RTVSPost2010PropOp40
 70
     1
102
RTVSPost2010Prop41ColorIndex
 90
       18
102
RTVSPost2010Prop41ColorRGB
 90
        0
102
RTVSPost2010PropOp41
 70
     1
102
RTVSPost2010Prop42
 90
       50
102
RTVSPost2010PropOp42
 70
     1
102
RTVSPost2010Prop43
 90
        3
102
RTVSPost2010PropOp43
 70
     1
102
RTVSPost2010Prop44ColorIndex
 90
        5
102
RTVSPost2010Prop44ColorRGB
 90
      255
102
RTVSPost2010PropOp44
 70
     1
102
RTVSPost2010Prop45
280
     0
102
RTVSPost2010PropOp45
 70
     1
102
RTVSPost2010Prop46
 90
       50
102
RTVSPost2010PropOp46
 70
     1
102
RTVSPost2010Prop47
 90
       50
102
RTVSPost2010PropOp47
 70
     1
102
RTVSPost2010Prop48
 90
       50
102
RTVSPost2010PropOp48
 70
     1
102
RTVSPost2010Prop49
280
     0
102
RTVSPost2010PropOp49
 70
     1
102
RTVSPost2010Prop50
 90
       50
102
RTVSPost2010PropOp50
 70
     1
102
RTVSPost2010Prop51ColorIndex
 90
      256
102
RTVSPost2010Prop51ColorRGB
 90
-16777216
102
RTVSPost2010PropOp51
 70
     0
102
RTVSPost2010Prop52
140
1.0
102
RTVSPost2010PropOp52
 70
     0
102
RTVSPost2010Prop53
 90
        2
102
RTVSPost2010PropOp53
 70
     1
102
RTVSPost2010Prop54
  1
strokes_ogs.tif
102
RTVSPost2010PropOp54
 70
     1
102
RTVSPost2010Prop55
280
     0
102
RTVSPost2010PropOp55
 70
     1
102
RTVSPost2010Prop56
140
1.0
102
RTVSPost2010PropOp56
 70
     1
102
RTVSPost2010Prop57
140
1.0
102
RTVSPost2010PropOp57
 70
     1
102
RTVSPropertyOp0
 70
     1
102
RTVSPropertyOp1
 70
     1
102
RTVSPropertyOp2
 70
     1
102
RTVSPropertyOp3
 70
     1
102
RTVSPropertyOp4
 70
     1
102
RTVSPropertyOp5
 70
     1
102
RTVSPropertyOp6
 70
     1
102
RTVSPropertyOp7
 70
     1
102
RTVSPropertyOp8
 70
     1
102
RTVSPropertyOp9
 70
     1
102
RTVSPropertyOp10
 70
     1
102
RTVSPropertyOp11
 70
     1
102
RTVSPropertyOp12
 70
     1
102
RTVSPropertyOp13
 70
     1
102
RTVSPropertyOp14
 70
     1
102
RTVSPropertyOp15
 70
     1
102
RTVSPropertyOp16
 70
     1
102
RTVSPropertyOp17
 70
     1
102
RTVSPropertyOp18
 70
     1
102
RTVSPropertyOp19
 70
     1
102
RTVSPropertyOp20
 70
     1
102
RTVSPropertyOp21
 70
     1
102
RTVSPropertyOp22
 70
     1
102
RTVSPropertyOp23
 70
     1
102
RTVSPropertyOp24
 70
     1
102
RTVSPropertyOp25
 70
     1
102
RTVSPropertyOp26
 70
     1
102
RTVSPropertyOp27
 70
     1
102
RTVSPropertyOp28
 70
     1
102
RTVSPropertyOp29
 70
     1
102
RTVSPropertyOp30
 70
     1
102
RTVSPropertyOp31
 70
     1
102
RTVSPropertyOp32
 70
     1
102
RTVSPropertyOp33
 70
     1
102
RTVSPropertyOp34
 70
     1
102
RTVSPropertyOp35
 70
     1
102
RTVSPropertyOp36
 70
     1
102
RTVSPropertyOp37
 70
     1
102
RTVSPropertyOp38
 70
     1
102
RTVSPropertyOp39
 70
     1
102
RTVSPropertyOp40
 70
     1
102
RTVSPropertyOp41
 70
     1
102
RTVSPropertyOp42
 70
     1
102
RTVSPropertyOp43
 70
     1
102
RTVSPropertyOp44
 70
     1
102
RTVSPropertyOp45
 70
     1
102
RTVSPropertyOp46
 70
     1
102
RTVSPropertyOp47
 70
     1
102
RTVSPropertyOp48
 70
     1
102
RTVSPropertyOp49
 70
     1
102
RTVSPropertyOp50
 70
     1
102
RTVSPropertyOp51
 70
     0
102
RTVSPropertyOp52
 70
     0
102
RTVSPropertyOp53
 70
     1
102
RTVSPropertyOp54
 70
     1
102
RTVSPropertyOp55
 70
     1
102
RTVSPropertyOp56
 70
     1
102
RTVSPropertyOp57
 70
     1
102
RTVSPropertyOp58
 70
     1
102
RTVSPropertyOp59
 70
     1
102
RTVSPropertyOp60
 70
     1
102
RTVSPropertyOp61
 70
     1
102
RTVSPropertyOp62
 70
     1
  0
XRECORD
  5
153E
102
{ACAD_REACTORS
330
153D
102
}
330
153D
100
AcDbXrecord
280
     1
102
RTVSPost2010Prop28
280
     0
102
RTVSPost2010PropOp28
 70
     1
102
RTVSPost2010Prop29
280
     1
102
RTVSPost2010PropOp29
 70
     1
102
RTVSPost2010Prop30
280
     1
102
RTVSPost2010PropOp30
 70
     1
102
RTVSPost2010Prop31
280
     0
102
RTVSPost2010PropOp31
 70
     1
102
RTVSPost2010Prop32
280
     0
102
RTVSPost2010PropOp32
 70
     1
102
RTVSPost2010Prop33
280
     0
102
RTVSPost2010PropOp33
 70
     1
102
RTVSPost2010Prop34
280
     0
102
RTVSPost2010PropOp34
 70
     1
102
RTVSPost2010Prop35
280
     0
102
RTVSPost2010PropOp35
 70
     1
102
RTVSPost2010Prop36
280
     0
102
RTVSPost2010PropOp36
 70
     1
102
RTVSPost2010Prop37
 90
       50
102
RTVSPost2010PropOp37
 70
     1
102
RTVSPost2010Prop38
140
0.0
102
RTVSPost2010PropOp38
 70
     1
102
RTVSPost2010Prop39
140
1.0
102
RTVSPost2010PropOp39
 70
     1
102
RTVSPost2010Prop40
 90
        0
102
RTVSPost2010PropOp40
 70
     1
102
RTVSPost2010Prop41ColorIndex
 90
       18
102
RTVSPost2010Prop41ColorRGB
 90
        0
102
RTVSPost2010PropOp41
 70
     1
102
RTVSPost2010Prop42
 90
       50
102
RTVSPost2010PropOp42
 70
     1
102
RTVSPost2010Prop43
 90
        3
102
RTVSPost2010PropOp43
 70
     1
102
RTVSPost2010Prop44ColorIndex
 90
        5
102
RTVSPost2010Prop44ColorRGB
 90
      255
102
RTVSPost2010PropOp44
 70
     1
102
RTVSPost2010Prop45
280
     0
102
RTVSPost2010PropOp45
 70
     1
102
RTVSPost2010Prop46
 90
       50
102
RTVSPost2010PropOp46
 70
     1
102
RTVSPost2010Prop47
 90
       50
102
RTVSPost2010PropOp47
 70
     1
102
RTVSPost2010Prop48
 90
       50
102
RTVSPost2010PropOp48
 70
     1
102
RTVSPost2010Prop49
280
     0
102
RTVSPost2010PropOp49
 70
     1
102
RTVSPost2010Prop50
 90
       50
102
RTVSPost2010PropOp50
 70
     1
102
RTVSPost2010Prop51ColorIndex
 90
      256
102
RTVSPost2010Prop51ColorRGB
 90
-16777216
102
RTVSPost2010PropOp51
 70
     0
102
RTVSPost2010Prop52
140
1.0
102
RTVSPost2010PropOp52
 70
     0
102
RTVSPost2010Prop53
 90
        2
102
RTVSPost2010PropOp53
 70
     1
102
RTVSPost2010Prop54
  1
strokes_ogs.tif
102
RTVSPost2010PropOp54
 70
     1
102
RTVSPost2010Prop55
280
     0
102
RTVSPost2010PropOp55
 70
     1
102
RTVSPost2010Prop56
140
1.0
102
RTVSPost2010PropOp56
 70
     1
102
RTVSPost2010Prop57
140
1.0
102
RTVSPost2010PropOp57
 70
     1
102
RTVSPropertyOp0
 70
     1
102
RTVSPropertyOp1
 70
     1
102
RTVSPropertyOp2
 70
     1
102
RTVSPropertyOp3
 70
     1
102
RTVSPropertyOp4
 70
     1
102
RTVSPropertyOp5
 70
     1
102
RTVSPropertyOp6
 70
     1
102
RTVSPropertyOp7
 70
     1
102
RTVSPropertyOp8
 70
     1
102
RTVSPropertyOp9
 70
     1
102
RTVSPropertyOp10
 70
     1
102
RTVSPropertyOp11
 70
     1
102
RTVSPropertyOp12
 70
     1
102
RTVSPropertyOp13
 70
     1
102
RTVSPropertyOp14
 70
     1
102
RTVSPropertyOp15
 70
     1
102
RTVSPropertyOp16
 70
     1
102
RTVSPropertyOp17
 70
     1
102
RTVSPropertyOp18
 70
     1
102
RTVSPropertyOp19
 70
     1
102
RTVSPropertyOp20
 70
     1
102
RTVSPropertyOp21
 70
     1
102
RTVSPropertyOp22
 70
     1
102
RTVSPropertyOp23
 70
     1
102
RTVSPropertyOp24
 70
     1
102
RTVSPropertyOp25
 70
     1
102
RTVSPropertyOp26
 70
     1
102
RTVSPropertyOp27
 70
     1
102
RTVSPropertyOp28
 70
     1
102
RTVSPropertyOp29
 70
     1
102
RTVSPropertyOp30
 70
     1
102
RTVSPropertyOp31
 70
     1
102
RTVSPropertyOp32
 70
     1
102
RTVSPropertyOp33
 70
     1
102
RTVSPropertyOp34
 70
     1
102
RTVSPropertyOp35
 70
     1
102
RTVSPropertyOp36
 70
     1
102
RTVSPropertyOp37
 70
     1
102
RTVSPropertyOp38
 70
     1
102
RTVSPropertyOp39
 70
     1
102
RTVSPropertyOp40
 70
     1
102
RTVSPropertyOp41
 70
     1
102
RTVSPropertyOp42
 70
     1
102
RTVSPropertyOp43
 70
     1
102
RTVSPropertyOp44
 70
     1
102
RTVSPropertyOp45
 70
     1
102
RTVSPropertyOp46
 70
     1
102
RTVSPropertyOp47
 70
     1
102
RTVSPropertyOp48
 70
     1
102
RTVSPropertyOp49
 70
     1
102
RTVSPropertyOp50
 70
     1
102
RTVSPropertyOp51
 70
     0
102
RTVSPropertyOp52
 70
     0
102
RTVSPropertyOp53
 70
     1
102
RTVSPropertyOp54
 70
     1
102
RTVSPropertyOp55
 70
     1
102
RTVSPropertyOp56
 70
     1
102
RTVSPropertyOp57
 70
     1
102
RTVSPropertyOp58
 70
     1
102
RTVSPropertyOp59
 70
     1
102
RTVSPropertyOp60
 70
     1
102
RTVSPropertyOp61
 70
     1
102
RTVSPropertyOp62
 70
     1
  0
XRECORD
  5
1532
102
{ACAD_REACTORS
330
1531
102
}
330
1531
100
AcDbXrecord
280
     1
102
RTVSPost2010Prop28
280
     0
102
RTVSPost2010PropOp28
 70
     1
102
RTVSPost2010Prop29
280
     1
102
RTVSPost2010PropOp29
 70
     1
102
RTVSPost2010Prop30
280
     1
102
RTVSPost2010PropOp30
 70
     1
102
RTVSPost2010Prop31
280
     0
102
RTVSPost2010PropOp31
 70
     1
102
RTVSPost2010Prop32
280
     0
102
RTVSPost2010PropOp32
 70
     1
102
RTVSPost2010Prop33
280
     0
102
RTVSPost2010PropOp33
 70
     1
102
RTVSPost2010Prop34
280
     0
102
RTVSPost2010PropOp34
 70
     1
102
RTVSPost2010Prop35
280
     0
102
RTVSPost2010PropOp35
 70
     1
102
RTVSPost2010Prop36
280
     0
102
RTVSPost2010PropOp36
 70
     1
102
RTVSPost2010Prop37
 90
       50
102
RTVSPost2010PropOp37
 70
     1
102
RTVSPost2010Prop38
140
0.0
102
RTVSPost2010PropOp38
 70
     1
102
RTVSPost2010Prop39
140
1.0
102
RTVSPost2010PropOp39
 70
     1
102
RTVSPost2010Prop40
 90
        0
102
RTVSPost2010PropOp40
 70
     1
102
RTVSPost2010Prop41ColorIndex
 90
       18
102
RTVSPost2010Prop41ColorRGB
 90
        0
102
RTVSPost2010PropOp41
 70
     1
102
RTVSPost2010Prop42
 90
       50
102
RTVSPost2010PropOp42
 70
     1
102
RTVSPost2010Prop43
 90
        3
102
RTVSPost2010PropOp43
 70
     1
102
RTVSPost2010Prop44ColorIndex
 90
        5
102
RTVSPost2010Prop44ColorRGB
 90
      255
102
RTVSPost2010PropOp44
 70
     1
102
RTVSPost2010Prop45
280
     0
102
RTVSPost2010PropOp45
 70
     1
102
RTVSPost2010Prop46
 90
       50
102
RTVSPost2010PropOp46
 70
     1
102
RTVSPost2010Prop47
 90
       50
102
RTVSPost2010PropOp47
 70
     1
102
RTVSPost2010Prop48
 90
       50
102
RTVSPost2010PropOp48
 70
     1
102
RTVSPost2010Prop49
280
     0
102
RTVSPost2010PropOp49
 70
     1
102
RTVSPost2010Prop50
 90
       50
102
RTVSPost2010PropOp50
 70
     1
102
RTVSPost2010Prop51ColorIndex
 90
      256
102
RTVSPost2010Prop51ColorRGB
 90
-16777216
102
RTVSPost2010PropOp51
 70
     0
102
RTVSPost2010Prop52
140
1.0
102
RTVSPost2010PropOp52
 70
     0
102
RTVSPost2010Prop53
 90
        2
102
RTVSPost2010PropOp53
 70
     1
102
RTVSPost2010Prop54
  1
strokes_ogs.tif
102
RTVSPost2010PropOp54
 70
     1
102
RTVSPost2010Prop55
280
     0
102
RTVSPost2010PropOp55
 70
     1
102
RTVSPost2010Prop56
140
1.0
102
RTVSPost2010PropOp56
 70
     1
102
RTVSPost2010Prop57
140
1.0
102
RTVSPost2010PropOp57
 70
     1
102
RTVSPropertyOp0
 70
     1
102
RTVSPropertyOp1
 70
     1
102
RTVSPropertyOp2
 70
     1
102
RTVSPropertyOp3
 70
     1
102
RTVSPropertyOp4
 70
     1
102
RTVSPropertyOp5
 70
     1
102
RTVSPropertyOp6
 70
     1
102
RTVSPropertyOp7
 70
     1
102
RTVSPropertyOp8
 70
     1
102
RTVSPropertyOp9
 70
     1
102
RTVSPropertyOp10
 70
     1
102
RTVSPropertyOp11
 70
     1
102
RTVSPropertyOp12
 70
     1
102
RTVSPropertyOp13
 70
     1
102
RTVSPropertyOp14
 70
     1
102
RTVSPropertyOp15
 70
     1
102
RTVSPropertyOp16
 70
     1
102
RTVSPropertyOp17
 70
     1
102
RTVSPropertyOp18
 70
     1
102
RTVSPropertyOp19
 70
     1
102
RTVSPropertyOp20
 70
     1
102
RTVSPropertyOp21
 70
     1
102
RTVSPropertyOp22
 70
     1
102
RTVSPropertyOp23
 70
     1
102
RTVSPropertyOp24
 70
     1
102
RTVSPropertyOp25
 70
     1
102
RTVSPropertyOp26
 70
     1
102
RTVSPropertyOp27
 70
     1
102
RTVSPropertyOp28
 70
     1
102
RTVSPropertyOp29
 70
     1
102
RTVSPropertyOp30
 70
     1
102
RTVSPropertyOp31
 70
     1
102
RTVSPropertyOp32
 70
     1
102
RTVSPropertyOp33
 70
     1
102
RTVSPropertyOp34
 70
     1
102
RTVSPropertyOp35
 70
     1
102
RTVSPropertyOp36
 70
     1
102
RTVSPropertyOp37
 70
     1
102
RTVSPropertyOp38
 70
     1
102
RTVSPropertyOp39
 70
     1
102
RTVSPropertyOp40
 70
     1
102
RTVSPropertyOp41
 70
     1
102
RTVSPropertyOp42
 70
     1
102
RTVSPropertyOp43
 70
     1
102
RTVSPropertyOp44
 70
     1
102
RTVSPropertyOp45
 70
     1
102
RTVSPropertyOp46
 70
     1
102
RTVSPropertyOp47
 70
     1
102
RTVSPropertyOp48
 70
     1
102
RTVSPropertyOp49
 70
     1
102
RTVSPropertyOp50
 70
     1
102
RTVSPropertyOp51
 70
     0
102
RTVSPropertyOp52
 70
     0
102
RTVSPropertyOp53
 70
     1
102
RTVSPropertyOp54
 70
     1
102
RTVSPropertyOp55
 70
     1
102
RTVSPropertyOp56
 70
     1
102
RTVSPropertyOp57
 70
     1
102
RTVSPropertyOp58
 70
     1
102
RTVSPropertyOp59
 70
     1
102
RTVSPropertyOp60
 70
     1
102
RTVSPropertyOp61
 70
     1
102
RTVSPropertyOp62
 70
     1
  0
XRECORD
  5
154A
102
{ACAD_REACTORS
330
1549
102
}
330
1549
100
AcDbXrecord
280
     1
102
RTVSPost2010Prop28
280
     0
102
RTVSPost2010PropOp28
 70
     1
102
RTVSPost2010Prop29
280
     1
102
RTVSPost2010PropOp29
 70
     1
102
RTVSPost2010Prop30
280
     1
102
RTVSPost2010PropOp30
 70
     1
102
RTVSPost2010Prop31
280
     0
102
RTVSPost2010PropOp31
 70
     1
102
RTVSPost2010Prop32
280
     0
102
RTVSPost2010PropOp32
 70
     1
102
RTVSPost2010Prop33
280
     0
102
RTVSPost2010PropOp33
 70
     1
102
RTVSPost2010Prop34
280
     0
102
RTVSPost2010PropOp34
 70
     1
102
RTVSPost2010Prop35
280
     0
102
RTVSPost2010PropOp35
 70
     1
102
RTVSPost2010Prop36
280
     0
102
RTVSPost2010PropOp36
 70
     1
102
RTVSPost2010Prop37
 90
       50
102
RTVSPost2010PropOp37
 70
     1
102
RTVSPost2010Prop38
140
0.0
102
RTVSPost2010PropOp38
 70
     1
102
RTVSPost2010Prop39
140
1.0
102
RTVSPost2010PropOp39
 70
     1
102
RTVSPost2010Prop40
 90
        0
102
RTVSPost2010PropOp40
 70
     1
102
RTVSPost2010Prop41ColorIndex
 90
       18
102
RTVSPost2010Prop41ColorRGB
 90
        0
102
RTVSPost2010PropOp41
 70
     1
102
RTVSPost2010Prop42
 90
       50
102
RTVSPost2010PropOp42
 70
     1
102
RTVSPost2010Prop43
 90
        3
102
RTVSPost2010PropOp43
 70
     1
102
RTVSPost2010Prop44ColorIndex
 90
        5
102
RTVSPost2010Prop44ColorRGB
 90
      255
102
RTVSPost2010PropOp44
 70
     1
102
RTVSPost2010Prop45
280
     0
102
RTVSPost2010PropOp45
 70
     1
102
RTVSPost2010Prop46
 90
       50
102
RTVSPost2010PropOp46
 70
     1
102
RTVSPost2010Prop47
 90
       50
102
RTVSPost2010PropOp47
 70
     1
102
RTVSPost2010Prop48
 90
       50
102
RTVSPost2010PropOp48
 70
     1
102
RTVSPost2010Prop49
280
     0
102
RTVSPost2010PropOp49
 70
     1
102
RTVSPost2010Prop50
 90
       50
102
RTVSPost2010PropOp50
 70
     1
102
RTVSPost2010Prop51ColorIndex
 90
      256
102
RTVSPost2010Prop51ColorRGB
 90
-16777216
102
RTVSPost2010PropOp51
 70
     0
102
RTVSPost2010Prop52
140
1.0
102
RTVSPost2010PropOp52
 70
     0
102
RTVSPost2010Prop53
 90
        2
102
RTVSPost2010PropOp53
 70
     1
102
RTVSPost2010Prop54
  1
strokes_ogs.tif
102
RTVSPost2010PropOp54
 70
     1
102
RTVSPost2010Prop55
280
     0
102
RTVSPost2010PropOp55
 70
     1
102
RTVSPost2010Prop56
140
1.0
102
RTVSPost2010PropOp56
 70
     1
102
RTVSPost2010Prop57
140
1.0
102
RTVSPost2010PropOp57
 70
     1
102
RTVSPropertyOp0
 70
     1
102
RTVSPropertyOp1
 70
     1
102
RTVSPropertyOp2
 70
     1
102
RTVSPropertyOp3
 70
     1
102
RTVSPropertyOp4
 70
     1
102
RTVSPropertyOp5
 70
     1
102
RTVSPropertyOp6
 70
     1
102
RTVSPropertyOp7
 70
     1
102
RTVSPropertyOp8
 70
     1
102
RTVSPropertyOp9
 70
     1
102
RTVSPropertyOp10
 70
     1
102
RTVSPropertyOp11
 70
     1
102
RTVSPropertyOp12
 70
     1
102
RTVSPropertyOp13
 70
     1
102
RTVSPropertyOp14
 70
     1
102
RTVSPropertyOp15
 70
     1
102
RTVSPropertyOp16
 70
     1
102
RTVSPropertyOp17
 70
     1
102
RTVSPropertyOp18
 70
     1
102
RTVSPropertyOp19
 70
     1
102
RTVSPropertyOp20
 70
     1
102
RTVSPropertyOp21
 70
     1
102
RTVSPropertyOp22
 70
     1
102
RTVSPropertyOp23
 70
     1
102
RTVSPropertyOp24
 70
     1
102
RTVSPropertyOp25
 70
     1
102
RTVSPropertyOp26
 70
     1
102
RTVSPropertyOp27
 70
     1
102
RTVSPropertyOp28
 70
     1
102
RTVSPropertyOp29
 70
     1
102
RTVSPropertyOp30
 70
     1
102
RTVSPropertyOp31
 70
     1
102
RTVSPropertyOp32
 70
     1
102
RTVSPropertyOp33
 70
     1
102
RTVSPropertyOp34
 70
     1
102
RTVSPropertyOp35
 70
     1
102
RTVSPropertyOp36
 70
     1
102
RTVSPropertyOp37
 70
     1
102
RTVSPropertyOp38
 70
     1
102
RTVSPropertyOp39
 70
     1
102
RTVSPropertyOp40
 70
     1
102
RTVSPropertyOp41
 70
     1
102
RTVSPropertyOp42
 70
     1
102
RTVSPropertyOp43
 70
     1
102
RTVSPropertyOp44
 70
     1
102
RTVSPropertyOp45
 70
     1
102
RTVSPropertyOp46
 70
     1
102
RTVSPropertyOp47
 70
     1
102
RTVSPropertyOp48
 70
     1
102
RTVSPropertyOp49
 70
     1
102
RTVSPropertyOp50
 70
     1
102
RTVSPropertyOp51
 70
     0
102
RTVSPropertyOp52
 70
     0
102
RTVSPropertyOp53
 70
     1
102
RTVSPropertyOp54
 70
     1
102
RTVSPropertyOp55
 70
     1
102
RTVSPropertyOp56
 70
     1
102
RTVSPropertyOp57
 70
     1
102
RTVSPropertyOp58
 70
     1
102
RTVSPropertyOp59
 70
     1
102
RTVSPropertyOp60
 70
     1
102
RTVSPropertyOp61
 70
     1
102
RTVSPropertyOp62
 70
     1
  0
ENDSEC
  0
EOF
