  0
SECTION
  2
HEADER
  9
$ACADVER
  1
AC1018
  9
$ACADMAINTVER
 70
   104
  9
$DWGCODEPAGE
  3
ANSI_1252
  9
$TITLE
  1
Kammerwaschanlage
  9
$AUTHOR
  1
Planungsbüro Nolzen
  9
$LASTSAVEDBY
  1
DFischer
  9
$CUSTOMPROPERTYTAG
  1
Manager
  9
$CUSTOMPROPERTY
  1

  9
$CUSTOMPROPERTYTAG
  1
Firma
  9
$CUSTOMPROPERTY
  1

  9
$CUSTOMPROPERTYTAG
  1
Kategorie
  9
$CUSTOMPROPERTY
  1
5235
  9
$CUSTOMPROPERTYTAG
  1
Bauteilnummer
  9
$CUSTOMPROPERTY
  1
WKZ-0154
  9
$CUSTOMPROPERTYTAG
  1
Bezeichnung
  9
$CUSTOMPROPERTY
  1

  9
$CUSTOMPROPERTYTAG
  1
Projekt
  9
$CUSTOMPROPERTY
  1

  9
$CUSTOMPROPERTYTAG
  1
Konstrukteur
  9
$CUSTOMPROPERTY
  1

  9
$CUSTOMPROPERTYTAG
  1
Ingenieur
  9
$CUSTOMPROPERTY
  1

  9
$CUSTOMPROPERTYTAG
  1
Bevollmächtigter
  9
$CUSTOMPROPERTY
  1

  9
$CUSTOMPROPERTYTAG
  1
Kostenstelle
  9
$CUSTOMPROPERTY
  1

  9
$CUSTOMPROPERTYTAG
  1
Zulieferer
  9
$CUSTOMPROPERTY
  1

  9
$CUSTOMPROPERTYTAG
  1
Benutzerstatus
  9
$CUSTOMPROPERTY
  1

  9
$CUSTOMPROPERTYTAG
  1
Konstruktionsstatus
  9
$CUSTOMPROPERTY
  1
InBearbeitung
  9
$CUSTOMPROPERTYTAG
  1
Kontrolliert von
  9
$CUSTOMPROPERTY
  1

  9
$CUSTOMPROPERTYTAG
  1
Konstruktion genehmigt von
  9
$CUSTOMPROPERTY
  1

  9
$CUSTOMPROPERTYTAG
  1
Fertigung genehmigt von
  9
$CUSTOMPROPERTY
  1

  9
$INSBASE
 10
0.0
 20
0.0
 30
0.0
  9
$EXTMIN
 10
5.0
 20
5.0
 30
0.0
  9
$EXTMAX
 10
143.4999031611997
 20
102.5
 30
0.0
  9
$LIMMIN
 10
0.0
 20
0.0
  9
$LIMMAX
 10
148.5
 20
105.0
  9
$ORTHOMODE
 70
     0
  9
$REGENMODE
 70
     1
  9
$FILLMODE
 70
     1
  9
$QTEXTMODE
 70
     0
  9
$MIRRTEXT
 70
     0
  9
$LTSCALE
 40
1.0
  9
$ATTMODE
 70
     1
  9
$TEXTSIZE
 40
0.2
  9
$TRACEWID
 40
0.05
  9
$TEXTSTYLE
  7
Standard
  9
$CLAYER
  8
0
  9
$CELTYPE
  6
ByLayer
  9
$CECOLOR
 62
   256
  9
$CELTSCALE
 40
1.0
  9
$DISPSILH
 70
     0
  9
$DIMSCALE
 40
1.0
  9
$DIMASZ
 40
1.799999999999999
  9
$DIMEXO
 40
0.0625
  9
$DIMDLI
 40
0.38
  9
$DIMRND
 40
0.0
  9
$DIMDLE
 40
0.0
  9
$DIMEXE
 40
0.18
  9
$DIMTP
 40
0.0
  9
$DIMTM
 40
0.0
  9
$DIMTXT
 40
0.25
  9
$DIMCEN
 40
0.09
  9
$DIMTSZ
 40
0.0
  9
$DIMTOL
 70
     0
  9
$DIMLIM
 70
     0
  9
$DIMTIH
 70
     1
  9
$DIMTOH
 70
     1
  9
$DIMSE1
 70
     0
  9
$DIMSE2
 70
     0
  9
$DIMTAD
 70
     0
  9
$DIMZIN
 70
     0
  9
$DIMBLK
  1

  9
$DIMASO
 70
     1
  9
$DIMSHO
 70
     1
  9
$DIMPOST
  1

  9
$DIMAPOST
  1

  9
$DIMALT
 70
     0
  9
$DIMALTD
 70
     2
  9
$DIMALTF
 40
25.4
  9
$DIMLFAC
 40
1.0
  9
$DIMTOFL
 70
     0
  9
$DIMTVP
 40
0.0
  9
$DIMTIX
 70
     0
  9
$DIMSOXD
 70
     0
  9
$DIMSAH
 70
     0
  9
$DIMBLK1
  1

  9
$DIMBLK2
  1

  9
$DIMSTYLE
  2
Standard
  9
$DIMCLRD
 70
     0
  9
$DIMCLRE
 70
     0
  9
$DIMCLRT
 70
     0
  9
$DIMTFAC
 40
1.0
  9
$DIMGAP
 40
0.09
  9
$DIMJUST
 70
     0
  9
$DIMSD1
 70
     0
  9
$DIMSD2
 70
     0
  9
$DIMTOLJ
 70
     1
  9
$DIMTZIN
 70
     0
  9
$DIMALTZ
 70
     0
  9
$DIMALTTZ
 70
     0
  9
$DIMUPT
 70
     0
  9
$DIMDEC
 70
     4
  9
$DIMTDEC
 70
     4
  9
$DIMALTU
 70
     2
  9
$DIMALTTD
 70
     2
  9
$DIMTXSTY
  7
Standard
  9
$DIMAUNIT
 70
     0
  9
$DIMADEC
 70
     0
  9
$DIMALTRND
 40
0.0
  9
$DIMAZIN
 70
     0
  9
$DIMDSEP
 70
    46
  9
$DIMATFIT
 70
     3
  9
$DIMFRAC
 70
     0
  9
$DIMLDRBLK
  1

  9
$DIMLUNIT
 70
     2
  9
$DIMLWD
 70
    -2
  9
$DIMLWE
 70
    -2
  9
$DIMTMOVE
 70
     0
  9
$LUNITS
 70
     2
  9
$LUPREC
 70
     2
  9
$SKETCHINC
 40
0.1
  9
$FILLETRAD
 40
0.0
  9
$AUNITS
 70
     0
  9
$AUPREC
 70
     0
  9
$MENU
  1
.
  9
$ELEVATION
 40
0.0
  9
$PELEVATION
 40
0.0
  9
$THICKNESS
 40
0.0
  9
$LIMCHECK
 70
     0
  9
$CHAMFERA
 40
0.0
  9
$CHAMFERB
 40
0.0
  9
$CHAMFERC
 40
0.0
  9
$CHAMFERD
 40
0.0
  9
$SKPOLY
 70
     0
  9
$TDCREATE
 40
2456601.589013994
  9
$TDUCREATE
 40
2456601.547347326
  9
$TDUPDATE
 40
2456601.590629642
  9
$TDUUPDATE
 40
2456601.548962975
  9
$TDINDWG
 40
0.0008095139
  9
$TDUSRTIMER
 40
0.0008095139
  9
$USRTIMER
 70
     1
  9
$ANGBASE
 50
0.0
  9
$ANGDIR
 70
     0
  9
$PDMODE
 70
     0
  9
$PDSIZE
 40
0.0
  9
$PLINEWID
 40
0.0
  9
$SPLFRAME
 70
     0
  9
$SPLINETYPE
 70
     6
  9
$SPLINESEGS
 70
     8
  9
$HANDSEED
  5
A87
  9
$SURFTAB1
 70
     6
  9
$SURFTAB2
 70
     6
  9
$SURFTYPE
 70
     6
  9
$SURFU
 70
     6
  9
$SURFV
 70
     6
  9
$UCSBASE
  2

  9
$UCSNAME
  2

  9
$UCSORG
 10
0.0
 20
0.0
 30
0.0
  9
$UCSXDIR
 10
1.0
 20
0.0
 30
0.0
  9
$UCSYDIR
 10
0.0
 20
1.0
 30
0.0
  9
$UCSORTHOREF
  2

  9
$UCSORTHOVIEW
 70
     0
  9
$UCSORGTOP
 10
0.0
 20
0.0
 30
0.0
  9
$UCSORGBOTTOM
 10
0.0
 20
0.0
 30
0.0
  9
$UCSORGLEFT
 10
0.0
 20
0.0
 30
0.0
  9
$UCSORGRIGHT
 10
0.0
 20
0.0
 30
0.0
  9
$UCSORGFRONT
 10
0.0
 20
0.0
 30
0.0
  9
$UCSORGBACK
 10
0.0
 20
0.0
 30
0.0
  9
$PUCSBASE
  2

  9
$PUCSNAME
  2

  9
$PUCSORG
 10
0.0
 20
0.0
 30
0.0
  9
$PUCSXDIR
 10
1.0
 20
0.0
 30
0.0
  9
$PUCSYDIR
 10
0.0
 20
1.0
 30
0.0
  9
$PUCSORTHOREF
  2

  9
$PUCSORTHOVIEW
 70
     0
  9
$PUCSORGTOP
 10
0.0
 20
0.0
 30
0.0
  9
$PUCSORGBOTTOM
 10
0.0
 20
0.0
 30
0.0
  9
$PUCSORGLEFT
 10
0.0
 20
0.0
 30
0.0
  9
$PUCSORGRIGHT
 10
0.0
 20
0.0
 30
0.0
  9
$PUCSORGFRONT
 10
0.0
 20
0.0
 30
0.0
  9
$PUCSORGBACK
 10
0.0
 20
0.0
 30
0.0
  9
$USERI1
 70
     0
  9
$USERI2
 70
     0
  9
$USERI3
 70
     0
  9
$USERI4
 70
     0
  9
$USERI5
 70
     0
  9
$USERR1
 40
0.0
  9
$USERR2
 40
0.0
  9
$USERR3
 40
0.0
  9
$USERR4
 40
0.0
  9
$USERR5
 40
0.0
  9
$WORLDVIEW
 70
     1
  9
$SHADEDGE
 70
     3
  9
$SHADEDIF
 70
    70
  9
$TILEMODE
 70
     1
  9
$MAXACTVP
 70
    64
  9
$PINSBASE
 10
0.0
 20
0.0
 30
0.0
  9
$PLIMCHECK
 70
     0
  9
$PEXTMIN
 10
0.0
 20
0.0
 30
0.0
  9
$PEXTMAX
 10
148.5
 20
105.0
 30
0.0
  9
$PLIMMIN
 10
0.0
 20
0.0
  9
$PLIMMAX
 10
148.5
 20
105.0
  9
$UNITMODE
 70
     0
  9
$VISRETAIN
 70
     1
  9
$PLINEGEN
 70
     0
  9
$PSLTSCALE
 70
     1
  9
$TREEDEPTH
 70
  3020
  9
$CMLSTYLE
  2
Standard
  9
$CMLJUST
 70
     0
  9
$CMLSCALE
 40
1.0
  9
$PROXYGRAPHICS
 70
     1
  9
$MEASUREMENT
 70
     1
  9
$CELWEIGHT
370
    -1
  9
$ENDCAPS
280
     0
  9
$JOINSTYLE
280
     0
  9
$LWDISPLAY
290
     0
  9
$INSUNITS
 70
     4
  9
$HYPERLINKBASE
  1

  9
$STYLESHEET
  1

  9
$XEDIT
290
     1
  9
$CEPSNTYPE
380
     0
  9
$PSTYLEMODE
290
     1
  9
$FINGERPRINTGUID
  2
{ABB2CA2A-6B8E-4864-BB47-D496DA5FBFDE}
  9
$VERSIONGUID
  2
{F27B9DC0-7A7C-4FC5-8C9A-302B680A7424}
  9
$EXTNAMES
290
     1
  9
$PSVPSCALE
 40
0.0
  9
$OLESTARTUP
290
     0
  9
$SORTENTS
280
   127
  9
$INDEXCTL
280
     0
  9
$HIDETEXT
280
     1
  9
$XCLIPFRAME
290
     0
  9
$HALOGAP
280
     0
  9
$OBSCOLOR
 70
   257
  9
$OBSLTYPE
280
     0
  9
$INTERSECTIONDISPLAY
280
     0
  9
$INTERSECTIONCOLOR
 70
   257
  9
$DIMASSOC
280
     1
  9
$PROJECTNAME
  1

  0
ENDSEC
  0
SECTION
  2
CLASSES
  0
CLASS
  1
ACDBDICTIONARYWDFLT
  2
AcDbDictionaryWithDefault
  3
ObjectDBX Classes
 90
        0
 91
        1
280
     0
281
     0
  0
CLASS
  1
MATERIAL
  2
AcDbMaterial
  3
ObjectDBX Classes
 90
     1153
 91
        3
280
     0
281
     0
  0
CLASS
  1
VISUALSTYLE
  2
AcDbVisualStyle
  3
ObjectDBX Classes
 90
     4095
 91
       24
280
     0
281
     0
  0
CLASS
  1
SCALE
  2
AcDbScale
  3
ObjectDBX Classes
 90
     1153
 91
       17
280
     0
281
     0
  0
CLASS
  1
TABLESTYLE
  2
AcDbTableStyle
  3
ObjectDBX Classes
 90
     4095
 91
        1
280
     0
281
     0
  0
CLASS
  1
MLEADERSTYLE
  2
AcDbMLeaderStyle
  3
ACDB_MLEADERSTYLE_CLASS
 90
     4095
 91
        1
280
     0
281
     0
  0
CLASS
  1
ACDBSECTIONVIEWSTYLE
  2
AcDbSectionViewStyle
  3
ObjectDBX Classes
 90
     1025
 91
        2
280
     0
281
     0
  0
CLASS
  1
ACDBDETAILVIEWSTYLE
  2
AcDbDetailViewStyle
  3
ObjectDBX Classes
 90
     1025
 91
        2
280
     0
281
     0
  0
CLASS
  1
IMAGE
  2
AcDbRasterImage
  3
ISM
 90
     2175
 91
        3
280
     0
281
     1
  0
CLASS
  1
IMAGEDEF
  2
AcDbRasterImageDef
  3
ISM
 90
        0
 91
        2
280
     0
281
     0
  0
CLASS
  1
IMAGEDEF_REACTOR
  2
AcDbRasterImageDefReactor
  3
ISM
 90
        1
 91
        3
280
     0
281
     0
  0
CLASS
  1
RASTERVARIABLES
  2
AcDbRasterVariables
  3
ISM
 90
        0
 91
        1
280
     0
281
     0
  0
CLASS
  1
SORTENTSTABLE
  2
AcDbSortentsTable
  3
ObjectDBX Classes
 90
        0
 91
        2
280
     0
281
     0
  0
CLASS
  1
CELLSTYLEMAP
  2
AcDbCellStyleMap
  3
ObjectDBX Classes
 90
     1152
 91
        3
280
     0
281
     0
  0
CLASS
  1
DICTIONARYVAR
  2
AcDbDictionaryVar
  3
ObjectDBX Classes
 90
        0
 91
       12
280
     0
281
     0
  0
CLASS
  1
ACME_DOCUMENT
  2
AcMeDbDoc
  3
AcMeServices
 90
     1024
 91
        1
280
     0
281
     0
  0
CLASS
  1
ACMESCOPE
  2
AcMeScope
  3
AcMeServices
 90
     1024
 91
        1
280
     0
281
     0
  0
CLASS
  1
ACMECOMMANDHISTORY
  2
AcMeCommandHistory
  3
AcMeServices
 90
     1024
 91
        1
280
     0
281
     0
  0
CLASS
  1
ACIMSYSVARMAN
  2
AcImSysVarManager
  3
AcMeServices
 90
     1024
 91
        3
280
     0
281
     0
  0
CLASS
  1
ACIMINTSYSVAR
  2
AcImIntSysVar
  3
AcMeServices
 90
     1024
 91
        2
280
     0
281
     0
  0
CLASS
  1
ACMESTATEMGR
  2
AcMeStateMgr
  3
AcMeServices
 90
     1024
 91
        1
280
     0
281
     0
  0
CLASS
  1
ACDBENTITYCACHE
  2
AcMeEntityCache
  3
AcMeServices
 90
     1024
 91
        1
280
     0
281
     0
  0
CLASS
  1
ACGREFMASTER
  2
AcGrefMaster
  3
AcAttribServices
 90
     1024
 91
        1
280
     0
281
     0
  0
CLASS
  1
ACME_DATABASE
  2
AcMeDbDatabase
  3
AcMeServices
 90
     1024
 91
        2
280
     0
281
     0
  0
CLASS
  1
ACRFINSADJUSTERMGR
  2
AcRfInsAdjusterMgr
  3
AcMeServices
 90
     1024
 91
        1
280
     0
281
     0
  0
CLASS
  1
ACGREFACADMASTER
  2
AcGrefacadMaster
  3
AcGrefServices
 90
     1024
 91
        1
280
     0
281
     0
  0
CLASS
  1
AMDTMENUSTATEMGR
  2
AmdtMenuStateMgr
  3
McadcomServices
 90
     1024
 91
        1
280
     0
281
     0
  0
CLASS
  1
AMDTMCOMMENUSTATE
  2
AmdtMcomMenuState
  3
McadcomServices
 90
     1024
 91
        1
280
     0
281
     0
  0
CLASS
  1
AMIMASTER
  2
AmiMaster
  3
AmiServices
 90
     1024
 91
        1
280
     0
281
     0
  0
CLASS
  1
AMGSETTINGSOBJ
  2
AmgSettingsObj
  3
"AcadM|Product Description: AutoCAD Mechanical|Company: Autodesk, Inc."
 90
     1024
 91
        2
280
     0
281
     0
  0
CLASS
  1
MAPIAMMOUDLE
  2
MApiAmModule
  3
MApiAmServices
 90
     1024
 91
        1
280
     0
281
     0
  0
CLASS
  1
ACIMSTRSYSVAR
  2
AcImStrSysVar
  3
AcMeServices
 90
     1024
 91
        5
280
     0
281
     0
  0
CLASS
  1
AMDTAMMENUSTATE
  2
AmdtAmMenuState
  3
DesignerAssemblies
 90
     1024
 91
        1
280
     0
281
     0
  0
CLASS
  1
ACAMPROJECT
  2
AcAmProject
  3
DesignerAssemblies
 90
     1024
 91
        1
280
     0
281
     0
  0
CLASS
  1
ACAMGRCOMPDEF
  2
AcAmGrCompDef
  3
DesignerAssemblies
 90
     1024
 91
        1
280
     0
281
     0
  0
CLASS
  1
ACAMCOMPDEF
  2
AcAmCompDef
  3
DesignerAssemblies
 90
     1024
 91
        1
280
     0
281
     0
  0
CLASS
  1
ACAMCOMPDEFMGR
  2
AcAmCompDefMgr
  3
DesignerAssemblies
 90
     1024
 91
        1
280
     0
281
     0
  0
CLASS
  1
AMCONTEXTMGR
  2
AcAmContextMgr
  3
DesignerAssemblies
 90
     1024
 91
        1
280
     0
281
     0
  0
CLASS
  1
ACAMCONTEXTMODELER
  2
AcAmContextModeler
  3
DesignerAssemblies
 90
     1024
 91
        1
280
     0
281
     0
  0
CLASS
  1
ACMDATADICTIONARY
  2
AcmDataDictionary
  3
"AcmSymBB|Product Description: AutoCAD Mechanical|Company: Autodesk, Inc."
 90
     1024
 91
        1
280
     0
281
     0
  0
CLASS
  1
ACAMGRCOMPDEFSET
  2
AcAmGrCompDefSet
  3
DesignerAssemblies
 90
     1024
 91
        1
280
     0
281
     0
  0
CLASS
  1
AMDTBROWSERDBTAB
  2
AmdtBrowserDbTab
  3
McadcomServices
 90
     1024
 91
        1
280
     0
281
     0
  0
CLASS
  1
CBROWSERAPPOBJECT
  2
CBrowserAppObject
  3
McadcomServices
 90
     1024
 91
        2
280
     0
281
     0
  0
CLASS
  1
DM_PLACEHOLDER
  2
AcDmSelsetPlaceholder
  3
McadcomServices
 90
     1024
 91
        1
280
     0
281
     0
  0
CLASS
  1
ACMSTANDARDDIN
  2
AcmStandardDIN
  3
"Amdt_StdImp|Product Description: AutoCAD Mechanical|Company: Autodesk, Inc."
 90
     1024
 91
        1
280
     0
281
     0
  0
CLASS
  1
AMDTEDGESTANDARDDIN13715
  2
AmdtEdgeStdDIN13715
  3
"Amdt_StdImp|Product Description: AutoCAD Mechanical|Company: Autodesk, Inc."
 90
     1024
 91
        1
280
     0
281
     0
  0
CLASS
  1
ACMSURFSTANDARDDIN2002
  2
AcmSurfTextStdDIN2002
  3
"Amdt_StdImp|Product Description: AutoCAD Mechanical|Company: Autodesk, Inc."
 90
     1024
 91
        1
280
     0
281
     0
  0
CLASS
  1
ACMFCFSTANDARDDIN2008
  2
AcmFCFStdDIN2008
  3
"Amdt_StdImp|Product Description: AutoCAD Mechanical|Company: Autodesk, Inc."
 90
     1024
 91
        1
280
     0
281
     0
  0
CLASS
  1
ACMWELDSTANDARDDIN
  2
AcmWeldingStdDIN
  3
"Amdt_StdImp|Product Description: AutoCAD Mechanical|Company: Autodesk, Inc."
 90
     1024
 91
        1
280
     0
281
     0
  0
CLASS
  1
ACMIDSTANDARDDIN2008
  2
AcmIdStdDIN2008
  3
"Amdt_StdImp|Product Description: AutoCAD Mechanical|Company: Autodesk, Inc."
 90
     1024
 91
        1
280
     0
281
     0
  0
CLASS
  1
ACMDATUMSTANDARDDIN
  2
AcmDatumStdDIN
  3
"Amdt_StdImp|Product Description: AutoCAD Mechanical|Company: Autodesk, Inc."
 90
     1024
 91
        1
280
     0
281
     0
  0
CLASS
  1
ACMBOMSTANDARDDIN
  2
AcmBOMStdDIN
  3
"Amdt_StdImp|Product Description: AutoCAD Mechanical|Company: Autodesk, Inc."
 90
     1024
 91
        1
280
     0
281
     0
  0
CLASS
  1
ACMDETAILSTANDARDDIN
  2
AmdtDetailSymStdDIN
  3
"Amdt_StdImp|Product Description: AutoCAD Mechanical|Company: Autodesk, Inc."
 90
     1024
 91
        1
280
     0
281
     0
  0
CLASS
  1
ACMSECTIONSTANDARDDIN
  2
AmdtSectionSymStdDIN
  3
"Amdt_StdImp|Product Description: AutoCAD Mechanical|Company: Autodesk, Inc."
 90
     1024
 91
        1
280
     0
281
     0
  0
CLASS
  1
ACMCENTERLINESTANDARDDIN
  2
AmdtCenterLineStdDIN
  3
"Amdt_StdImp|Product Description: AutoCAD Mechanical|Company: Autodesk, Inc."
 90
     1024
 91
        1
280
     0
281
     0
  0
CLASS
  1
ACMTHREADLINESTANDARDDIN
  2
AmdtThreadLineStdDIN
  3
"Amdt_StdImp|Product Description: AutoCAD Mechanical|Company: Autodesk, Inc."
 90
     1024
 91
        1
280
     0
281
     0
  0
CLASS
  1
ACMNOTESTANDARDDIN
  2
AmdtNoteStdDIN
  3
"Amdt_StdImp|Product Description: AutoCAD Mechanical|Company: Autodesk, Inc."
 90
     1024
 91
        1
280
     0
281
     0
  0
CLASS
  1
ACMTAPERSTANDARDDIN
  2
AcmTaperStdDIN
  3
"Amdt_StdImp|Product Description: AutoCAD Mechanical|Company: Autodesk, Inc."
 90
     1024
 91
        1
280
     0
281
     0
  0
CLASS
  1
ACMANOOTATIONVIEWSTANDARDDIN
  2
AmdtAnViewStdDIN
  3
"Amdt_StdImp|Product Description: AutoCAD Mechanical|Company: Autodesk, Inc."
 90
     1024
 91
        1
280
     0
281
     0
  0
CLASS
  1
ACAMGLAYSTD
  2
AcAmgLayStd
  3
"AmgLay|Product Description: AutoCAD Mechanical|Company: Autodesk, Inc."
 90
     1024
 91
        1
280
     0
281
     0
  0
CLASS
  1
ACAMGDIMSTD
  2
AcAmgDimStd
  3
"AmgDim|Product Description: AutoCAD Mechanical|Company: Autodesk, Inc."
 90
     1024
 91
        1
280
     0
281
     0
  0
CLASS
  1
AMGOBJPROPCFG
  2
AmgObjPropCfg
  3
"AmgLay|Product Description: AutoCAD Mechanical|Company: Autodesk, Inc."
 90
     1024
 91
        1
280
     0
281
     0
  0
CLASS
  1
ACAMGHOLECHARTSTDDIN
  2
AcAmgHoleChartStdDIN
  3
AmgDim|Product Description: AutoCAD Mechanical|Company: Autodesk, Inc.
 90
     1024
 91
        1
280
     0
281
     0
  0
CLASS
  1
ACAMGTITLESTD
  2
AcAmgTitleStd
  3
"AmgTitle|Product Description: AutoCAD Mechanical|Company: Autodesk, Inc."
 90
     1024
 91
        1
280
     0
281
     0
  0
CLASS
  1
AMDTNOTETEMPLATEDB
  2
AmdtNoteTemplateDB
  3
AcmSymBB|Product Description: AutoCAD Mechanical|Company: Autodesk, Inc.
 90
     1024
 91
        7
280
     0
281
     0
  0
CLASS
  1
EXACXREFPANELOBJECT
  2
ExAcXREFPanelObject
  3
EXAC_ESW
 90
     1025
 91
        2
280
     0
281
     0
  0
CLASS
  1
NPOCOLLECTION
  2
AcDbImpNonPersistentObjectsCollection
  3
ObjectDBX Classes
 90
     1153
 91
        1
280
     0
281
     0
  0
CLASS
  1
ACAD_EVALUATION_GRAPH
  2
AcDbEvalGraph
  3
ObjectDBX Classes
 90
     1153
 91
        1
280
     0
281
     0
  0
CLASS
  1
ACAECUSTOBJ
  2
AcAeEditorObj
  3
AcAeEditorObj
 90
     1024
 91
        1
280
     0
281
     0
  0
CLASS
  1
ACAMGFILTERDAT
  2
AcAmgFilterDat
  3
"AcadM|Product Description: AutoCAD Mechanical|Company: Autodesk, Inc."
 90
     1024
 91
        6
280
     0
281
     0
  0
CLASS
  1
ACDB_DYNAMICBLOCKPURGEPREVENTER_VERSION
  2
AcDbDynamicBlockPurgePreventer
  3
ObjectDBX Classes
 90
     1153
 91
        1
280
     0
281
     0
  0
ENDSEC
  0
SECTION
  2
TABLES
  0
TABLE
  2
VPORT
  5
8
102
{ACAD_XDICTIONARY
360
887
102
}
330
0
100
AcDbSymbolTable
 70
     1
  0
VPORT
  5
57
330
8
100
AcDbSymbolTableRecord
100
AcDbViewportTableRecord
  2
*Active
 70
     0
 10
0.0
 20
0.0
 11
1.0
 21
1.0
 12
97.23242392444911
 22
52.5
 13
0.0
 23
0.0
 14
1.0
 24
1.0
 15
0.0
 25
0.0
 16
0.0
 26
0.0
 36
1.0
 17
0.0
 27
0.0
 37
0.0
 40
105.0
 41
1.852046169989506
 42
50.0
 43
0.0
 44
0.0
 50
0.0
 51
0.0
 71
     0
 72
   100
 73
     1
 74
     1
 75
     0
 76
     0
 77
     0
 78
     0
281
     0
 65
     0
110
0.0
120
0.0
130
0.0
111
1.0
121
0.0
131
0.0
112
0.0
122
1.0
132
0.0
 79
     0
146
0.0
1001
ACAD_NAV_VCDISPLAY
1070
     3
  0
ENDTAB
  0
TABLE
  2
LTYPE
  5
5
330
0
100
AcDbSymbolTable
 70
    62
  0
LTYPE
  5
5B
330
5
100
AcDbSymbolTableRecord
100
AcDbLinetypeTableRecord
  2
ByBlock
 70
     0
  3

 72
    65
 73
     0
 40
0.0
  0
LTYPE
  5
5C
330
5
100
AcDbSymbolTableRecord
100
AcDbLinetypeTableRecord
  2
ByLayer
 70
     0
  3

 72
    65
 73
     0
 40
0.0
  0
LTYPE
  5
5D
330
5
100
AcDbSymbolTableRecord
100
AcDbLinetypeTableRecord
  2
Continuous
 70
     0
  3
Solid line
 72
    65
 73
     0
 40
0.0
  0
LTYPE
  5
69
330
5
100
AcDbSymbolTableRecord
100
AcDbLinetypeTableRecord
  2
PHANTOM2
 70
     0
  3
Phantom (.5x) ___ _ _ ___ _ _ ___ _ _ ___ _ _
 72
    65
 73
     6
 40
1.25
 49
0.625
 74
     0
 49
-0.125
 74
     0
 49
0.125
 74
     0
 49
-0.125
 74
     0
 49
0.125
 74
     0
 49
-0.125
 74
     0
  0
LTYPE
  5
79
330
5
100
AcDbSymbolTableRecord
100
AcDbLinetypeTableRecord
  2
Section_View_Lines
 70
     0
  3
Section View Lines
 72
    65
 73
     4
 40
0.8406
 49
0.6614
 74
     0
 49
-0.0827
 74
     0
 49
0.0138
 74
     0
 49
-0.0827
 74
     0
  0
LTYPE
  5
7A
330
5
100
AcDbSymbolTableRecord
100
AcDbLinetypeTableRecord
  2
CHAIN
 70
     0
  3
Chain ____ _ ____ _ ____ _ ____ _ ____ _ ____
 72
    65
 73
     4
 40
0.3543
 49
0.2362
 74
     0
 49
-0.0295
 74
     0
 49
0.0591
 74
     0
 49
-0.0295
 74
     0
  0
LTYPE
  5
7B
330
5
100
AcDbSymbolTableRecord
100
AcDbLinetypeTableRecord
  2
DASH_DOT
 70
     0
  3
Dash dot _._._._._._._._._._._._._._._.
 72
    65
 73
     4
 40
0.37
 49
0.24
 74
     0
 49
-0.06
 74
     0
 49
0.01
 74
     0
 49
-0.06
 74
     0
  0
LTYPE
  5
7C
330
5
100
AcDbSymbolTableRecord
100
AcDbLinetypeTableRecord
  2
DASH_DOUBLE_DOT
 70
     0
  3
Dash Double Dot __ __ . __ __ . __ __ . __ _
 72
    65
 73
     6
 40
0.4398
 49
0.24
 74
     0
 49
-0.06
 74
     0
 49
0.0098
 74
     0
 49
-0.06
 74
     0
 49
0.01
 74
     0
 49
-0.06
 74
     0
  0
LTYPE
  5
7D
330
5
100
AcDbSymbolTableRecord
100
AcDbLinetypeTableRecord
  2
DASH_TRIPLE_DOT
 70
     0
  3
Dash Triple-Dot _ . . . _ . . . _ . . . _
 72
    65
 73
     8
 40
0.51
 49
0.24
 74
     0
 49
-0.06
 74
     0
 49
0.01
 74
     0
 49
-0.06
 74
     0
 49
0.01
 74
     0
 49
-0.06
 74
     0
 49
0.01
 74
     0
 49
-0.06
 74
     0
  0
LTYPE
  5
7E
330
5
100
AcDbSymbolTableRecord
100
AcDbLinetypeTableRecord
  2
DASHED
 70
     0
  3
Dashed __ __ __ __ __ __ __ __ __ __ __ __ __ _
 72
    65
 73
     2
 40
0.2067
 49
0.1654
 74
     0
 49
-0.0413
 74
     0
  0
LTYPE
  5
7F
330
5
100
AcDbSymbolTableRecord
100
AcDbLinetypeTableRecord
  2
DASHED_SPACE
 70
     0
  3
Dashed Space _._._._._._._._._._._._._._._.
 72
    65
 73
     2
 40
0.2067
 49
0.1654
 74
     0
 49
-0.0413
 74
     0
  0
LTYPE
  5
80
330
5
100
AcDbSymbolTableRecord
100
AcDbLinetypeTableRecord
  2
DOTTED
 70
     0
  3
Dotted . . . . . . . . . . . . . . . . . . . . 
 72
    65
 73
     2
 40
0.0482
 49
0.0069
 74
     0
 49
-0.0413
 74
     0
  0
LTYPE
  5
81
330
5
100
AcDbSymbolTableRecord
100
AcDbLinetypeTableRecord
  2
DOUBLE_DASH_CHAIN
 70
     0
  3
Double Dash Chain ___ _ _ ___ _ _ ___ _ _ ___ _
 72
    65
 73
     6
 40
1.240299999999999
 49
0.6614
 74
     0
 49
-0.0827
 74
     0
 49
0.1654
 74
     0
 49
-0.0827
 74
     0
 49
0.1654
 74
     0
 49
-0.0827
 74
     0
  0
LTYPE
  5
82
330
5
100
AcDbSymbolTableRecord
100
AcDbLinetypeTableRecord
  2
DOUBLE_DASH_DOT
 70
     0
  3
Double Dash Dot __ __ . __ __ . __ __ . __ _
 72
    65
 73
     6
 40
0.67
 49
0.24
 74
     0
 49
-0.06
 74
     0
 49
0.24
 74
     0
 49
-0.06
 74
     0
 49
0.01
 74
     0
 49
-0.06
 74
     0
  0
LTYPE
  5
83
330
5
100
AcDbSymbolTableRecord
100
AcDbLinetypeTableRecord
  2
DOUBLE_DASH_DOUBLE_DOT
 70
     0
  3
Double-dash double-dot _ _ . . _ _ . . _
 72
    65
 73
     8
 40
0.7400000000000001
 49
0.24
 74
     0
 49
-0.06
 74
     0
 49
0.24
 74
     0
 49
-0.06
 74
     0
 49
0.01
 74
     0
 49
-0.06
 74
     0
 49
0.01
 74
     0
 49
-0.06
 74
     0
  0
LTYPE
  5
84
330
5
100
AcDbSymbolTableRecord
100
AcDbLinetypeTableRecord
  2
DOUBLE_DASH_TRIPLE_DOT
 70
     0
  3
Double Dash Triple Dot __ __ . . . __ __ . . .
 72
    65
 73
    10
 40
0.8100000000000001
 49
0.24
 74
     0
 49
-0.06
 74
     0
 49
0.24
 74
     0
 49
-0.06
 74
     0
 49
0.01
 74
     0
 49
-0.06
 74
     0
 49
0.01
 74
     0
 49
-0.06
 74
     0
 49
0.01
 74
     0
 49
-0.06
 74
     0
  0
LTYPE
  5
85
330
5
100
AcDbSymbolTableRecord
100
AcDbLinetypeTableRecord
  2
LONG_DASH_DOTTED
 70
     0
  3
Long-Dash Dot ____ . ____ . ____ . ____ . _
 72
    65
 73
     4
 40
0.3001
 49
0.2362
 74
     0
 49
-0.0295
 74
     0
 49
0.0049
 74
     0
 49
-0.0295
 74
     0
  0
LTYPE
  5
86
330
5
100
AcDbSymbolTableRecord
100
AcDbLinetypeTableRecord
  2
LONG_DASH_DOUBLE_DOT
 70
     0
  3
Long Dash Double Dot ____ . . ____ . . ____ . .
 72
    65
 73
     6
 40
0.3345
 49
0.2362
 74
     0
 49
-0.0295
 74
     0
 49
0.0049
 74
     0
 49
-0.0295
 74
     0
 49
0.0049
 74
     0
 49
-0.0295
 74
     0
  0
LTYPE
  5
87
330
5
100
AcDbSymbolTableRecord
100
AcDbLinetypeTableRecord
  2
LONG_DASH_TRIPLE_DOT
 70
     0
  3
Long Dash Triple Dot ____ ... ____ ... ____
 72
    65
 73
     8
 40
0.75
 49
0.48
 74
     0
 49
-0.06
 74
     0
 49
0.01
 74
     0
 49
-0.06
 74
     0
 49
0.01
 74
     0
 49
-0.06
 74
     0
 49
0.01
 74
     0
 49
-0.06
 74
     0
  0
LTYPE
  5
88
330
5
100
AcDbSymbolTableRecord
100
AcDbLinetypeTableRecord
  2
BORDER
 70
     0
  3
Border __ __ . __ __ . __ __ . __ __ . __ __ .
 72
    65
 73
     6
 40
44.45
 49
12.7
 74
     0
 49
-6.349999999999999
 74
     0
 49
12.7
 74
     0
 49
-6.349999999999999
 74
     0
 49
0.0
 74
     0
 49
-6.349999999999999
 74
     0
  0
LTYPE
  5
89
330
5
100
AcDbSymbolTableRecord
100
AcDbLinetypeTableRecord
  2
BORDER2
 70
     0
  3
Border (.5x) __.__.__.__.__.__.__.__.__.__.__.
 72
    65
 73
     6
 40
22.225
 49
6.349999999999999
 74
     0
 49
-3.174999999999999
 74
     0
 49
6.349999999999999
 74
     0
 49
-3.174999999999999
 74
     0
 49
0.0
 74
     0
 49
-3.174999999999999
 74
     0
  0
LTYPE
  5
8A
330
5
100
AcDbSymbolTableRecord
100
AcDbLinetypeTableRecord
  2
BORDERX2
 70
     0
  3
Border (2x) ____  ____  .  ____  ____  .  ___
 72
    65
 73
     6
 40
88.9
 49
25.4
 74
     0
 49
-12.7
 74
     0
 49
25.4
 74
     0
 49
-12.7
 74
     0
 49
0.0
 74
     0
 49
-12.7
 74
     0
  0
LTYPE
  5
8B
330
5
100
AcDbSymbolTableRecord
100
AcDbLinetypeTableRecord
  2
CENTER
 70
     0
  3
Center ____ _ ____ _ ____ _ ____ _ ____ _ ____
 72
    65
 73
     4
 40
50.8
 49
31.75
 74
     0
 49
-6.349999999999999
 74
     0
 49
6.349999999999999
 74
     0
 49
-6.349999999999999
 74
     0
  0
LTYPE
  5
8C
330
5
100
AcDbSymbolTableRecord
100
AcDbLinetypeTableRecord
  2
CENTER2
 70
     0
  3
Center (.5x) ___ _ ___ _ ___ _ ___ _ ___ _ ___
 72
    65
 73
     4
 40
28.575
 49
19.05
 74
     0
 49
-3.174999999999999
 74
     0
 49
3.174999999999999
 74
     0
 49
-3.174999999999999
 74
     0
  0
LTYPE
  5
8D
330
5
100
AcDbSymbolTableRecord
100
AcDbLinetypeTableRecord
  2
CENTERX2
 70
     0
  3
Center (2x) ________  __  ________  __  _____
 72
    65
 73
     4
 40
101.6
 49
63.5
 74
     0
 49
-12.7
 74
     0
 49
12.7
 74
     0
 49
-12.7
 74
     0
  0
LTYPE
  5
8E
330
5
100
AcDbSymbolTableRecord
100
AcDbLinetypeTableRecord
  2
DASHDOT2
 70
     0
  3
Dash dot (.5x) _._._._._._._._._._._._._._._.
 72
    65
 73
     4
 40
12.7
 49
6.349999999999999
 74
     0
 49
-3.174999999999999
 74
     0
 49
0.0
 74
     0
 49
-3.174999999999999
 74
     0
  0
LTYPE
  5
8F
330
5
100
AcDbSymbolTableRecord
100
AcDbLinetypeTableRecord
  2
DASHDOTX2
 70
     0
  3
Dash dot (2x) ____  .  ____  .  ____  .  ___
 72
    65
 73
     4
 40
50.8
 49
25.4
 74
     0
 49
-12.7
 74
     0
 49
0.0
 74
     0
 49
-12.7
 74
     0
  0
LTYPE
  5
90
330
5
100
AcDbSymbolTableRecord
100
AcDbLinetypeTableRecord
  2
DASHED2
 70
     0
  3
Dashed (.5x) _ _ _ _ _ _ _ _ _ _ _ _ _ _ _ _ _
 72
    65
 73
     2
 40
9.524999999999998
 49
6.349999999999999
 74
     0
 49
-3.174999999999999
 74
     0
  0
LTYPE
  5
91
330
5
100
AcDbSymbolTableRecord
100
AcDbLinetypeTableRecord
  2
DASHEDX2
 70
     0
  3
Dashed (2x) ____  ____  ____  ____  ____  ___
 72
    65
 73
     2
 40
38.1
 49
25.4
 74
     0
 49
-12.7
 74
     0
  0
LTYPE
  5
92
330
5
100
AcDbSymbolTableRecord
100
AcDbLinetypeTableRecord
  2
DIVIDE
 70
     0
  3
Divide ____ . . ____ . . ____ . . ____ . . ____
 72
    65
 73
     6
 40
31.75
 49
12.7
 74
     0
 49
-6.349999999999999
 74
     0
 49
0.0
 74
     0
 49
-6.349999999999999
 74
     0
 49
0.0
 74
     0
 49
-6.349999999999999
 74
     0
  0
LTYPE
  5
93
330
5
100
AcDbSymbolTableRecord
100
AcDbLinetypeTableRecord
  2
DIVIDE2
 70
     0
  3
Divide (.5x) __..__..__..__..__..__..__..__.._
 72
    65
 73
     6
 40
15.875
 49
6.349999999999999
 74
     0
 49
-3.174999999999999
 74
     0
 49
0.0
 74
     0
 49
-3.174999999999999
 74
     0
 49
0.0
 74
     0
 49
-3.174999999999999
 74
     0
  0
LTYPE
  5
94
330
5
100
AcDbSymbolTableRecord
100
AcDbLinetypeTableRecord
  2
DIVIDEX2
 70
     0
  3
Divide (2x) ________  .  .  ________  .  .  _
 72
    65
 73
     6
 40
63.49999999999999
 49
25.4
 74
     0
 49
-12.7
 74
     0
 49
0.0
 74
     0
 49
-12.7
 74
     0
 49
0.0
 74
     0
 49
-12.7
 74
     0
  0
LTYPE
  5
95
330
5
100
AcDbSymbolTableRecord
100
AcDbLinetypeTableRecord
  2
DOT
 70
     0
  3
Dot . . . . . . . . . . . . . . . . . . . . . .
 72
    65
 73
     2
 40
6.349999999999999
 49
0.0
 74
     0
 49
-6.349999999999999
 74
     0
  0
LTYPE
  5
96
330
5
100
AcDbSymbolTableRecord
100
AcDbLinetypeTableRecord
  2
DOT2
 70
     0
  3
Dot (.5x) .....................................
 72
    65
 73
     2
 40
3.174999999999999
 49
0.0
 74
     0
 49
-3.174999999999999
 74
     0
  0
LTYPE
  5
97
330
5
100
AcDbSymbolTableRecord
100
AcDbLinetypeTableRecord
  2
DOTX2
 70
     0
  3
Dot (2x) .  .  .  .  .  .  .  .  .  .  .  .  . 
 72
    65
 73
     2
 40
12.7
 49
0.0
 74
     0
 49
-12.7
 74
     0
  0
LTYPE
  5
98
330
5
100
AcDbSymbolTableRecord
100
AcDbLinetypeTableRecord
  2
HIDDEN
 70
     0
  3
Hidden __ __ __ __ __ __ __ __ __ __ __ __ __ _
 72
    65
 73
     2
 40
9.524999999999998
 49
6.349999999999999
 74
     0
 49
-3.174999999999999
 74
     0
  0
LTYPE
  5
99
330
5
100
AcDbSymbolTableRecord
100
AcDbLinetypeTableRecord
  2
HIDDEN2
 70
     0
  3
Hidden (.5x) _ _ _ _ _ _ _ _ _ _ _ _ _ _ _ _ _
 72
    65
 73
     2
 40
4.762499999999999
 49
3.174999999999999
 74
     0
 49
-1.587499999999999
 74
     0
  0
LTYPE
  5
9A
330
5
100
AcDbSymbolTableRecord
100
AcDbLinetypeTableRecord
  2
HIDDENX2
 70
     0
  3
Hidden (2x) ____ ____ ____ ____ ____ ____ ____
 72
    65
 73
     2
 40
19.05
 49
12.7
 74
     0
 49
-6.349999999999999
 74
     0
  0
LTYPE
  5
9B
330
5
100
AcDbSymbolTableRecord
100
AcDbLinetypeTableRecord
  2
PHANTOM
 70
     0
  3
Phantom ______  __  __  ______  __  __  ______
 72
    65
 73
     6
 40
63.5
 49
31.75
 74
     0
 49
-6.349999999999999
 74
     0
 49
6.349999999999999
 74
     0
 49
-6.349999999999999
 74
     0
 49
6.349999999999999
 74
     0
 49
-6.349999999999999
 74
     0
  0
LTYPE
  5
9D
330
5
100
AcDbSymbolTableRecord
100
AcDbLinetypeTableRecord
  2
PHANTOMX2
 70
     0
  3
Phantom (2x) ____________    ____    ____   _
 72
    65
 73
     6
 40
127.0
 49
63.5
 74
     0
 49
-12.7
 74
     0
 49
12.7
 74
     0
 49
-12.7
 74
     0
 49
12.7
 74
     0
 49
-12.7
 74
     0
  0
LTYPE
  5
9E
330
5
100
AcDbSymbolTableRecord
100
AcDbLinetypeTableRecord
  2
ACAD_ISO02W100
 70
     0
  3
ISO dash __ __ __ __ __ __ __ __ __ __ __ __ __
 72
    65
 73
     2
 40
15.0
 49
12.0
 74
     0
 49
-3.0
 74
     0
  0
LTYPE
  5
9F
330
5
100
AcDbSymbolTableRecord
100
AcDbLinetypeTableRecord
  2
ACAD_ISO03W100
 70
     0
  3
ISO dash space __    __    __    __    __    __
 72
    65
 73
     2
 40
30.0
 49
12.0
 74
     0
 49
-18.0
 74
     0
  0
LTYPE
  5
A0
330
5
100
AcDbSymbolTableRecord
100
AcDbLinetypeTableRecord
  2
ACAD_ISO04W100
 70
     0
  3
ISO long-dash dot ____ . ____ . ____ . ____ . _
 72
    65
 73
     4
 40
30.0
 49
24.0
 74
     0
 49
-3.0
 74
     0
 49
0.0
 74
     0
 49
-3.0
 74
     0
  0
LTYPE
  5
A1
330
5
100
AcDbSymbolTableRecord
100
AcDbLinetypeTableRecord
  2
ACAD_ISO05W100
 70
     0
  3
ISO long-dash double-dot ____ .. ____ .. ____ .
 72
    65
 73
     6
 40
33.0
 49
24.0
 74
     0
 49
-3.0
 74
     0
 49
0.0
 74
     0
 49
-3.0
 74
     0
 49
0.0
 74
     0
 49
-3.0
 74
     0
  0
LTYPE
  5
A2
330
5
100
AcDbSymbolTableRecord
100
AcDbLinetypeTableRecord
  2
ACAD_ISO06W100
 70
     0
  3
ISO long-dash triple-dot ____ ... ____ ... ____
 72
    65
 73
     8
 40
36.0
 49
24.0
 74
     0
 49
-3.0
 74
     0
 49
0.0
 74
     0
 49
-3.0
 74
     0
 49
0.0
 74
     0
 49
-3.0
 74
     0
 49
0.0
 74
     0
 49
-3.0
 74
     0
  0
LTYPE
  5
A3
330
5
100
AcDbSymbolTableRecord
100
AcDbLinetypeTableRecord
  2
ACAD_ISO07W100
 70
     0
  3
ISO dot . . . . . . . . . . . . . . . . . . . .
 72
    65
 73
     2
 40
3.0
 49
0.0
 74
     0
 49
-3.0
 74
     0
  0
LTYPE
  5
A4
330
5
100
AcDbSymbolTableRecord
100
AcDbLinetypeTableRecord
  2
ACAD_ISO08W100
 70
     0
  3
ISO long-dash short-dash ____ __ ____ __ ____ _
 72
    65
 73
     4
 40
36.0
 49
24.0
 74
     0
 49
-3.0
 74
     0
 49
6.0
 74
     0
 49
-3.0
 74
     0
  0
LTYPE
  5
A5
330
5
100
AcDbSymbolTableRecord
100
AcDbLinetypeTableRecord
  2
ACAD_ISO09W100
 70
     0
  3
ISO long-dash double-short-dash ____ __ __ ____
 72
    65
 73
     6
 40
45.0
 49
24.0
 74
     0
 49
-3.0
 74
     0
 49
6.0
 74
     0
 49
-3.0
 74
     0
 49
6.0
 74
     0
 49
-3.0
 74
     0
  0
LTYPE
  5
A6
330
5
100
AcDbSymbolTableRecord
100
AcDbLinetypeTableRecord
  2
ACAD_ISO10W100
 70
     0
  3
ISO dash dot __ . __ . __ . __ . __ . __ . __ .
 72
    65
 73
     4
 40
18.0
 49
12.0
 74
     0
 49
-3.0
 74
     0
 49
0.0
 74
     0
 49
-3.0
 74
     0
  0
LTYPE
  5
A7
330
5
100
AcDbSymbolTableRecord
100
AcDbLinetypeTableRecord
  2
ACAD_ISO11W100
 70
     0
  3
ISO double-dash dot __ __ . __ __ . __ __ . __ 
 72
    65
 73
     6
 40
33.0
 49
12.0
 74
     0
 49
-3.0
 74
     0
 49
12.0
 74
     0
 49
-3.0
 74
     0
 49
0.0
 74
     0
 49
-3.0
 74
     0
  0
LTYPE
  5
A8
330
5
100
AcDbSymbolTableRecord
100
AcDbLinetypeTableRecord
  2
ACAD_ISO12W100
 70
     0
  3
ISO dash double-dot __ . . __ . . __ . . __ . .
 72
    65
 73
     6
 40
21.0
 49
12.0
 74
     0
 49
-3.0
 74
     0
 49
0.0
 74
     0
 49
-3.0
 74
     0
 49
0.0
 74
     0
 49
-3.0
 74
     0
  0
LTYPE
  5
A9
330
5
100
AcDbSymbolTableRecord
100
AcDbLinetypeTableRecord
  2
ACAD_ISO13W100
 70
     0
  3
ISO double-dash double-dot __ __ . . __ __ . . 
 72
    65
 73
     8
 40
36.0
 49
12.0
 74
     0
 49
-3.0
 74
     0
 49
12.0
 74
     0
 49
-3.0
 74
     0
 49
0.0
 74
     0
 49
-3.0
 74
     0
 49
0.0
 74
     0
 49
-3.0
 74
     0
  0
LTYPE
  5
AA
330
5
100
AcDbSymbolTableRecord
100
AcDbLinetypeTableRecord
  2
ACAD_ISO14W100
 70
     0
  3
ISO dash triple-dot __ . . . __ . . . __ . . . 
 72
    65
 73
     8
 40
24.0
 49
12.0
 74
     0
 49
-3.0
 74
     0
 49
0.0
 74
     0
 49
-3.0
 74
     0
 49
0.0
 74
     0
 49
-3.0
 74
     0
 49
0.0
 74
     0
 49
-3.0
 74
     0
  0
LTYPE
  5
AB
330
5
100
AcDbSymbolTableRecord
100
AcDbLinetypeTableRecord
  2
ACAD_ISO15W100
 70
     0
  3
ISO double-dash triple-dot __ __ . . . __ __ . 
 72
    65
 73
    10
 40
39.0
 49
12.0
 74
     0
 49
-3.0
 74
     0
 49
12.0
 74
     0
 49
-3.0
 74
     0
 49
0.0
 74
     0
 49
-3.0
 74
     0
 49
0.0
 74
     0
 49
-3.0
 74
     0
 49
0.0
 74
     0
 49
-3.0
 74
     0
  0
LTYPE
  5
AE
330
5
100
AcDbSymbolTableRecord
100
AcDbLinetypeTableRecord
  2
FENCELINE1
 70
     0
  3
Fenceline circle ----0-----0----0-----0----0---
 72
    65
 73
     4
 40
36.83
 49
6.349999999999999
 74
     0
 49
-2.54
 74
     4
 75
   133
340
AD
 46
2.54
 50
0.0
 44
-2.54
 45
0.0
 49
-2.54
 74
     0
 49
25.4
 74
     0
  0
LTYPE
  5
AF
330
5
100
AcDbSymbolTableRecord
100
AcDbLinetypeTableRecord
  2
FENCELINE2
 70
     0
  3
Fenceline square ----[]-----[]----[]-----[]----
 72
    65
 73
     4
 40
36.83
 49
6.349999999999999
 74
     0
 49
-2.54
 74
     4
 75
   132
340
AD
 46
2.54
 50
0.0
 44
-2.54
 45
0.0
 49
-2.54
 74
     0
 49
25.4
 74
     0
  0
LTYPE
  5
B0
330
5
100
AcDbSymbolTableRecord
100
AcDbLinetypeTableRecord
  2
TRACKS
 70
     0
  3
Tracks -|-|-|-|-|-|-|-|-|-|-|-|-|-|-|-|-|-|-|-|
 72
    65
 73
     2
 40
7.62
 49
3.81
 74
     4
 75
   130
340
AD
 46
6.349999999999999
 50
0.0
 44
0.0
 45
0.0
 49
3.81
 74
     0
  0
LTYPE
  5
B1
330
5
100
AcDbSymbolTableRecord
100
AcDbLinetypeTableRecord
  2
BATTING
 70
     0
  3
Batting SSSSSSSSSSSSSSSSSSSSSSSSSSSSSSSSSSSSSSS
 72
    65
 73
     4
 40
10.16254
 49
0.00254
 74
     0
 49
-2.54
 74
     4
 75
   134
340
AD
 46
2.54
 50
0.0
 44
-2.54
 45
0.0
 49
-5.08
 74
     4
 75
   134
340
AD
 46
2.54
 50
180.0
 44
2.54
 45
0.0
 49
-2.54
 74
     0
  0
LTYPE
  5
B2
330
5
100
AcDbSymbolTableRecord
100
AcDbLinetypeTableRecord
  2
HOT_WATER_SUPPLY
 70
     0
  3
Hot water supply ---- HW ---- HW ---- HW ----
 72
    65
 73
     3
 40
22.86
 49
12.7
 74
     0
 49
-5.08
 74
     2
 75
     0
340
55
 46
2.54
 50
0.0
 44
-2.54
 45
-1.27
  9
HW
 49
-5.08
 74
     0
  0
LTYPE
  5
B3
330
5
100
AcDbSymbolTableRecord
100
AcDbLinetypeTableRecord
  2
GAS_LINE
 70
     0
  3
Gas line ----GAS----GAS----GAS----GAS----GAS---
 72
    65
 73
     3
 40
24.13
 49
12.7
 74
     0
 49
-5.08
 74
     2
 75
     0
340
55
 46
2.54
 50
0.0
 44
-2.54
 45
-1.27
  9
GAS
 49
-6.349999999999999
 74
     0
  0
LTYPE
  5
B4
330
5
100
AcDbSymbolTableRecord
100
AcDbLinetypeTableRecord
  2
ZIGZAG
 70
     0
  3
Zig zag /\/\/\/\/\/\/\/\/\/\/\/\/\/\/\/\/\/\/\/
 72
    65
 73
     4
 40
20.32254
 49
0.00254
 74
     0
 49
-5.08
 74
     4
 75
   131
340
AD
 46
5.08
 50
0.0
 44
-5.08
 45
0.0
 49
-10.16
 74
     4
 75
   131
340
AD
 46
5.08
 50
180.0
 44
5.08
 45
0.0
 49
-5.08
 74
     0
  0
LTYPE
  5
938
330
5
100
AcDbSymbolTableRecord
100
AcDbLinetypeTableRecord
  2
ACDINWELD
 70
     0
  3
_ _ _ _ _
 72
    65
 73
     2
 40
2.0
 49
2.0
 74
     0
 49
-1.0
 74
     0
  0
LTYPE
  5
939
330
5
100
AcDbSymbolTableRecord
100
AcDbLinetypeTableRecord
  2
ACDINTGL
 70
     0
  3
_ _ _ _ _
 72
    65
 73
     2
 40
3.0
 49
2.0
 74
     0
 49
-1.0
 74
     0
  0
LTYPE
  5
93A
330
5
100
AcDbSymbolTableRecord
100
AcDbLinetypeTableRecord
  2
ACDINTGB
 70
     0
  3
__ . . __ . .
 72
    65
 73
     6
 40
9.0
 49
4.0
 74
     0
 49
-1.0
 74
     0
 49
1.0
 74
     0
 49
-1.0
 74
     0
 49
1.0
 74
     0
 49
-1.0
 74
     0
  0
ENDTAB
  0
TABLE
  2
LAYER
  5
2
102
{ACAD_XDICTIONARY
360
99C
102
}
330
0
100
AcDbSymbolTable
 70
    14
  0
LAYER
  5
54
330
2
100
AcDbSymbolTableRecord
100
AcDbLayerTableRecord
  2
0
 70
     0
 62
     7
  6
Continuous
370
    -3
390
F
  0
LAYER
  5
C9
330
2
100
AcDbSymbolTableRecord
100
AcDbLayerTableRecord
  2
Bemaßungen(Laser)
 70
     0
 62
     7
  6
Continuous
370
     9
390
F
  0
LAYER
  5
EE
330
2
100
AcDbSymbolTableRecord
100
AcDbLayerTableRecord
  2
Mittellinie(Laser)
 70
     0
 62
     7
  6
CHAIN
370
     9
390
F
  0
LAYER
  5
F3
330
2
100
AcDbSymbolTableRecord
100
AcDbLayerTableRecord
  2
Mittelpunktmarkierung(Laser)
 70
     0
 62
     7
  6
CHAIN
370
     9
390
F
  0
LAYER
  5
FC
330
2
100
AcDbSymbolTableRecord
100
AcDbLayerTableRecord
  2
Rahmen (ISO)
 70
     0
 62
     7
  6
Continuous
370
    70
390
F
  0
LAYER
  5
105
330
2
100
AcDbSymbolTableRecord
100
AcDbLayerTableRecord
  2
Schnittansichtslinien(Laser)
 70
     0
 62
     7
  6
LONG_DASH_DOTTED
370
    35
390
F
  0
LAYER
  5
108
330
2
100
AcDbSymbolTableRecord
100
AcDbLayerTableRecord
  2
Schraffur
 70
     0
 62
   179
420
  1973831
  6
Continuous
370
     9
390
F
  0
LAYER
  5
10F
330
2
100
AcDbSymbolTableRecord
100
AcDbLayerTableRecord
  2
Sichtbare Kanten(Laser)
 70
     0
 62
     7
  6
Continuous
370
    35
390
F
  0
LAYER
  5
116
330
2
100
AcDbSymbolTableRecord
100
AcDbLayerTableRecord
  2
Skizziergeometrie(Laser)
 70
     0
 62
     7
  6
Continuous
370
    35
390
F
  0
LAYER
  5
123
330
2
100
AcDbSymbolTableRecord
100
AcDbLayerTableRecord
  2
Symbole(Laser)
 70
     0
 62
     7
  6
Continuous
370
    25
390
F
  0
LAYER
  5
12A
330
2
100
AcDbSymbolTableRecord
100
AcDbLayerTableRecord
  2
Titel (ISO)
 70
     0
 62
     7
  6
Continuous
370
    50
390
F
  0
LAYER
  5
12B
330
2
100
AcDbSymbolTableRecord
100
AcDbLayerTableRecord
  2
Titel 0_35
 70
     0
 62
     7
  6
Continuous
370
    35
390
F
  0
LAYER
  5
132
330
2
100
AcDbSymbolTableRecord
100
AcDbLayerTableRecord
  2
Verdeckte Kanten(Laser)
 70
     0
 62
     7
  6
DASHED
370
     9
390
F
  0
LAYER
  5
28C
330
2
100
AcDbSymbolTableRecord
100
AcDbLayerTableRecord
  2
Defpoints
 70
     0
 62
     7
  6
Continuous
290
     0
370
    -3
390
F
  0
ENDTAB
  0
TABLE
  2
STYLE
  5
3
330
0
100
AcDbSymbolTable
 70
    36
  0
STYLE
  5
55
330
3
100
AcDbSymbolTableRecord
100
AcDbTextStyleTableRecord
  2
Standard
 70
     0
 40
0.0
 41
1.0
 50
0.0
 71
     0
 42
0.2
  3
ISOCP.shx
  4

  0
STYLE
  5
5A
330
3
100
AcDbSymbolTableRecord
100
AcDbTextStyleTableRecord
  2
Annotative
 70
     0
 40
0.0
 41
1.0
 50
0.0
 71
     0
 42
0.2
  3
txt
  4

1001
AcadAnnotative
1000
AnnotativeData
1002
{
1070
     1
1070
     1
1002
}
  0
STYLE
  5
AD
330
3
100
AcDbSymbolTableRecord
100
AcDbTextStyleTableRecord
  2

 70
     1
 40
0.0
 41
1.0
 50
0.0
 71
     0
 42
0.2
  3
ltypeshp.shx
  4

  0
STYLE
  5
136
330
3
100
AcDbSymbolTableRecord
100
AcDbTextStyleTableRecord
  2
Aktuell-BSI
 70
     0
 40
0.0
 41
1.0
 50
0.0
 71
     0
 42
0.2
  3
arial.ttf
  4

1001
ACAD
1000
Arial
1071
      256
  0
STYLE
  5
137
330
3
100
AcDbSymbolTableRecord
100
AcDbTextStyleTableRecord
  2
Aktuell-DIN
 70
     0
 40
0.0
 41
1.0
 50
0.0
 71
     0
 42
0.2
  3
arial.ttf
  4

1001
ACAD
1000
Arial
1071
      256
  0
STYLE
  5
138
330
3
100
AcDbSymbolTableRecord
100
AcDbTextStyleTableRecord
  2
Aktuell-DIN-Laser
 70
     0
 40
0.0
 41
1.0
 50
0.0
 71
     0
 42
0.2
  3
arial.ttf
  4

1001
ACAD
1000
Arial
1071
      256
  0
STYLE
  5
139
330
3
100
AcDbSymbolTableRecord
100
AcDbTextStyleTableRecord
  2
Aktuell-DIN-Laser-Autocad-Farbe
 70
     0
 40
0.0
 41
1.0
 50
0.0
 71
     0
 42
0.2
  3
swissl.ttf
  4

1001
ACAD
1000
Swis721 Lt BT
1071
      256
  0
STYLE
  5
13A
330
3
100
AcDbSymbolTableRecord
100
AcDbTextStyleTableRecord
  2
Aktuell-DIN-Laser-Autocad-FarbeGroßer Text
 70
     0
 40
0.0
 41
1.0
 50
0.0
 71
     0
 42
0.2
  3
swissl.ttf
  4

1001
ACAD
1000
Swis721 Lt BT
1071
      256
  0
STYLE
  5
13B
330
3
100
AcDbSymbolTableRecord
100
AcDbTextStyleTableRecord
  2
Aktuell-DIN-Laser-Autocad-FarbeNach Layer
 70
     0
 40
0.0
 41
1.0
 50
0.0
 71
     0
 42
0.2
  3
swissl.ttf
  4

1001
ACAD
1000
Swis721 Lt BT
1071
      256
  0
STYLE
  5
13C
330
3
100
AcDbSymbolTableRecord
100
AcDbTextStyleTableRecord
  2
Aktuell-DIN-LaserGroßer Text
 70
     0
 40
0.0
 41
1.0
 50
0.0
 71
     0
 42
0.2
  3
arial.ttf
  4

1001
ACAD
1000
Arial
1071
      256
  0
STYLE
  5
13D
330
3
100
AcDbSymbolTableRecord
100
AcDbTextStyleTableRecord
  2
Aktuell-DIN-LaserNach Layer
 70
     0
 40
0.0
 41
1.0
 50
0.0
 71
     0
 42
0.2
  3
arial.ttf
  4

1001
ACAD
1000
Arial
1071
      256
  0
STYLE
  5
13E
330
3
100
AcDbSymbolTableRecord
100
AcDbTextStyleTableRecord
  2
Aktuell-DINGroßer Text
 70
     0
 40
0.0
 41
1.0
 50
0.0
 71
     0
 42
0.2
  3
arial.ttf
  4

1001
ACAD
1000
Arial
1071
      256
  0
STYLE
  5
13F
330
3
100
AcDbSymbolTableRecord
100
AcDbTextStyleTableRecord
  2
Aktuell-DINNach Layer
 70
     0
 40
0.0
 41
1.0
 50
0.0
 71
     0
 42
0.2
  3
arial.ttf
  4

1001
ACAD
1000
Arial
1071
      256
  0
STYLE
  5
140
330
3
100
AcDbSymbolTableRecord
100
AcDbTextStyleTableRecord
  2
Beschriftungen
 70
     0
 40
0.0
 41
1.0
 50
0.0
 71
     0
 42
0.2
  3
arial.ttf
  4

1001
ACAD
1000
Arial
1071
      256
  0
STYLE
  5
141
330
3
100
AcDbSymbolTableRecord
100
AcDbTextStyleTableRecord
  2
Beschriftungen-Autocad-Farbe
 70
     0
 40
0.0
 41
1.0
 50
0.0
 71
     0
 42
0.2
  3
swissl.ttf
  4

1001
ACAD
1000
Swis721 Lt BT
1071
      256
  0
STYLE
  5
142
330
3
100
AcDbSymbolTableRecord
100
AcDbTextStyleTableRecord
  2
Beschriftungen-Autocad-FarbeNach Layer
 70
     0
 40
0.0
 41
1.0
 50
0.0
 71
     0
 42
0.2
  3
swissl.ttf
  4

1001
ACAD
1000
Swis721 Lt BT
1071
      256
  0
STYLE
  5
143
330
3
100
AcDbSymbolTableRecord
100
AcDbTextStyleTableRecord
  2
BeschriftungenNach Layer
 70
     0
 40
0.0
 41
1.0
 50
0.0
 71
     0
 42
0.2
  3
arial.ttf
  4

1001
ACAD
1000
Arial
1071
      256
  0
STYLE
  5
144
330
3
100
AcDbSymbolTableRecord
100
AcDbTextStyleTableRecord
  2
Bezeichnungstext (DIN)
 70
     0
 40
0.0
 41
1.0
 50
0.0
 71
     0
 42
0.2
  3
isocpeur.ttf
  4

1001
ACAD
1000
ISOCPEUR
1071
      256
  0
STYLE
  5
145
330
3
100
AcDbSymbolTableRecord
100
AcDbTextStyleTableRecord
  2
DIN - Andere-Laser
 70
     0
 40
0.0
 41
1.0
 50
0.0
 71
     0
 42
0.2
  3
arial.ttf
  4

1001
ACAD
1000
Arial
1071
      256
  0
STYLE
  5
146
330
3
100
AcDbSymbolTableRecord
100
AcDbTextStyleTableRecord
  2
Notiztext (DIN)
 70
     0
 40
0.0
 41
1.0
 50
0.0
 71
     0
 42
0.2
  3
isocpeur.ttf
  4

1001
ACAD
1000
ISOCPEUR
1071
      256
  0
STYLE
  5
147
330
3
100
AcDbSymbolTableRecord
100
AcDbTextStyleTableRecord
  2
Notiztext(DIN) 2_5 mm
 70
     0
 40
0.0
 41
1.0
 50
0.0
 71
     0
 42
0.2
  3
isocpeur.ttf
  4

1001
ACAD
1000
ISOCPEUR
1071
      256
  0
STYLE
  5
148
330
3
100
AcDbSymbolTableRecord
100
AcDbTextStyleTableRecord
  2
Notiztext(DIN) 3mm
 70
     0
 40
0.0
 41
1.0
 50
0.0
 71
     0
 42
0.2
  3
isocpeur.ttf
  4

1001
ACAD
1000
ISOCPEUR
1071
      256
  0
STYLE
  5
149
330
3
100
AcDbSymbolTableRecord
100
AcDbTextStyleTableRecord
  2
Rahmen_1
 70
     0
 40
0.0
 41
1.0
 50
0.0
 71
     0
 42
0.2
  3
arial.ttf
  4

1001
ACAD
1000
Arial
1071
      256
  0
STYLE
  5
14A
330
3
100
AcDbSymbolTableRecord
100
AcDbTextStyleTableRecord
  2
STANDARD-DIN
 70
     0
 40
0.0
 41
1.0
 50
0.0
 71
     0
 42
0.2
  3
arial.ttf
  4

1001
ACAD
1000
Arial
1071
      256
  0
STYLE
  5
14B
330
3
100
AcDbSymbolTableRecord
100
AcDbTextStyleTableRecord
  2
STANDARD-DINNach Layer
 70
     0
 40
0.0
 41
1.0
 50
0.0
 71
     0
 42
0.2
  3
arial.ttf
  4

1001
ACAD
1000
Arial
1071
      256
  0
STYLE
  5
14C
330
3
100
AcDbSymbolTableRecord
100
AcDbTextStyleTableRecord
  2
STANDARD-Laser
 70
     0
 40
0.0
 41
1.0
 50
0.0
 71
     0
 42
0.2
  3
arial.ttf
  4

1001
ACAD
1000
Arial
1071
      256
  0
STYLE
  5
14D
330
3
100
AcDbSymbolTableRecord
100
AcDbTextStyleTableRecord
  2
STANDARD-LaserNach Layer
 70
     0
 40
0.0
 41
1.0
 50
0.0
 71
     0
 42
0.2
  3
arial.ttf
  4

1001
ACAD
1000
Arial
1071
      256
  0
STYLE
  5
1EC
330
3
100
AcDbSymbolTableRecord
100
AcDbTextStyleTableRecord
  2
Textstil153
 70
     0
 40
0.0
 41
1.0
 50
0.0
 71
     0
 42
0.2
  3
isocpeur.ttf
  4

1001
ACAD
1000
ISOCPEUR
1071
      256
  0
STYLE
  5
1F3
330
3
100
AcDbSymbolTableRecord
100
AcDbTextStyleTableRecord
  2
Textstil159
 70
     0
 40
0.0
 41
1.0
 50
0.0
 71
     0
 42
0.2
  3
isocpeur.ttf
  4

1001
ACAD
1000
ISOCPEUR
1071
      256
  0
STYLE
  5
1F7
330
3
100
AcDbSymbolTableRecord
100
AcDbTextStyleTableRecord
  2
Textstil157
 70
     0
 40
0.0
 41
1.0
 50
0.0
 71
     0
 42
0.2
  3
isocpeur.ttf
  4

1001
ACAD
1000
ISOCPEUR
1071
      256
  0
STYLE
  5
204
330
3
100
AcDbSymbolTableRecord
100
AcDbTextStyleTableRecord
  2
Textstil151
 70
     0
 40
0.0
 41
1.0
 50
0.0
 71
     0
 42
0.2
  3
isocpeur.ttf
  4

1001
ACAD
1000
ISOCPEUR
1071
      256
  0
STYLE
  5
207
330
3
100
AcDbSymbolTableRecord
100
AcDbTextStyleTableRecord
  2
Textstil150
 70
     0
 40
0.0
 41
1.0
 50
0.0
 71
     0
 42
0.2
  3
isocpeur.ttf
  4

1001
ACAD
1000
ISOCPEUR
1071
      256
  0
STYLE
  5
20E
330
3
100
AcDbSymbolTableRecord
100
AcDbTextStyleTableRecord
  2
Textstil160
 70
     0
 40
0.0
 41
1.0
 50
0.0
 71
     0
 42
0.2
  3
isocpeur.ttf
  4

1001
ACAD
1000
ISOCPEUR
1071
      256
  0
STYLE
  5
936
330
3
100
AcDbSymbolTableRecord
100
AcDbTextStyleTableRecord
  2
ACDINTS
 70
     0
 40
1.0
 41
1.0
 50
0.0
 71
     0
 42
0.2
  3
isocp.shx
  4

  0
STYLE
  5
937
330
3
100
AcDbSymbolTableRecord
100
AcDbTextStyleTableRecord
  2
ACDINGDT
 70
     0
 40
0.0
 41
1.0
 50
0.0
 71
     0
 42
0.2
  3
amgdt.shx
  4

  0
STYLE
  5
99A
330
3
100
AcDbSymbolTableRecord
100
AcDbTextStyleTableRecord
  2
Huxaria_Ecobelt
 70
     0
 40
0.0
 41
1.0
 50
0.0
 71
     0
 42
0.2
  3
arial.ttf
  4

1001
ACAD
1000
Arial
1071
      256
  0
ENDTAB
  0
TABLE
  2
VIEW
  5
6
330
0
100
AcDbSymbolTable
 70
     0
  0
ENDTAB
  0
TABLE
  2
UCS
  5
7
330
0
100
AcDbSymbolTable
 70
     0
  0
ENDTAB
  0
TABLE
  2
APPID
  5
9
330
0
100
AcDbSymbolTable
 70
    18
  0
APPID
  5
56
330
9
100
AcDbSymbolTableRecord
100
AcDbRegAppTableRecord
  2
ACAD
 70
     0
  0
APPID
  5
5E
330
9
100
AcDbSymbolTableRecord
100
AcDbRegAppTableRecord
  2
AcadAnnotative
 70
     0
  0
APPID
  5
206
330
9
100
AcDbSymbolTableRecord
100
AcDbRegAppTableRecord
  2
AcadAnnoPO
 70
     0
  0
APPID
  5
8BD
330
9
100
AcDbSymbolTableRecord
100
AcDbRegAppTableRecord
  2
ACAD_MLEADERVER
 70
     0
  0
APPID
  5
8E5
330
9
100
AcDbSymbolTableRecord
100
AcDbRegAppTableRecord
  2
MCAD_NO_VIS
 70
     0
  0
APPID
  5
8E6
330
9
100
AcDbSymbolTableRecord
100
AcDbRegAppTableRecord
  2
ACAD_TEMP_GRAPHIC
 70
     0
  0
APPID
  5
8F0
330
9
100
AcDbSymbolTableRecord
100
AcDbRegAppTableRecord
  2
ACATTRIBSERVICES
 70
     0
  0
APPID
  5
90C
330
9
100
AcDbSymbolTableRecord
100
AcDbRegAppTableRecord
  2
DESIGNERASSEMBLIES
 70
     0
  0
APPID
  5
927
330
9
100
AcDbSymbolTableRecord
100
AcDbRegAppTableRecord
  2
ACAD_DSTYLE_DIMJAG
 70
     0
  0
APPID
  5
928
330
9
100
AcDbSymbolTableRecord
100
AcDbRegAppTableRecord
  2
ACAD_DSTYLE_DIMBREAK
 70
     0
  0
APPID
  5
945
330
9
100
AcDbSymbolTableRecord
100
AcDbRegAppTableRecord
  2
ACAD_NAV_VCDISPLAY
 70
     0
  0
APPID
  5
995
330
9
100
AcDbSymbolTableRecord
100
AcDbRegAppTableRecord
  2
ACAUTHENVIRON
 70
     0
  0
APPID
  5
9AF
330
9
100
AcDbSymbolTableRecord
100
AcDbRegAppTableRecord
  2
AcDbDynamicBlockTrueName
 70
     0
  0
APPID
  5
9B0
330
9
100
AcDbSymbolTableRecord
100
AcDbRegAppTableRecord
  2
AcDbDynamicBlockGUID
 70
     0
  0
APPID
  5
A80
330
9
100
AcDbSymbolTableRecord
100
AcDbRegAppTableRecord
  2
ACAD_DSTYLE_DIMJOGGED_JOGANGLE_SYMBOL
 70
     0
  0
APPID
  5
A81
330
9
100
AcDbSymbolTableRecord
100
AcDbRegAppTableRecord
  2
ACAD_DSTYLE_DIM_LINETYPE
 70
     0
  0
APPID
  5
A82
330
9
100
AcDbSymbolTableRecord
100
AcDbRegAppTableRecord
  2
ACAD_DSTYLE_DIM_EXT1_LINETYPE
 70
     0
  0
APPID
  5
A83
330
9
100
AcDbSymbolTableRecord
100
AcDbRegAppTableRecord
  2
ACAD_DSTYLE_DIM_EXT2_LINETYPE
 70
     0
  0
ENDTAB
  0
TABLE
  2
DIMSTYLE
  5
A
330
0
100
AcDbSymbolTable
 70
    48
100
AcDbDimStyleTable
 71
     2
340
150
340
58
  0
DIMSTYLE
105
58
330
A
100
AcDbSymbolTableRecord
100
AcDbDimStyleTableRecord
  2
Standard
 70
     0
340
55
  0
DIMSTYLE
105
59
330
A
100
AcDbSymbolTableRecord
100
AcDbDimStyleTableRecord
  2
Annotative
 70
     0
340
55
1001
AcadAnnotative
1000
AnnotativeData
1002
{
1070
     1
1070
     1
1002
}
  0
DIMSTYLE
105
14E
330
A
100
AcDbSymbolTableRecord
100
AcDbDimStyleTableRecord
  2
DIN - Andere
 70
     0
 40
0.5
 41
2.5
 42
0.0
 43
5.999999999999999
 44
3.174999999999999
 45
0.00000001
 46
10.0
 77
     1
 78
     8
 79
     2
140
3.5
143
0.03937
147
0.8
171
     3
172
     1
176
     7
177
     7
178
     7
271
     2
272
     2
274
     3
278
    44
284
     8
286
     8
340
136
371
    25
372
    25
  0
DIMSTYLE
105
14F
330
A
100
AcDbSymbolTableRecord
100
AcDbDimStyleTableRecord
  2
DIN - Andere$7
 70
     0
 40
0.5
 41
2.5
 42
0.0
 43
5.999999999999999
 44
3.174999999999999
 45
0.00000001
 46
10.0
 77
     1
 78
     8
 79
     2
140
3.5
143
0.03937
147
0.8
171
     3
172
     1
176
     7
177
     7
178
     7
271
     2
272
     2
274
     3
278
    44
284
     8
286
     8
340
136
371
    25
372
    25
  0
DIMSTYLE
105
150
102
{ACAD_REACTORS
330
28B
330
362
330
462
330
5AE
330
692
330
768
102
}
330
A
100
AcDbSymbolTableRecord
100
AcDbDimStyleTableRecord
  2
DIN - Andere-Laser
 70
     0
 40
0.5
 41
2.5
 42
1.0
 43
6.999999999999999
 44
2.0
 45
0.00000001
 46
8.0
 73
     0
 74
     0
 77
     1
 78
     8
 79
     2
140
2.5
143
0.03937
147
0.8
171
     3
172
     1
176
     7
177
     7
178
     7
179
     1
271
     1
272
     2
274
     3
278
    44
284
     8
286
     8
340
145
371
    25
372
    25
  0
DIMSTYLE
105
151
330
A
100
AcDbSymbolTableRecord
100
AcDbDimStyleTableRecord
  2
DIN - Andere-Laser$7
 70
     0
 40
0.5
 41
2.5
 42
1.0
 43
6.999999999999999
 44
2.0
 45
0.00000001
 46
8.0
 73
     0
 74
     0
 77
     1
 78
     8
 79
     2
140
2.5
143
0.03937
147
0.8
171
     3
172
     1
176
     7
177
     7
178
     7
179
     1
271
     1
272
     2
274
     3
278
    44
284
     8
286
     8
340
145
371
     9
372
    25
  0
DIMSTYLE
105
152
330
A
100
AcDbSymbolTableRecord
100
AcDbDimStyleTableRecord
  2
DIN - Andere-Laser-Autocad-Farbe
 70
     0
 40
0.5
 41
2.5
 42
0.0
 43
6.5
 44
2.25
 45
0.00000001
 46
10.0
 73
     0
 74
     0
 77
     1
 78
     8
 79
     2
140
2.5
143
0.03937
146
1.399999976158142
147
0.8
171
     3
172
     1
176
     8
177
     8
178
     9
179
     1
271
     2
272
     2
274
     3
278
    44
284
     8
286
     8
340
139
371
    25
372
    25
  0
DIMSTYLE
105
153
330
A
100
AcDbSymbolTableRecord
100
AcDbDimStyleTableRecord
  2
DIN - Andere-Laser-Autocad-Farbe$7
 70
     0
 40
0.5
 41
2.5
 42
0.0
 43
6.5
 44
2.25
 45
0.00000001
 46
10.0
 73
     0
 74
     0
 77
     1
 78
     8
 79
     2
140
2.5
143
0.03937
146
1.399999976158142
147
0.8
171
     3
172
     1
176
     8
177
     8
178
     9
179
     1
271
     2
272
     2
274
     3
278
    44
284
     8
286
     8
340
139
371
     9
372
    25
  0
DIMSTYLE
105
154
330
A
100
AcDbSymbolTableRecord
100
AcDbDimStyleTableRecord
  2
DIN - Andere-Laser-Autocad-Farbe_Beschriftungen-Autocad-Farbe
 70
     0
 40
0.5
 41
2.5
 42
0.0
 43
6.5
 44
2.25
 45
0.00000001
 46
10.0
 73
     0
 74
     0
 77
     1
 78
     8
 79
     2
140
2.5
143
0.03937
146
1.399999976158142
147
0.8
171
     3
172
     1
176
     8
177
     8
178
     9
179
     1
271
     2
272
     2
274
     3
278
    44
284
     8
286
     8
340
141
371
    25
372
    25
  0
DIMSTYLE
105
155
330
A
100
AcDbSymbolTableRecord
100
AcDbDimStyleTableRecord
  2
DIN - Andere-Laser-Autocad-Farbe_Beschriftungen-Autocad-Farbe$7
 70
     0
 40
0.5
 41
2.5
 42
0.0
 43
6.5
 44
2.25
 45
0.00000001
 46
10.0
 73
     0
 74
     0
 77
     1
 78
     8
 79
     2
140
2.5
143
0.03937
146
1.399999976158142
147
0.8
171
     3
172
     1
176
     8
177
     8
178
     9
179
     1
271
     2
272
     2
274
     3
278
    44
284
     8
286
     8
340
141
371
     9
372
    25
  0
DIMSTYLE
105
156
330
A
100
AcDbSymbolTableRecord
100
AcDbDimStyleTableRecord
  2
DIN - Andere-Laser-Autocad-FarbeGroßer Text
 70
     0
 40
0.5
 41
5.0
 42
0.0
 43
6.5
 44
2.25
 45
0.00000001
 46
10.0
 73
     0
 74
     0
 77
     1
 78
     8
 79
     2
140
3.75
143
0.03937
146
0.9333333373069763
147
0.8
171
     3
172
     1
176
     8
177
     8
178
     9
179
     1
271
     2
272
     2
274
     3
278
    44
284
     8
286
     8
340
13A
371
    25
372
    25
  0
DIMSTYLE
105
157
330
A
100
AcDbSymbolTableRecord
100
AcDbDimStyleTableRecord
  2
DIN - Andere-Laser-Autocad-FarbeGroßer Text$7
 70
     0
 40
0.5
 41
5.0
 42
0.0
 43
6.5
 44
2.25
 45
0.00000001
 46
10.0
 73
     0
 74
     0
 77
     1
 78
     8
 79
     2
140
3.75
143
0.03937
146
0.9333333373069763
147
0.8
171
     3
172
     1
176
     8
177
     8
178
     9
179
     1
271
     2
272
     2
274
     3
278
    44
284
     8
286
     8
340
13A
371
     9
372
    25
  0
DIMSTYLE
105
158
330
A
100
AcDbSymbolTableRecord
100
AcDbDimStyleTableRecord
  2
DIN - Andere-Laser_Aktuell-DIN-Laser
 70
     0
 40
0.5
 41
2.5
 42
0.0
 43
7.0
 44
2.0
 45
0.00000001
 46
8.0
 73
     0
 74
     0
 77
     1
 78
     8
 79
     2
140
2.5
143
0.03937
147
0.8
171
     3
172
     1
176
     8
177
     8
178
     7
179
     1
271
     2
272
     2
274
     3
278
    44
284
     8
286
     8
340
138
371
    25
372
    25
  0
DIMSTYLE
105
159
330
A
100
AcDbSymbolTableRecord
100
AcDbDimStyleTableRecord
  2
DIN - Andere-Laser_Aktuell-DIN-Laser$7
 70
     0
 40
0.5
 41
2.5
 42
0.0
 43
7.0
 44
2.0
 45
0.00000001
 46
8.0
 73
     0
 74
     0
 77
     1
 78
     8
 79
     2
140
2.5
143
0.03937
147
0.8
171
     3
172
     1
176
     7
177
     8
178
     7
179
     1
271
     2
272
     2
274
     3
278
    44
284
     8
286
     8
340
138
371
     9
372
    25
  0
DIMSTYLE
105
15A
330
A
100
AcDbSymbolTableRecord
100
AcDbDimStyleTableRecord
  2
DIN - Andere-LaserGroßer Text
 70
     0
 40
0.5
 41
5.0
 42
0.0
 43
7.0
 44
2.0
 45
0.00000001
 46
10.0
 73
     0
 74
     0
 77
     1
 78
     8
 79
     2
140
3.75
143
0.03937
146
0.6666666865348816
147
0.8
171
     3
172
     1
176
     8
177
     8
178
     7
179
     1
271
     2
272
     2
274
     3
278
    44
284
     8
286
     8
340
13C
371
    25
372
    25
  0
DIMSTYLE
105
15B
330
A
100
AcDbSymbolTableRecord
100
AcDbDimStyleTableRecord
  2
DIN - Andere-LaserGroßer Text$7
 70
     0
 40
0.5
 41
5.0
 42
0.0
 43
7.0
 44
2.0
 45
0.00000001
 46
10.0
 73
     0
 74
     0
 77
     1
 78
     8
 79
     2
140
3.75
143
0.03937
146
0.6666666865348816
147
0.8
171
     3
172
     1
176
     7
177
     8
178
     7
179
     1
271
     2
272
     2
274
     3
278
    44
284
     8
286
     8
340
13C
371
     9
372
    25
  0
DIMSTYLE
105
15C
330
A
100
AcDbSymbolTableRecord
100
AcDbDimStyleTableRecord
  2
DIN - AndereGroßer Text
 70
     0
 40
0.5
 41
5.0
 42
0.0
 43
5.999999999999999
 44
3.174999999999999
 45
0.00000001
 46
10.0
 77
     1
 78
     8
 79
     2
140
5.25
143
0.03937
146
0.6666666865348816
147
0.8
171
     3
172
     1
176
     7
177
     7
178
   179
271
     2
272
     2
274
     3
278
    44
284
     8
286
     8
340
13E
371
    25
372
    25
  0
DIMSTYLE
105
15D
330
A
100
AcDbSymbolTableRecord
100
AcDbDimStyleTableRecord
  2
DIN - AndereGroßer Text$7
 70
     0
 40
0.5
 41
5.0
 42
0.0
 43
5.999999999999999
 44
3.174999999999999
 45
0.00000001
 46
10.0
 77
     1
 78
     8
 79
     2
140
5.25
143
0.03937
146
0.6666666865348816
147
0.8
171
     3
172
     1
176
     7
177
     7
178
   179
271
     2
272
     2
274
     3
278
    44
284
     8
286
     8
340
13E
371
    25
372
    25
  0
DIMSTYLE
105
16D
330
A
100
AcDbSymbolTableRecord
100
AcDbDimStyleTableRecord
  2
Sonstiges Objekt (DIN)
 70
     0
 40
0.5
 41
5.0
 42
0.0
 43
5.999999999999999
 44
3.174999999999999
 45
0.00000001
 46
10.0
 77
     1
 78
     8
 79
     2
140
5.25
143
0.03937
146
0.6666666865348816
147
0.8
171
     3
172
     1
176
   256
177
   256
178
   256
271
     2
272
     2
274
     3
278
    44
286
     8
340
144
341
15E
371
    -1
372
    -1
  0
DIMSTYLE
105
16E
330
A
100
AcDbSymbolTableRecord
100
AcDbDimStyleTableRecord
  2
Sonstiges Objekt (DIN)$7
 70
     0
 40
0.5
 41
5.0
 42
0.0
 43
5.999999999999999
 44
3.174999999999999
 45
0.00000001
 46
10.0
 77
     1
 78
     8
 79
     2
140
5.25
143
0.03937
146
0.6666666865348816
147
0.8
171
     3
172
     1
176
   256
177
   256
178
   256
271
     2
272
     2
274
     3
278
    44
286
     8
340
144
341
15E
371
    25
372
    -1
  0
DIMSTYLE
105
16F
330
A
100
AcDbSymbolTableRecord
100
AcDbDimStyleTableRecord
  2
Standard - Methode 2a (DIN)
 70
     0
 40
0.5
 41
2.5
 42
0.8
 43
5.999999999999999
 44
3.174999999999999
 45
0.00000001
 46
10.0
 77
     1
 78
     8
 79
     2
140
3.5
143
0.03937
147
0.8
170
     1
171
     3
172
     1
176
   256
177
   256
178
   256
179
     2
271
     2
272
     2
274
     3
278
    44
284
     8
286
     8
340
146
371
    -1
372
    -1
  0
DIMSTYLE
105
170
330
A
100
AcDbSymbolTableRecord
100
AcDbDimStyleTableRecord
  2
Standard - Methode 2a (DIN)$7
 70
     0
 40
0.5
 41
2.5
 42
0.8
 43
5.999999999999999
 44
3.174999999999999
 45
0.00000001
 46
10.0
 77
     1
 78
     8
 79
     2
140
3.5
143
0.03937
147
0.8
170
     1
171
     3
172
     1
176
   256
177
   256
178
   256
179
     2
271
     2
272
     2
274
     3
278
    44
284
     8
286
     8
340
146
371
    -1
372
    -1
  0
DIMSTYLE
105
171
330
A
100
AcDbSymbolTableRecord
100
AcDbDimStyleTableRecord
  2
Standard - Methode 2b (DIN)
 70
     0
 40
0.5
 41
2.5
 42
0.0
 43
5.999999999999999
 44
3.174999999999999
 45
0.00000001
 46
10.0
 77
     1
 78
     8
 79
     2
140
3.5
143
0.03937
147
0.8
171
     3
172
     1
176
   256
177
   256
178
   256
271
     2
272
     2
274
     3
278
    44
284
     8
286
     8
340
146
371
    -1
372
    -1
  0
DIMSTYLE
105
172
330
A
100
AcDbSymbolTableRecord
100
AcDbDimStyleTableRecord
  2
Standard - Methode 2b (DIN)$7
 70
     0
 40
0.5
 41
2.5
 42
0.0
 43
5.999999999999999
 44
3.174999999999999
 45
0.00000001
 46
10.0
 77
     1
 78
     8
 79
     2
140
3.5
143
0.03937
147
0.8
171
     3
172
     1
176
   256
177
   256
178
   256
271
     2
272
     2
274
     3
278
    44
284
     8
286
     8
340
146
371
    -1
372
    -1
  0
DIMSTYLE
105
173
330
A
100
AcDbSymbolTableRecord
100
AcDbDimStyleTableRecord
  2
Standard (DIN)
 70
     0
 40
0.5
 41
2.5
 42
0.8
 43
5.999999999999999
 44
3.174999999999999
 45
0.00000001
 46
10.0
 73
     0
 74
     0
 77
     1
140
3.5
143
0.03937
147
0.8
171
     3
172
     1
176
   256
177
   256
178
   256
271
     2
272
     2
274
     3
278
    44
340
146
371
    -1
372
    -1
  0
DIMSTYLE
105
174
330
A
100
AcDbSymbolTableRecord
100
AcDbDimStyleTableRecord
  2
Standard (DIN)$7
 70
     0
 40
0.5
 41
2.5
 42
0.8
 43
5.999999999999999
 44
3.174999999999999
 45
0.00000001
 46
10.0
 73
     0
 74
     0
 77
     1
140
3.5
143
0.03937
147
0.8
171
     3
172
     1
176
   256
177
   256
178
   256
271
     2
272
     2
274
     3
278
    44
340
146
371
    -1
372
    -1
  0
DIMSTYLE
105
175
330
A
100
AcDbSymbolTableRecord
100
AcDbDimStyleTableRecord
  2
Alternativ (ISO)
 70
     0
 40
0.5
 41
2.5
340
55
  0
DIMSTYLE
105
180
330
A
100
AcDbSymbolTableRecord
100
AcDbDimStyleTableRecord
  2
Bezug (ISO)
 70
     0
 40
0.5
 41
2.5
340
55
  0
DIMSTYLE
105
181
330
A
100
AcDbSymbolTableRecord
100
AcDbDimStyleTableRecord
  2
Führungslinie-Ursprungsindikator(Autocad-Farbe)
 70
     0
 40
0.5
 41
2.5
340
55
  0
DIMSTYLE
105
182
330
A
100
AcDbSymbolTableRecord
100
AcDbDimStyleTableRecord
  2
Führungslinie-Ursprungsindikator(DIN)
 70
     0
 40
0.5
 41
2.5
340
55
  0
DIMSTYLE
105
183
330
A
100
AcDbSymbolTableRecord
100
AcDbDimStyleTableRecord
  2
Führungslinie-Ursprungsindikator(Laser)
 70
     0
 40
0.5
 41
2.5
340
55
  0
DIMSTYLE
105
184
330
A
100
AcDbSymbolTableRecord
100
AcDbDimStyleTableRecord
  2
Führungslinie - Bezugsstelle(Autocad-Farbe)
 70
     0
 40
0.5
 41
2.5
340
55
  0
DIMSTYLE
105
185
330
A
100
AcDbSymbolTableRecord
100
AcDbDimStyleTableRecord
  2
Führungslinie - Bezugsstelle(DIN)
 70
     0
 40
0.5
 41
2.5
340
55
  0
DIMSTYLE
105
186
330
A
100
AcDbSymbolTableRecord
100
AcDbDimStyleTableRecord
  2
Führungslinie - Bezugsstelle(Laser)
 70
     0
 40
0.5
 41
2.5
340
55
  0
DIMSTYLE
105
187
330
A
100
AcDbSymbolTableRecord
100
AcDbDimStyleTableRecord
  2
Führungslinie - Punkt(Autocad-Farbe)
 70
     0
 40
0.5
 41
2.5
340
55
  0
DIMSTYLE
105
188
330
A
100
AcDbSymbolTableRecord
100
AcDbDimStyleTableRecord
  2
Führungslinie - Punkt(DIN)
 70
     0
 40
0.5
 41
2.5
340
55
  0
DIMSTYLE
105
189
330
A
100
AcDbSymbolTableRecord
100
AcDbDimStyleTableRecord
  2
Führungslinie - Punkt(Laser)
 70
     0
 40
0.5
 41
2.5
340
55
  0
DIMSTYLE
105
18A
330
A
100
AcDbSymbolTableRecord
100
AcDbDimStyleTableRecord
  2
Führungslinie(Autocad-Farbe)
 70
     0
 40
0.5
 41
2.5
340
55
  0
DIMSTYLE
105
18B
330
A
100
AcDbSymbolTableRecord
100
AcDbDimStyleTableRecord
  2
Führungslinie(DIN)
 70
     0
 40
0.5
 41
2.5
340
55
  0
DIMSTYLE
105
18C
330
A
100
AcDbSymbolTableRecord
100
AcDbDimStyleTableRecord
  2
Führungslinie(Laser)
 70
     0
 40
0.5
 41
2.5
340
55
  0
DIMSTYLE
105
926
102
{ACAD_REACTORS
330
915
102
}
330
A
100
AcDbSymbolTableRecord
100
AcDbDimStyleTableRecord
  2
AM_DIN
 70
     0
  4
"
 41
3.5
 42
1.0
 43
10.0
 44
1.0
 47
0.1
 48
0.1
 73
     0
 74
     0
 77
     1
 78
     8
 79
     2
140
3.5
141
0.0
143
0.0393701
146
0.71
147
1.5
172
     1
176
   256
177
   256
178
   140
271
     2
272
     3
274
     4
283
     0
284
     8
340
55
371
    -1
372
    -1
1001
ACAD_DSTYLE_DIMJAG
1070
   388
1040
1.5
1001
ACAD_DSTYLE_DIMBREAK
1070
   391
1040
3.75
1001
ACAD_DSTYLE_DIMJOGGED_JOGANGLE_SYMBOL
1070
   384
1040
1.570796326794896
1001
ACAD_DSTYLE_DIM_LINETYPE
1070
   380
1005
5B
1001
ACAD_DSTYLE_DIM_EXT1_LINETYPE
1070
   381
1005
5B
1001
ACAD_DSTYLE_DIM_EXT2_LINETYPE
1070
   382
1005
5B
  0
DIMSTYLE
105
92A
330
A
100
AcDbSymbolTableRecord
100
AcDbDimStyleTableRecord
  2
AM_DIN$3
 70
     0
  4
"
 41
3.5
 42
1.0
 43
10.0
 44
1.0
 47
0.1
 48
0.1
 73
     0
 77
     1
 78
     8
 79
     2
140
3.5
141
0.0
143
0.0393701
146
0.71
147
1.5
176
   256
177
   256
178
   140
271
     2
272
     3
274
     4
283
     0
284
     8
288
     1
289
     0
340
55
371
    -1
372
    -1
1001
ACAD_DSTYLE_DIMBREAK
1070
   391
1040
3.75
1001
ACAD_DSTYLE_DIMJAG
1070
   388
1040
1.5
1001
ACAD_DSTYLE_DIMJOGGED_JOGANGLE_SYMBOL
1070
   384
1040
1.570796326794896
1001
ACAD_DSTYLE_DIM_LINETYPE
1070
   380
1005
5B
1001
ACAD_DSTYLE_DIM_EXT1_LINETYPE
1070
   381
1005
5B
1001
ACAD_DSTYLE_DIM_EXT2_LINETYPE
1070
   382
1005
5B
  0
DIMSTYLE
105
92B
330
A
100
AcDbSymbolTableRecord
100
AcDbDimStyleTableRecord
  2
AM_DIN$4
 70
     0
  4
"
 41
3.5
 42
1.0
 43
10.0
 44
1.0
 47
0.1
 48
0.1
 73
     0
 77
     1
 78
     8
 79
     2
140
3.5
141
0.0
143
0.0393701
146
0.71
147
1.5
176
   256
177
   256
178
   140
271
     2
272
     3
274
     4
283
     0
284
     8
288
     1
289
     0
340
55
371
    -1
372
    -1
1001
ACAD_DSTYLE_DIMBREAK
1070
   391
1040
3.75
1001
ACAD_DSTYLE_DIMJAG
1070
   388
1040
1.5
1001
ACAD_DSTYLE_DIMJOGGED_JOGANGLE_SYMBOL
1070
   384
1040
1.570796326794896
1001
ACAD_DSTYLE_DIM_LINETYPE
1070
   380
1005
5B
1001
ACAD_DSTYLE_DIM_EXT1_LINETYPE
1070
   381
1005
5B
1001
ACAD_DSTYLE_DIM_EXT2_LINETYPE
1070
   382
1005
5B
  0
DIMSTYLE
105
92C
330
A
100
AcDbSymbolTableRecord
100
AcDbDimStyleTableRecord
  2
AM_DIN$6
 70
     0
  4
"
 41
3.5
 42
1.0
 43
10.0
 44
1.0
 47
0.1
 48
0.1
 73
     0
 74
     0
 78
     8
 79
     2
140
3.5
141
0.0
143
0.0393701
146
0.71
147
1.5
172
     1
176
   256
177
   256
178
   140
271
     2
272
     3
274
     4
283
     0
284
     8
340
55
371
    -1
372
    -1
1001
ACAD_DSTYLE_DIMBREAK
1070
   391
1040
3.75
1001
ACAD_DSTYLE_DIMJAG
1070
   388
1040
1.5
1001
ACAD_DSTYLE_DIMJOGGED_JOGANGLE_SYMBOL
1070
   384
1040
1.570796326794896
1001
ACAD_DSTYLE_DIM_LINETYPE
1070
   380
1005
5B
1001
ACAD_DSTYLE_DIM_EXT1_LINETYPE
1070
   381
1005
5B
1001
ACAD_DSTYLE_DIM_EXT2_LINETYPE
1070
   382
1005
5B
  0
DIMSTYLE
105
92D
330
A
100
AcDbSymbolTableRecord
100
AcDbDimStyleTableRecord
  2
AM_DIN$7
 70
     0
  4
"
 41
3.5
 42
1.0
 43
10.0
 44
1.0
 47
0.1
 48
0.1
 73
     0
 74
     0
 77
     1
 78
     8
 79
     2
140
3.5
141
0.0
143
0.0393701
146
0.71
147
1.5
172
     1
176
   256
177
   256
178
   140
271
     2
272
     3
274
     4
283
     0
284
     8
340
55
371
    -1
372
    -1
1001
ACAD_DSTYLE_DIMBREAK
1070
   391
1040
3.75
1001
ACAD_DSTYLE_DIMJAG
1070
   388
1040
1.5
1001
ACAD_DSTYLE_DIMJOGGED_JOGANGLE_SYMBOL
1070
   384
1040
1.570796326794896
1001
ACAD_DSTYLE_DIM_LINETYPE
1070
   380
1005
5B
1001
ACAD_DSTYLE_DIM_EXT1_LINETYPE
1070
   381
1005
5B
1001
ACAD_DSTYLE_DIM_EXT2_LINETYPE
1070
   382
1005
5B
  0
DIMSTYLE
105
92E
330
A
100
AcDbSymbolTableRecord
100
AcDbDimStyleTableRecord
  2
AM_DIN$SF
 70
     0
  4
"
 41
3.5
 42
1.0
 43
10.0
 44
1.0
 47
0.1
 48
0.1
 73
     0
 74
     0
 75
     1
 76
     1
 77
     1
 78
     8
 79
     2
140
3.5
141
0.0
143
0.0393701
146
0.71
147
1.5
172
     1
176
   256
177
   256
178
   140
271
     2
272
     3
274
     4
283
     0
284
     8
340
55
371
    -1
372
    -1
1001
ACAD_DSTYLE_DIMBREAK
1070
   391
1040
3.75
1001
ACAD_DSTYLE_DIMJAG
1070
   388
1040
1.5
1001
ACAD_DSTYLE_DIMJOGGED_JOGANGLE_SYMBOL
1070
   384
1040
1.570796326794896
1001
ACAD_DSTYLE_DIM_LINETYPE
1070
   380
1005
5B
1001
ACAD_DSTYLE_DIM_EXT1_LINETYPE
1070
   381
1005
5B
1001
ACAD_DSTYLE_DIM_EXT2_LINETYPE
1070
   382
1005
5B
  0
DIMSTYLE
105
933
330
A
100
AcDbSymbolTableRecord
100
AcDbDimStyleTableRecord
  2
AM_DIN$SH
 70
     0
  4
"
 41
3.5
 42
1.0
 43
10.0
 44
1.0
 47
0.1
 48
0.1
 73
     0
 74
     0
 75
     1
 76
     1
 77
     1
 78
     8
 79
     2
140
3.5
141
0.0
143
0.0393701
144
2.0
146
0.71
147
1.5
172
     1
173
     1
176
   256
177
   256
178
   140
271
     2
272
     3
274
     4
283
     0
284
     8
340
55
343
92F
371
    -1
372
    -1
1001
ACAD_DSTYLE_DIMBREAK
1070
   391
1040
3.75
1001
ACAD_DSTYLE_DIMJAG
1070
   388
1040
1.5
1001
ACAD_DSTYLE_DIMJOGGED_JOGANGLE_SYMBOL
1070
   384
1040
1.570796326794896
1001
ACAD_DSTYLE_DIM_LINETYPE
1070
   380
1005
5B
1001
ACAD_DSTYLE_DIM_EXT1_LINETYPE
1070
   381
1005
5B
1001
ACAD_DSTYLE_DIM_EXT2_LINETYPE
1070
   382
1005
5B
  0
DIMSTYLE
105
99B
330
A
100
AcDbSymbolTableRecord
100
AcDbDimStyleTableRecord
  2
Huxaria_Ecobelt
 70
     0
 40
0.5
 41
2.5
 42
0.0
 43
6.999999999999999
 44
2.0
 45
0.00000001
 46
8.0
 73
     0
 74
     0
 77
     1
 78
     8
 79
     2
140
2.5
143
0.03937
147
0.8
171
     3
172
     1
176
     7
177
     7
178
     7
179
     1
271
     1
272
     2
274
     3
278
    44
284
     8
286
     8
340
99A
371
    25
372
    25
  0
ENDTAB
  0
TABLE
  2
BLOCK_RECORD
  5
1
330
0
100
AcDbSymbolTable
 70
    23
  0
BLOCK_RECORD
  5
71
102
{ACAD_XDICTIONARY
360
84B
102
}
330
1
100
AcDbSymbolTableRecord
100
AcDbBlockTableRecord
  2
*Model_Space
340
74
  0
BLOCK_RECORD
  5
6D
330
1
100
AcDbSymbolTableRecord
100
AcDbBlockTableRecord
  2
*Paper_Space
340
70
  0
BLOCK_RECORD
  5
75
330
1
100
AcDbSymbolTableRecord
100
AcDbBlockTableRecord
  2
*Paper_Space0
340
78
  0
BLOCK_RECORD
  5
15E
330
1
100
AcDbSymbolTableRecord
100
AcDbBlockTableRecord
  2
Filled-1
340
0
  0
BLOCK_RECORD
  5
176
330
1
100
AcDbSymbolTableRecord
100
AcDbBlockTableRecord
  2
DatumFilled45
340
0
  0
BLOCK_RECORD
  5
18D
330
1
100
AcDbSymbolTableRecord
100
AcDbBlockTableRecord
  2
Schliffrichtung
340
0
  0
BLOCK_RECORD
  5
1A2
330
1
100
AcDbSymbolTableRecord
100
AcDbBlockTableRecord
  2
Folienblech
340
0
  0
BLOCK_RECORD
  5
1A6
330
1
100
AcDbSymbolTableRecord
100
AcDbBlockTableRecord
  2
Rohrleitungen
340
0
  0
BLOCK_RECORD
  5
1AA
330
1
100
AcDbSymbolTableRecord
100
AcDbBlockTableRecord
  2
Allgemein
340
0
  0
BLOCK_RECORD
  5
1AE
330
1
100
AcDbSymbolTableRecord
100
AcDbBlockTableRecord
  2
Schweißen Text
340
0
  0
BLOCK_RECORD
  5
1B2
330
1
100
AcDbSymbolTableRecord
100
AcDbBlockTableRecord
  2
Wasserdicht
340
0
  0
BLOCK_RECORD
  5
1B6
330
1
100
AcDbSymbolTableRecord
100
AcDbBlockTableRecord
  2
Ränder Rahmen A4 quer
340
0
102
{BLKREFS
331
1C1
102
}
  0
BLOCK_RECORD
  5
1C2
102
{ACAD_XDICTIONARY
360
996
102
}
330
1
100
AcDbSymbolTableRecord
100
AcDbBlockTableRecord
  2
Schriftfelder Schriftfeld Nocke
340
0
102
{BLKREFS
331
211
102
}
1001
AcDbDynamicBlockGUID
1000
{24D1276F-23C8-4B99-9F6F-C3F0A5D65741}
  0
BLOCK_RECORD
  5
28D
330
1
100
AcDbSymbolTableRecord
100
AcDbBlockTableRecord
  2
*D11
340
0
  0
BLOCK_RECORD
  5
363
330
1
100
AcDbSymbolTableRecord
100
AcDbBlockTableRecord
  2
*D12
340
0
  0
BLOCK_RECORD
  5
463
330
1
100
AcDbSymbolTableRecord
100
AcDbBlockTableRecord
  2
*D13
340
0
  0
BLOCK_RECORD
  5
538
330
1
100
AcDbSymbolTableRecord
100
AcDbBlockTableRecord
  2
2DTransSchnitt0
340
0
102
{BLKREFS
331
558
102
}
  0
BLOCK_RECORD
  5
594
330
1
100
AcDbSymbolTableRecord
100
AcDbBlockTableRecord
  2
Schweißsymbol1
340
0
102
{BLKREFS
331
5A7
102
}
  0
BLOCK_RECORD
  5
5AF
330
1
100
AcDbSymbolTableRecord
100
AcDbBlockTableRecord
  2
*D16
340
0
  0
BLOCK_RECORD
  5
693
330
1
100
AcDbSymbolTableRecord
100
AcDbBlockTableRecord
  2
*D17
340
0
  0
BLOCK_RECORD
  5
769
330
1
100
AcDbSymbolTableRecord
100
AcDbBlockTableRecord
  2
*D18
340
0
  0
BLOCK_RECORD
  5
92F
330
1
100
AcDbSymbolTableRecord
100
AcDbBlockTableRecord
  2
GENAXEH
340
0
  0
BLOCK_RECORD
  5
99E
102
{ACAD_XDICTIONARY
360
9A1
102
}
330
1
100
AcDbSymbolTableRecord
100
AcDbBlockTableRecord
  2
logo-Optibelt
340
0
102
{BLKREFS
331
9AE
102
}
1001
ACAD
1000
DesignCenter Data
1002
{
1070
     1
1070
     4
1002
}
  0
ENDTAB
  0
ENDSEC
  0
SECTION
  2
BLOCKS
  0
BLOCK
  5
72
330
71
100
AcDbEntity
  8
0
100
AcDbBlockBegin
  2
*Model_Space
 70
     0
 10
0.0
 20
0.0
 30
0.0
  3
*Model_Space
  1

  0
ENDBLK
  5
73
330
71
100
AcDbEntity
  8
0
100
AcDbBlockEnd
  0
BLOCK
  5
6E
330
6D
100
AcDbEntity
 67
     1
  8
0
100
AcDbBlockBegin
  2
*Paper_Space
 70
     0
 10
0.0
 20
0.0
 30
0.0
  3
*Paper_Space
  1

  0
ENDBLK
  5
6F
330
6D
100
AcDbEntity
 67
     1
  8
0
100
AcDbBlockEnd
  0
BLOCK
  5
76
330
75
100
AcDbEntity
 67
     1
  8
0
100
AcDbBlockBegin
  2
*Paper_Space0
 70
     0
 10
0.0
 20
0.0
 30
0.0
  3
*Paper_Space0
  1

  0
ENDBLK
  5
77
330
75
100
AcDbEntity
 67
     1
  8
0
100
AcDbBlockEnd
  0
BLOCK
  5
15F
330
15E
100
AcDbEntity
  8
0
100
AcDbBlockBegin
  2
Filled-1
 70
     0
 10
0.0
 20
0.0
 30
0.0
  3
Filled-1
  1

  0
LINE
  5
161
330
15E
100
AcDbEntity
  8
0
 62
     0
100
AcDbLine
 10
-1.0
 20
0.0
 30
0.0
 11
0.0
 21
0.0
 31
0.0
  0
POLYLINE
  5
163
330
15E
100
AcDbEntity
  8
0
 62
     0
100
AcDb2dPolyline
 66
     1
 10
0.0
 20
0.0
 30
0.0
 70
   128
  0
VERTEX
  5
164
330
163
100
AcDbEntity
  8
0
 62
     0
100
AcDbVertex
100
AcDb2dVertex
 10
-1.0
 20
-0.1
 30
0.0
  0
VERTEX
  5
165
330
163
100
AcDbEntity
  8
0
 62
     0
100
AcDbVertex
100
AcDb2dVertex
 10
0.0
 20
0.0
 30
0.0
  0
VERTEX
  5
167
330
163
100
AcDbEntity
  8
0
 62
     0
100
AcDbVertex
100
AcDb2dVertex
 10
-1.0
 20
0.1
 30
0.0
  0
VERTEX
  5
168
330
163
100
AcDbEntity
  8
0
 62
     0
100
AcDbVertex
100
AcDb2dVertex
 10
-1.0
 20
-0.1
 30
0.0
  0
SEQEND
  5
166
330
163
100
AcDbEntity
  8
0
 62
     0
  0
SOLID
  5
169
330
15E
100
AcDbEntity
  8
0
 62
     0
100
AcDbTrace
 10
-1.0
 20
-0.1
 30
0.0
 11
0.0
 21
0.0
 31
0.0
 12
-1.0
 22
0.1
 32
0.0
 13
-1.0
 23
-0.1
 33
0.0
  0
LINE
  5
16A
330
15E
100
AcDbEntity
  8
0
 62
     0
100
AcDbLine
 10
-1.0
 20
-0.1
 30
0.0
 11
0.0
 21
0.0
 31
0.0
  0
LINE
  5
16B
330
15E
100
AcDbEntity
  8
0
 62
     0
100
AcDbLine
 10
0.0
 20
0.0
 30
0.0
 11
-1.0
 21
0.1
 31
0.0
  0
LINE
  5
16C
330
15E
100
AcDbEntity
  8
0
 62
     0
100
AcDbLine
 10
-1.0
 20
0.1
 30
0.0
 11
-1.0
 21
-0.1
 31
0.0
  0
ENDBLK
  5
160
330
15E
100
AcDbEntity
  8
0
100
AcDbBlockEnd
  0
BLOCK
  5
177
330
176
100
AcDbEntity
  8
0
100
AcDbBlockBegin
  2
DatumFilled45
 70
     0
 10
0.0
 20
0.0
 30
0.0
  3
DatumFilled45
  1

  0
POLYLINE
  5
179
330
176
100
AcDbEntity
  8
0
 62
     0
100
AcDb2dPolyline
 66
     1
 10
0.0
 20
0.0
 30
0.0
 70
   128
  0
VERTEX
  5
17A
330
179
100
AcDbEntity
  8
0
 62
     0
100
AcDbVertex
100
AcDb2dVertex
 10
0.0
 20
1.0
 30
0.0
  0
VERTEX
  5
17B
330
179
100
AcDbEntity
  8
0
 62
     0
100
AcDbVertex
100
AcDb2dVertex
 10
0.0
 20
-1.0
 30
0.0
  0
VERTEX
  5
17D
330
179
100
AcDbEntity
  8
0
 62
     0
100
AcDbVertex
100
AcDb2dVertex
 10
-1.0
 20
0.0
 30
0.0
  0
VERTEX
  5
17E
330
179
100
AcDbEntity
  8
0
 62
     0
100
AcDbVertex
100
AcDb2dVertex
 10
0.0
 20
1.0
 30
0.0
  0
SEQEND
  5
17C
330
179
100
AcDbEntity
  8
0
 62
     0
  0
SOLID
  5
17F
330
176
100
AcDbEntity
  8
0
 62
     0
100
AcDbTrace
 10
0.0
 20
1.0
 30
0.0
 11
0.0
 21
-1.0
 31
0.0
 12
-1.0
 22
0.0
 32
0.0
 13
0.0
 23
1.0
 33
0.0
  0
ENDBLK
  5
178
330
176
100
AcDbEntity
  8
0
100
AcDbBlockEnd
  0
BLOCK
  5
18E
330
18D
100
AcDbEntity
  8
0
100
AcDbBlockBegin
  2
Schliffrichtung
 70
     0
 10
0.0
 20
0.0
 30
0.0
  3
Schliffrichtung
  1

  0
LINE
  5
190
330
18D
100
AcDbEntity
  8
Skizziergeometrie(Laser)
100
AcDbLine
 10
-182.2470541256966
 20
0.0
 30
0.0
 11
-62.40656022495901
 21
0.0
 31
0.0
  0
LINE
  5
191
330
18D
100
AcDbEntity
  8
Skizziergeometrie(Laser)
100
AcDbLine
 10
-166.0299458565262
 20
-5.418916151736041
 30
0.0
 11
-166.0299458565262
 21
5.418916151736041
 31
0.0
  0
LINE
  5
192
330
18D
100
AcDbEntity
  8
Skizziergeometrie(Laser)
100
AcDbLine
 10
-182.2470541256966
 20
0.0
 30
0.0
 11
-166.0299458565262
 21
-5.418916151736041
 31
0.0
  0
LINE
  5
193
330
18D
100
AcDbEntity
  8
Skizziergeometrie(Laser)
100
AcDbLine
 10
-182.2470541256966
 20
0.0
 30
0.0
 11
-166.0299458565262
 21
-3.499463004730856
 31
0.0
  0
LINE
  5
194
330
18D
100
AcDbEntity
  8
Skizziergeometrie(Laser)
100
AcDbLine
 10
-182.2470541256966
 20
0.0
 30
0.0
 11
-166.0299458565262
 21
-1.47374308120554
 31
0.0
  0
LINE
  5
195
330
18D
100
AcDbEntity
  8
Skizziergeometrie(Laser)
100
AcDbLine
 10
-182.2470541256966
 20
0.0
 30
0.0
 11
-166.0299458565262
 21
1.47374308120554
 31
0.0
  0
LINE
  5
196
330
18D
100
AcDbEntity
  8
Skizziergeometrie(Laser)
100
AcDbLine
 10
-182.2470541256966
 20
0.0
 30
0.0
 11
-166.0299458565262
 21
3.499463004730856
 31
0.0
  0
LINE
  5
197
330
18D
100
AcDbEntity
  8
Skizziergeometrie(Laser)
100
AcDbLine
 10
-182.2470541256966
 20
0.0
 30
0.0
 11
-166.0299458565262
 21
5.418916151736041
 31
0.0
  0
LINE
  5
198
330
18D
100
AcDbEntity
  8
Skizziergeometrie(Laser)
100
AcDbLine
 10
182.2470541256966
 20
0.0
 30
0.0
 11
62.40656022495951
 21
0.0
 31
0.0
  0
LINE
  5
199
330
18D
100
AcDbEntity
  8
Skizziergeometrie(Laser)
100
AcDbLine
 10
166.0299458565267
 20
-5.418916151736041
 30
0.0
 11
166.0299458565267
 21
5.418916151735615
 31
0.0
  0
LINE
  5
19A
330
18D
100
AcDbEntity
  8
Skizziergeometrie(Laser)
100
AcDbLine
 10
182.2470541256966
 20
0.0
 30
0.0
 11
166.0299458565267
 21
5.418916151735615
 31
0.0
  0
LINE
  5
19B
330
18D
100
AcDbEntity
  8
Skizziergeometrie(Laser)
100
AcDbLine
 10
182.2470541256966
 20
0.0
 30
0.0
 11
166.0299458565267
 21
3.499463004730429
 31
0.0
  0
LINE
  5
19C
330
18D
100
AcDbEntity
  8
Skizziergeometrie(Laser)
100
AcDbLine
 10
182.2470541256966
 20
0.0
 30
0.0
 11
166.0299458565267
 21
1.473743081205114
 31
0.0
  0
LINE
  5
19D
330
18D
100
AcDbEntity
  8
Skizziergeometrie(Laser)
100
AcDbLine
 10
182.2470541256966
 20
0.0
 30
0.0
 11
166.0299458565267
 21
-1.47374308120554
 31
0.0
  0
LINE
  5
19E
330
18D
100
AcDbEntity
  8
Skizziergeometrie(Laser)
100
AcDbLine
 10
182.2470541256966
 20
0.0
 30
0.0
 11
166.0299458565267
 21
-3.499463004730856
 31
0.0
  0
LINE
  5
19F
330
18D
100
AcDbEntity
  8
Skizziergeometrie(Laser)
100
AcDbLine
 10
182.2470541256966
 20
0.0
 30
0.0
 11
166.0299458565267
 21
-5.418916151736041
 31
0.0
  0
MTEXT
  5
1A0
330
18D
100
AcDbEntity
  8
Symbole(Laser)
 62
     7
100
AcDbMText
 10
-48.28078370634347
 20
3.237506537955283
 30
0.0
 40
6.99999988079071
 41
111.6606330767174
 71
     1
 72
     1
  1
\fArial|b0|i0;\H7.0000;SCHLIFFRICHTUNG
  7
Aktuell-DIN-Laser
 73
     1
 44
1.0
  0
ENDBLK
  5
18F
330
18D
100
AcDbEntity
  8
0
100
AcDbBlockEnd
  0
BLOCK
  5
1A3
330
1A2
100
AcDbEntity
  8
0
100
AcDbBlockBegin
  2
Folienblech
 70
     0
 10
0.0
 20
0.0
 30
0.0
  3
Folienblech
  1

  0
MTEXT
  5
1A5
330
1A2
100
AcDbEntity
  8
Symbole(Laser)
 62
     7
100
AcDbMText
 10
-48.57317447662353
 20
10.00927007757127
 30
0.0
 40
3.499999940395355
 41
124.3056457959839
 71
     1
 72
     1
  1
\fArial|b0|i0;\H3.5000;VERKLEIDUNGSBLECH\P1.4301 - 3C\PBlech foliert - Zeichnungsansicht=Folienseite\PFolie verbleibt auf den Blechen
  7
Aktuell-DIN-Laser
 73
     2
 44
0.9442214965820312
  0
ENDBLK
  5
1A4
330
1A2
100
AcDbEntity
  8
0
100
AcDbBlockEnd
  0
BLOCK
  5
1A7
330
1A6
100
AcDbEntity
  8
0
100
AcDbBlockBegin
  2
Rohrleitungen
 70
     0
 10
0.0
 20
0.0
 30
0.0
  3
Rohrleitungen
  1

  0
MTEXT
  5
1A9
102
{ACAD_XDICTIONARY
360
8C0
102
}
330
1A6
100
AcDbEntity
  8
Symbole(Laser)
 62
     7
100
AcDbMText
 10
-49.18940544128417
 20
7.740809135138988
 30
0.0
 40
3.499999940395355
 41
142.6449050797752
 71
     1
 72
     1
  1
\fArial|b0|i0;\H3.5000;Rohrleitungen m\U+00FCssen an die Gegebenheiten\Pder Anlage angepasst werden. \PZuschnittl\U+00E4ngen sind unverbindlich.
  7
Aktuell-DIN-Laser
 73
     2
 44
0.9442214965820312
  0
ENDBLK
  5
1A8
330
1A6
100
AcDbEntity
  8
0
100
AcDbBlockEnd
  0
BLOCK
  5
1AB
330
1AA
100
AcDbEntity
  8
0
100
AcDbBlockBegin
  2
Allgemein
 70
     0
 10
0.0
 20
0.0
 30
0.0
  3
Allgemein
  1

  0
MTEXT
  5
1AD
330
1AA
100
AcDbEntity
  8
Symbole(Laser)
 62
     7
100
AcDbMText
 10
-29.5017147064209
 20
3.56297418475151
 30
0.0
 40
2.5
 41
124.3056457959839
 71
     1
 72
     1
  1
\fArial|b0|i0;\H2.5000;\LAllgemeine Verarbeitungsvorschriften:\P\l\fArial|b0|i0;\H2.5000;Bleche im Griffbereich entgratet
  7
Aktuell-DIN-Laser
 73
     2
 44
0.9442214965820312
  0
ENDBLK
  5
1AC
330
1AA
100
AcDbEntity
  8
0
100
AcDbBlockEnd
  0
BLOCK
  5
1AF
330
1AE
100
AcDbEntity
  8
0
100
AcDbBlockBegin
  2
Schweißen Text
 70
     0
 10
0.0
 20
0.0
 30
0.0
  3
Schweißen Text
  1

  0
MTEXT
  5
1B1
102
{ACAD_XDICTIONARY
360
8C2
102
}
330
1AE
100
AcDbEntity
  8
Symbole(Laser)
 62
     7
100
AcDbMText
 10
-212.5390625
 20
9.096599221229553
 30
0.0
 40
2.5
 41
104.5589353504943
 71
     1
 72
     1
  3
Schwei\U+00DFverbindungen:\PAlle Schwei\U+00DFverbindungen sind nach den allgemeinen Regeln der Technik auszuf\U+00FChren.\PZul\U+00E4ssig sind ausschlie\U+00DFlich dem Werkstoff angepasste Schwei\U+00DFverfahren. Die Ausf\U+00FChrung und G\U+00FCte 
  3
der Schwei\U+00DFverbindungen muss dem Verwendungszweck der Bauteile entsprechen (z.B. Tanks wasserdicht, Rahmen Tragf\U+00E4higkeit, Rohrleitungen druckbest\U+00E4ndigkeit usw.).\PDie Schwei\U+00DFn\U+00E4hte sind so zu positionieren, dass Spaltkorr
  1
osion vermieden wird. Schwei\U+00DFn\U+00E4hte mit statischer Funktion sind grunds\U+00E4tzlich mit Schwei\U+00DFzusatz zu schwei\U+00DFen. \P
  7
Aktuell-DIN-Laser
 73
     2
 44
0.944221556186676
  0
ENDBLK
  5
1B0
330
1AE
100
AcDbEntity
  8
0
100
AcDbBlockEnd
  0
BLOCK
  5
1B3
330
1B2
100
AcDbEntity
  8
0
100
AcDbBlockBegin
  2
Wasserdicht
 70
     0
 10
0.0
 20
0.0
 30
0.0
  3
Wasserdicht
  1

  0
MTEXT
  5
1B5
102
{ACAD_XDICTIONARY
360
8C4
102
}
330
1B2
100
AcDbEntity
  8
Symbole(Laser)
 62
     7
100
AcDbMText
 10
-29.40739154815674
 20
5.531054995954036
 30
0.0
 40
2.5
 41
157.0626287212902
 71
     1
 72
     1
  1
Baugruppe wasserdicht geschwei\U+00DFt. \PAlle Schwei\U+00DFn\U+00E4hte auf der Innenseite.\P(Zeichnungshinweise beachten)
  7
Aktuell-DIN-Laser
 73
     2
 44
0.9442214965820312
  0
ENDBLK
  5
1B4
330
1B2
100
AcDbEntity
  8
0
100
AcDbBlockEnd
  0
BLOCK
  5
1B7
330
1B6
100
AcDbEntity
  8
0
100
AcDbBlockBegin
  2
Ränder Rahmen A4 quer
 70
     0
 10
0.0
 20
0.0
 30
0.0
  3
Ränder Rahmen A4 quer
  1

  0
LINE
  5
1B9
330
1B6
100
AcDbEntity
  8
Rahmen (ISO)
100
AcDbLine
 10
148.4999031611996
 20
195.0
 30
0.0
 11
148.4999031611996
 21
205.0
 31
0.0
  0
LINE
  5
1BA
330
1B6
100
AcDbEntity
  8
Rahmen (ISO)
100
AcDbLine
 10
10.0
 20
190.0
 30
0.0
 11
286.9998063223994
 21
190.0
 31
0.0
  0
LINE
  5
1BB
330
1B6
100
AcDbEntity
  8
Rahmen (ISO)
100
AcDbLine
 10
10.0
 20
190.0
 30
0.0
 11
250.4400455697244
 21
190.0
 31
0.0
  0
LINE
  5
1BC
330
1B6
100
AcDbEntity
  8
Rahmen (ISO)
100
AcDbLine
 10
286.9998063223988
 20
10.00000000000078
 30
0.0
 11
10.00000000000003
 21
10.0
 31
0.0
  0
LINE
  5
1BD
330
1B6
100
AcDbEntity
  8
Rahmen (ISO)
100
AcDbLine
 10
81.30980632239896
 20
10.00000000000018
 30
0.0
 11
286.9998063223988
 21
10.00000000000078
 31
0.0
  0
LINE
  5
1BE
330
1B6
100
AcDbEntity
  8
Rahmen (ISO)
100
AcDbLine
 10
10.00000000000003
 20
10.0
 30
0.0
 11
10.0
 21
190.0
 31
0.0
  0
LINE
  5
1BF
330
1B6
100
AcDbEntity
  8
Rahmen (ISO)
100
AcDbLine
 10
286.9998063223988
 20
10.00000000000078
 30
0.0
 11
10.00000000000003
 21
10.0
 31
0.0
  0
LINE
  5
1C0
330
1B6
100
AcDbEntity
  8
Rahmen (ISO)
100
AcDbLine
 10
286.9998063223994
 20
190.0
 30
0.0
 11
286.9998063223988
 21
10.00000000000078
 31
0.0
  0
ENDBLK
  5
1B8
330
1B6
100
AcDbEntity
  8
0
100
AcDbBlockEnd
  0
BLOCK
  5
1C3
330
1C2
100
AcDbEntity
  8
0
100
AcDbBlockBegin
  2
Schriftfelder Schriftfeld Nocke
 70
     2
 10
0.0
 20
0.0
 30
0.0
  3
Schriftfelder Schriftfeld Nocke
  1

  0
LINE
  5
94B
330
1C2
100
AcDbEntity
  8
Titel (ISO)
100
AcDbLine
 10
105.4009205960757
 20
99.828060382812
 30
0.0
 11
285.4009205960757
 21
99.82806038281204
 31
0.0
  0
LINE
  5
94C
330
1C2
100
AcDbEntity
  8
Titel (ISO)
100
AcDbLine
 10
285.4009205960757
 20
99.82806038281204
 30
0.0
 11
285.4009205960757
 21
155.078060382812
 31
0.0
  0
LINE
  5
94D
330
1C2
100
AcDbEntity
  8
Titel (ISO)
100
AcDbLine
 10
285.4009205960757
 20
155.078060382812
 30
0.0
 11
105.4009205960757
 21
155.0780603828119
 31
0.0
  0
LINE
  5
94E
330
1C2
100
AcDbEntity
  8
Titel (ISO)
100
AcDbLine
 10
105.4009205960757
 20
155.0780603828119
 30
0.0
 11
105.4009205960757
 21
99.828060382812
 31
0.0
  0
LINE
  5
94F
330
1C2
100
AcDbEntity
  8
Titel (ISO)
100
AcDbLine
 10
160.0009205960756
 20
99.828060382812
 30
0.0
 11
160.0009205960756
 21
155.078060382812
 31
0.0
  0
LINE
  5
950
330
1C2
100
AcDbEntity
  8
Titel (ISO)
100
AcDbLine
 10
204.2009205960757
 20
99.828060382812
 30
0.0
 11
204.2009205960757
 21
155.078060382812
 31
0.0
  0
LINE
  5
951
330
1C2
100
AcDbEntity
  8
Titel (ISO)
100
AcDbLine
 10
105.4009205960757
 20
138.078060382812
 30
0.0
 11
285.4009205960757
 21
138.0780603828121
 31
0.0
  0
LINE
  5
952
330
1C2
100
AcDbEntity
  8
Titel (ISO)
100
AcDbLine
 10
153.0009205960757
 20
116.828060382812
 30
0.0
 11
285.4009205960757
 21
116.8280603828121
 31
0.0
  0
LINE
  5
953
330
1C2
100
AcDbEntity
  8
Titel (ISO)
100
AcDbLine
 10
204.2009205960757
 20
148.3280603828119
 30
0.0
 11
285.4009205960757
 21
148.328060382812
 31
0.0
  0
LINE
  5
954
330
1C2
100
AcDbEntity
  8
Titel (ISO)
100
AcDbLine
 10
256.2267694444178
 20
138.0780603828121
 30
0.0
 11
256.2267694444179
 21
155.0780603828119
 31
0.0
  0
LINE
  5
955
330
1C2
100
AcDbEntity
  8
Titel (ISO)
100
AcDbLine
 10
105.4009205960757
 20
104.0780603828119
 30
0.0
 11
160.0009205960756
 21
104.0780603828119
 31
0.0
  0
LINE
  5
956
330
1C2
100
AcDbEntity
  8
Titel (ISO)
100
AcDbLine
 10
160.0009205960756
 20
104.0780603828119
 30
0.0
 11
204.2009205960757
 21
104.078060382812
 31
0.0
  0
LINE
  5
957
330
1C2
100
AcDbEntity
  8
Titel (ISO)
100
AcDbLine
 10
197.2009205960756
 20
104.078060382812
 30
0.0
 11
285.4009205960757
 21
104.078060382812
 31
0.0
  0
LINE
  5
958
330
1C2
100
AcDbEntity
  8
Titel (ISO)
100
AcDbLine
 10
269.6009205960757
 20
104.078060382812
 30
0.0
 11
269.6009205960757
 21
116.8280603828121
 31
0.0
  0
LINE
  5
959
330
1C2
100
AcDbEntity
  8
Titel (ISO)
100
AcDbLine
 10
269.6009205960757
 20
108.2190860238377
 30
0.0
 11
285.4009205960757
 21
108.2190860238377
 31
0.0
  0
LINE
  5
95A
330
1C2
100
AcDbEntity
  8
Titel (ISO)
100
AcDbLine
 10
160.0009205960757
 20
108.328060382812
 30
0.0
 11
105.4009205960757
 21
108.328060382812
 31
0.0
  0
LINE
  5
95B
330
1C2
100
AcDbEntity
  8
Titel (ISO)
100
AcDbLine
 10
105.4009205960757
 20
112.578060382812
 30
0.0
 11
160.0009205960756
 21
112.578060382812
 31
0.0
  0
LINE
  5
95C
330
1C2
100
AcDbEntity
  8
Titel (ISO)
100
AcDbLine
 10
105.4009205960757
 20
116.8280603828121
 30
0.0
 11
160.0009205960756
 21
116.828060382812
 31
0.0
  0
LINE
  5
95D
330
1C2
100
AcDbEntity
  8
Titel (ISO)
100
AcDbLine
 10
105.4009205960757
 20
121.078060382812
 30
0.0
 11
160.0009205960756
 21
121.078060382812
 31
0.0
  0
LINE
  5
95E
330
1C2
100
AcDbEntity
  8
Titel (ISO)
100
AcDbLine
 10
160.0009205960756
 20
121.078060382812
 30
0.0
 11
204.2009205960757
 21
121.078060382812
 31
0.0
  0
LINE
  5
95F
330
1C2
100
AcDbEntity
  8
Titel (ISO)
100
AcDbLine
 10
105.4009205960757
 20
125.328060382812
 30
0.0
 11
160.0009205960756
 21
125.3280603828121
 31
0.0
  0
LINE
  5
960
330
1C2
100
AcDbEntity
  8
Titel (ISO)
100
AcDbLine
 10
160.0009205960756
 20
125.3280603828121
 30
0.0
 11
204.2009205960757
 21
125.3280603828121
 31
0.0
  0
LINE
  5
961
330
1C2
100
AcDbEntity
  8
Titel (ISO)
100
AcDbLine
 10
105.4009205960757
 20
129.578060382812
 30
0.0
 11
160.0009205960756
 21
129.5780603828121
 31
0.0
  0
LINE
  5
962
330
1C2
100
AcDbEntity
  8
Titel (ISO)
100
AcDbLine
 10
160.0009205960756
 20
129.5780603828121
 30
0.0
 11
204.2009205960757
 21
129.578060382812
 31
0.0
  0
LINE
  5
963
330
1C2
100
AcDbEntity
  8
Titel (ISO)
100
AcDbLine
 10
105.4009205960757
 20
133.828060382812
 30
0.0
 11
160.0009205960756
 21
133.828060382812
 31
0.0
  0
LINE
  5
964
330
1C2
100
AcDbEntity
  8
Titel (ISO)
100
AcDbLine
 10
160.0009205960756
 20
133.828060382812
 30
0.0
 11
204.2009205960757
 21
133.828060382812
 31
0.0
  0
LINE
  5
965
330
1C2
100
AcDbEntity
  8
Titel (ISO)
100
AcDbLine
 10
115.4009205960757
 20
99.828060382812
 30
0.0
 11
115.4009205960756
 21
138.078060382812
 31
0.0
  0
LINE
  5
966
330
1C2
100
AcDbEntity
  8
Titel (ISO)
100
AcDbLine
 10
143.0009205960756
 20
99.828060382812
 30
0.0
 11
143.0009205960756
 21
138.078060382812
 31
0.0
  0
LINE
  5
967
330
1C2
100
AcDbEntity
  8
Titel (ISO)
100
AcDbLine
 10
153.0009205960757
 20
99.828060382812
 30
0.0
 11
153.0009205960757
 21
138.078060382812
 31
0.0
  0
LINE
  5
968
330
1C2
100
AcDbEntity
  8
Titel (ISO)
100
AcDbLine
 10
170.4009205960756
 20
121.078060382812
 30
0.0
 11
170.4009205960756
 21
138.078060382812
 31
0.0
  0
LINE
  5
969
330
1C2
100
AcDbEntity
  8
Titel (ISO)
100
AcDbLine
 10
186.0009205960756
 20
116.828060382812
 30
0.0
 11
186.0009205960756
 21
138.078060382812
 31
0.0
  0
LINE
  5
96A
330
1C2
100
AcDbEntity
  8
Titel (ISO)
100
AcDbLine
 10
186.0009205960756
 20
138.078060382812
 30
0.0
 11
186.0009205960756
 21
155.0780603828119
 31
0.0
  0
LINE
  5
96B
330
1C2
100
AcDbEntity
  8
Titel 0_35
100
AcDbLine
 10
186.0009205960756
 20
146.578060382812
 30
0.0
 11
160.0009205960756
 21
146.578060382812
 31
0.0
  0
MTEXT
  5
96C
330
1C2
100
AcDbEntity
  8
Titel (ISO)
100
AcDbMText
 10
208.1286315367894
 20
108.9920147065225
 30
0.0
 40
3.000000119209289
 41
59.64910682955274
 71
     4
 72
     1
  1
\fISOCPEUR|b0|i0;\H3.0000;E_3_01_06_00_00_WKZ-0154
  7
Notiztext (DIN)
 73
     1
 44
1.0
  0
TEXT
  5
96D
330
1C2
100
AcDbEntity
  8
Titel (ISO)
100
AcDbText
 10
107.7996846182284
 20
101.2030603530097
 30
0.0
 40
1.500000059604644
  1
Status
  7
Textstil153
 72
     1
 11
110.8746847404179
 21
101.953060382812
 31
0.0
100
AcDbText
 73
     2
  0
TEXT
  5
96E
330
1C2
100
AcDbEntity
  8
Titel (ISO)
100
AcDbText
 10
123.4276722178859
 20
101.2030603530097
 30
0.0
 40
1.500000059604644
  1
Änderungen
  7
Textstil153
 72
     1
 11
128.7526724294824
 21
101.953060382812
 31
0.0
100
AcDbText
 73
     2
  0
TEXT
  5
96F
330
1C2
100
AcDbEntity
  8
Titel (ISO)
100
AcDbText
 10
144.6321348209609
 20
101.2030603530097
 30
0.0
 40
1.500000059604644
  1
Datum
  7
Textstil153
 72
     1
 11
147.4071349312294
 21
101.953060382812
 31
0.0
100
AcDbText
 73
     2
  0
TEXT
  5
970
330
1C2
100
AcDbEntity
  8
Titel (ISO)
100
AcDbText
 10
153.7759205036885
 20
101.2030603530097
 30
0.0
 40
1.500000059604644
  1
Name
  7
Textstil153
 72
     1
 11
156.1009205960757
 21
101.953060382812
 31
0.0
100
AcDbText
 73
     2
  0
TEXT
  5
971
330
1C2
100
AcDbEntity
  8
Titel (ISO)
100
AcDbText
 10
161.0009205960756
 20
131.0780603828121
 30
0.0
 40
1.25
  1
Gezeichnet
  7
Textstil159
 11
161.0009205960756
 21
130.5780603828121
 31
0.0
100
AcDbText
 73
     1
  0
TEXT
  5
972
330
1C2
100
AcDbEntity
  8
Titel (ISO)
100
AcDbText
 10
161.0009205960756
 20
126.828060382812
 30
0.0
 40
1.25
  1
Kontrolliert
  7
Textstil159
 11
161.0009205960756
 21
126.328060382812
 31
0.0
100
AcDbText
 73
     1
  0
TEXT
  5
973
330
1C2
100
AcDbEntity
  8
Titel (ISO)
100
AcDbText
 10
161.0009205960756
 20
122.578060382812
 30
0.0
 40
1.25
  1
Genehmigt:
  7
Textstil159
 11
161.0009205960756
 21
122.078060382812
 31
0.0
100
AcDbText
 73
     1
  0
TEXT
  5
974
330
1C2
100
AcDbEntity
  8
Titel (ISO)
100
AcDbText
 10
174.5009205409413
 20
135.628060394733
 30
0.0
 40
2.000000029802322
  1
Datum
  7
Textstil157
 72
     1
 11
178.2009205960756
 21
134.828060382812
 31
0.0
100
AcDbText
 73
     1
  0
TEXT
  5
975
330
1C2
100
AcDbEntity
  8
Titel (ISO)
100
AcDbText
 10
192.000920549882
 20
135.628060394733
 30
0.0
 40
2.000000029802322
  1
Name
  7
Textstil157
 72
     1
 11
195.1009205960756
 21
134.828060382812
 31
0.0
100
AcDbText
 73
     1
  0
MTEXT
  5
976
102
{ACAD_XDICTIONARY
360
977
102
}
330
1C2
100
AcDbEntity
  8
Titel (ISO)
100
AcDbMText
 10
205.2009205960757
 20
151.703060382812
 30
0.0
 40
1.500000059604644
 41
17.92337417602539
 71
     4
 72
     1
  1
\fISOCPEUR|b0|i0;\H1.5000;Ma\U+00DFstab:
  7
Notiztext (DIN)
 73
     1
 44
1.0
  0
MTEXT
  5
978
330
1C2
100
AcDbEntity
  8
Titel (ISO)
100
AcDbMText
 10
214.5541113515286
 20
151.703060382812
 30
0.0
 40
3.000000119209289
 41
29.20251846313476
 71
     4
 72
     1
  1
\fISOCPEUR|b0|i0;\H3.0000; 2 : 1
  7
Notiztext (DIN)
 73
     1
 44
1.0
  0
MTEXT
  5
979
330
1C2
100
AcDbEntity
  8
Titel (ISO)
100
AcDbMText
 10
182.1009205960757
 20
115.8380126953125
 30
0.0
 40
2.5
 41
32.11721420288086
 71
     2
 72
     1
  1
\fISOCPEUR|b0|i0;\H2.5000;Ausgabedatum
  7
Notiztext (DIN)
 73
     1
 44
1.0
  0
MTEXT
  5
97A
102
{ACAD_XDICTIONARY
360
97B
102
}
330
1C2
100
AcDbEntity
  8
Titel 0_35
100
AcDbMText
 10
195.1009205960756
 20
146.2447270445117
 30
0.0
 40
2.000000029802322
 41
15.1929497718811
 71
     5
 72
     1
  1
\fISOCPEUR|b0|i0;\H2.0000;F\U+00FCr diese Zeichnung\Pbehalten wir uns alle Rechte vor!
  7
Notiztext (DIN)
 73
     2
 44
0.9000000357627868
  0
MTEXT
  5
97C
330
1C2
100
AcDbEntity
  8
Titel 0_35
100
AcDbMText
 10
173.0009205960756
 20
142.4947270147093
 30
0.0
 40
3.499999940395355
 41
24.54627990722656
 71
     5
 72
     1
  1
\fISOCPEUR|b0|i0;\H2.0000;Allgemeintoleranz\P\fISOCPEUR|b0|i0;\H3.0000;ISO 2768-m
  7
Notiztext (DIN)
 73
     2
 44
0.7714285850524903
  0
MTEXT
  5
97D
330
1C2
100
AcDbEntity
  8
Titel (ISO)
100
AcDbMText
 10
256.6022336677022
 20
151.465999266218
 30
0.0
 40
3.499999940395355
 41
29.20251846313476
 71
     4
 72
     1
  1
Ecobelt GmbH
  7
Notiztext (DIN)
 73
     1
 44
1.0
  0
MTEXT
  5
97E
330
1C2
100
AcDbEntity
  8
Titel (ISO)
100
AcDbMText
 10
205.1334040773558
 20
146.3099505498354
 30
0.0
 40
1.500000059604644
 41
17.92337417602539
 71
     4
 72
     1
  1
\fISOCPEUR|b0|i0;\H1.5000;Material:
  7
Notiztext (DIN)
 73
     1
 44
1.0
  0
MTEXT
  5
97F
330
1C2
100
AcDbEntity
  8
Titel (ISO)
100
AcDbMText
 10
256.8790612734793
 20
146.0756598049967
 30
0.0
 40
1.500000059604644
 41
17.92337417602539
 71
     4
 72
     1
  1
\fISOCPEUR|b0|i0;\H1.5000;Abmessungen:\P
  7
Notiztext (DIN)
 73
     2
 44
1.0
  0
MTEXT
  5
980
330
1C2
100
AcDbEntity
  8
Titel (ISO)
100
AcDbMText
 10
182.1460912483163
 20
108.7059489484897
 30
0.0
 40
3.000000119209289
 41
21.33766174316406
 71
     5
 72
     1
  1
\fISOCPEUR|b0|i0;\H3.0000;04.11.2013
  7
Notiztext (DIN)
 73
     1
 44
1.0
  0
MTEXT
  5
981
102
{ACAD_XDICTIONARY
360
982
102
}
330
1C2
100
AcDbEntity
  8
Titel (ISO)
100
AcDbMText
 10
214.837800847027
 20
147.0373839493573
 30
0.0
 40
2.5
 41
0.0
 71
     1
 72
     1
  1
\fArial|b0|i0;\H2.5000;gem\U+00E4\U+00DF Nockenselektor\Paccording to cleat selector
  7
Notiztext (DIN)
 73
     2
 44
0.9442214965820312
  0
ATTDEF
  5
983
102
{ACAD_XDICTIONARY
360
984
102
}
330
1C2
100
AcDbEntity
  8
Titel (ISO)
100
AcDbText
 10
275.3759206633637
 20
104.8985732033249
 30
0.0
 40
2.5
  1
A4
  7
Textstil151
100
AcDbAttributeDefinition
  3
Blattgröße
  2
Blattgröße_001
 70
     0
  0
ATTDEF
  5
985
102
{ACAD_XDICTIONARY
360
986
102
}
330
1C2
100
AcDbEntity
  8
Titel (ISO)
100
AcDbText
 10
229.9750330171921
 20
128.487326713937
 30
0.0
 40
5.0
  1
WKZ-0154
  7
Textstil150
100
AcDbAttributeDefinition
  3
BAUTEILNUMMER
  2
BAUTEILNUMMER_001
 70
     0
  0
ATTDEF
  5
987
102
{ACAD_XDICTIONARY
360
988
102
}
330
1C2
100
AcDbEntity
  8
Titel (ISO)
100
AcDbText
 10
171.0009205964482
 20
131.2447270594129
 30
0.0
 40
2.000000029802322
  1
17.11.2011
  7
Textstil157
100
AcDbAttributeDefinition
  3
ERSTELLUNGSDATUM
  2
ERSTELLUNGSDATUM_001
 70
     0
  0
ATTDEF
  5
989
102
{ACAD_XDICTIONARY
360
98A
102
}
330
1C2
100
AcDbEntity
  8
Titel (ISO)
100
AcDbText
 10
171.4009205960756
 20
127.128060394733
 30
0.0
 40
2.000000029802322
  1

  7
Textstil157
 11
171.4009205960756
 21
126.328060382812
 31
0.0
100
AcDbAttributeDefinition
  3
KONTROLLDATUM
  2
KONTROLLDATUM
 70
     0
 74
     1
  0
ATTDEF
  5
98B
102
{ACAD_XDICTIONARY
360
98C
102
}
330
1C2
100
AcDbEntity
  8
Titel (ISO)
100
AcDbText
 10
187.0009205960757
 20
131.378060394733
 30
0.0
 40
2.000000029802322
  1

  7
Textstil157
 11
187.0009205960757
 21
130.5780603828121
 31
0.0
100
AcDbAttributeDefinition
  3
KONSTRUKTEUR
  2
KONSTRUKTEUR
 70
     0
 74
     1
  0
ATTDEF
  5
98D
102
{ACAD_XDICTIONARY
360
98E
102
}
330
1C2
100
AcDbEntity
  8
Titel (ISO)
100
AcDbText
 10
187.0009205960757
 20
122.878060394733
 30
0.0
 40
2.000000029802322
  1

  7
Textstil157
 11
187.0009205960757
 21
122.078060382812
 31
0.0
100
AcDbAttributeDefinition
  3
KONSTR. GEN. VON
  2
KONSTR._GEN._VON
 70
     0
 74
     1
  0
ATTDEF
  5
98F
102
{ACAD_XDICTIONARY
360
990
102
}
330
1C2
100
AcDbEntity
  8
Titel (ISO)
100
AcDbText
 10
187.0009205960757
 20
127.128060394733
 30
0.0
 40
2.000000029802322
  1

  7
Textstil157
 11
187.0009205960757
 21
126.328060382812
 31
0.0
100
AcDbAttributeDefinition
  3
KONTROLLIERT VON
  2
KONTROLLIERT_VON
 70
     0
 74
     1
  0
ATTDEF
  5
991
102
{ACAD_XDICTIONARY
360
992
102
}
330
1C2
100
AcDbEntity
  8
Titel (ISO)
100
AcDbText
 10
277.538246650968
 20
110.6839800731865
 30
0.0
 40
2.485507130622863
  1
1
  7
Textstil160
100
AcDbAttributeDefinition
  3
Blattnummer
  2
Blattnummer_001
 70
     0
  0
ATTDEF
  5
993
102
{ACAD_XDICTIONARY
360
994
102
}
330
1C2
100
AcDbEntity
  8
Titel (ISO)
100
AcDbText
 10
171.5342393665902
 20
122.9279729585642
 30
0.0
 40
2.000000029802322
  1

  7
Textstil157
 11
171.5342393665902
 21
122.1279729466433
 31
0.0
100
AcDbAttributeDefinition
  3
GENEHM.DAT. KONSTR.
  2
GENEHM.DAT._KONSTR.
 70
     0
 74
     1
  0
INSERT
  5
9AE
330
1C2
100
AcDbEntity
  8
0
100
AcDbBlockReference
  2
logo-Optibelt
 10
105.4009205960757
 20
138.078060382812
 30
0.0
 41
2.0
 42
2.0
 43
2.0
  0
ENDBLK
  5
1C4
330
1C2
100
AcDbEntity
  8
0
100
AcDbBlockEnd
  0
BLOCK
  5
28E
330
28D
100
AcDbEntity
  8
0
100
AcDbBlockBegin
  2
*D11
 70
     1
 10
0.0
 20
0.0
 30
0.0
  3
*D11
  1

  0
LINE
  5
359
330
28D
100
AcDbEntity
  8
Bemaßungen(Laser)
  6
Continuous
 62
     7
440
 16777216
370
    25
100
AcDbLine
 10
23.60715521170343
 20
53.71290810342157
 30
0.0
 11
13.67265707502061
 21
53.71290810342157
 31
0.0
  0
LINE
  5
35A
330
28D
100
AcDbEntity
  8
Bemaßungen(Laser)
  6
Continuous
 62
     7
440
 16777216
370
    25
100
AcDbLine
 10
23.60715521170343
 20
78.71290810342157
 30
0.0
 11
13.67265707502062
 21
78.71290810342157
 31
0.0
  0
LINE
  5
35B
330
28D
100
AcDbEntity
  8
Bemaßungen(Laser)
  6
Continuous
 62
     7
440
 16777216
370
    25
100
AcDbLine
 10
14.67265707502061
 20
54.96290810342157
 30
0.0
 11
14.67265707502062
 21
77.46290810342157
 31
0.0
  0
SOLID
  5
35C
330
28D
100
AcDbEntity
  8
Bemaßungen(Laser)
  6
Continuous
 62
     7
440
 16777216
100
AcDbTrace
 10
14.46432374168728
 20
54.96290810342157
 30
0.0
 11
14.88099040835395
 21
54.96290810342157
 31
0.0
 12
14.67265707502061
 22
53.71290810342157
 32
0.0
 13
14.67265707502061
 23
53.71290810342157
 33
0.0
  0
SOLID
  5
35D
330
28D
100
AcDbEntity
  8
Bemaßungen(Laser)
  6
Continuous
 62
     7
440
 16777216
100
AcDbTrace
 10
14.46432374168729
 20
77.46290810342157
 30
0.0
 11
14.88099040835395
 21
77.46290810342157
 31
0.0
 12
14.67265707502062
 22
78.71290810342157
 32
0.0
 13
14.67265707502062
 23
78.71290810342157
 33
0.0
  0
MTEXT
  5
35E
330
28D
100
AcDbEntity
  8
Bemaßungen(Laser)
  6
Continuous
 62
     7
440
 16777216
370
    25
100
AcDbMText
 10
12.99622459828656
 20
65.30226689757523
 30
0.0
 40
1.25
 41
0.0
 71
     1
 72
     1
  1
\A1;25
  7
DIN - Andere-Laser
 11
0.0000000000000001
 21
1.0
 31
0.0
 73
     1
 44
1.0
  0
POINT
  5
35F
330
28D
100
AcDbEntity
  8
Defpoints
  6
Continuous
 62
     0
440
 16777216
100
AcDbPoint
 10
24.10715521170343
 20
53.71290810342157
 30
0.0
  0
POINT
  5
360
330
28D
100
AcDbEntity
  8
Defpoints
  6
Continuous
 62
     0
440
 16777216
100
AcDbPoint
 10
24.10715521170343
 20
78.71290810342157
 30
0.0
  0
POINT
  5
361
330
28D
100
AcDbEntity
  8
Defpoints
  6
Continuous
 62
     0
440
 16777216
100
AcDbPoint
 10
14.67265707502062
 20
78.71290810342157
 30
0.0
  0
ENDBLK
  5
28F
330
28D
100
AcDbEntity
  8
0
100
AcDbBlockEnd
  0
BLOCK
  5
364
330
363
100
AcDbEntity
  8
0
100
AcDbBlockBegin
  2
*D12
 70
     1
 10
0.0
 20
0.0
 30
0.0
  3
*D12
  1

  0
LINE
  5
457
330
363
100
AcDbEntity
  8
Bemaßungen(Laser)
  6
Continuous
 62
     7
440
 16777216
370
    25
100
AcDbLine
 10
23.60715521170343
 20
53.71290810342157
 30
0.0
 11
18.01875572359602
 21
53.71290810342157
 31
0.0
  0
LINE
  5
458
330
363
100
AcDbEntity
  8
Bemaßungen(Laser)
  6
Continuous
 62
     7
440
 16777216
370
    25
100
AcDbLine
 10
23.60715521170343
 20
54.71290810342157
 30
0.0
 11
18.01875572359602
 21
54.71290810342157
 31
0.0
  0
LINE
  5
459
330
363
100
AcDbEntity
  8
Bemaßungen(Laser)
  6
Continuous
 62
     7
440
 16777216
370
    25
100
AcDbLine
 10
19.01875572359602
 20
52.46290810342157
 30
0.0
 11
19.01875572359602
 21
51.21290810342157
 31
0.0
  0
LINE
  5
45A
330
363
100
AcDbEntity
  8
Bemaßungen(Laser)
  6
Continuous
 62
     7
440
 16777216
370
    25
100
AcDbLine
 10
19.01875572359602
 20
55.96290810342157
 30
0.0
 11
19.01875572359603
 21
58.47334466817533
 31
0.0
  0
LINE
  5
45B
330
363
100
AcDbEntity
  8
Bemaßungen(Laser)
  6
Continuous
 62
     7
440
 16777216
370
    25
100
AcDbLine
 10
19.01875572359602
 20
53.71290810342157
 30
0.0
 11
19.01875572359602
 21
54.71290810342157
 31
0.0
  0
SOLID
  5
45C
330
363
100
AcDbEntity
  8
Bemaßungen(Laser)
  6
Continuous
 62
     7
440
 16777216
100
AcDbTrace
 10
18.81042239026269
 20
52.46290810342157
 30
0.0
 11
19.22708905692936
 21
52.46290810342157
 31
0.0
 12
19.01875572359602
 22
53.71290810342157
 32
0.0
 13
19.01875572359602
 23
53.71290810342157
 33
0.0
  0
SOLID
  5
45D
330
363
100
AcDbEntity
  8
Bemaßungen(Laser)
  6
Continuous
 62
     7
440
 16777216
100
AcDbTrace
 10
18.81042239026269
 20
55.96290810342157
 30
0.0
 11
19.22708905692936
 21
55.96290810342157
 31
0.0
 12
19.01875572359602
 22
54.71290810342157
 32
0.0
 13
19.01875572359602
 23
54.71290810342157
 33
0.0
  0
MTEXT
  5
45E
330
363
100
AcDbEntity
  8
Bemaßungen(Laser)
  6
Continuous
 62
     7
440
 16777216
370
    25
100
AcDbMText
 10
17.36363975448946
 20
57.61290810342157
 30
0.0
 40
1.25
 41
0.0
 71
     1
 72
     1
  1
\A1;1
  7
DIN - Andere-Laser
 11
0.0000000000000001
 21
1.0
 31
0.0
 73
     1
 44
1.0
  0
POINT
  5
45F
330
363
100
AcDbEntity
  8
Defpoints
  6
Continuous
 62
     0
440
 16777216
100
AcDbPoint
 10
24.10715521170343
 20
53.71290810342157
 30
0.0
  0
POINT
  5
460
330
363
100
AcDbEntity
  8
Defpoints
  6
Continuous
 62
     0
440
 16777216
100
AcDbPoint
 10
24.10715521170343
 20
54.71290810342157
 30
0.0
  0
POINT
  5
461
330
363
100
AcDbEntity
  8
Defpoints
  6
Continuous
 62
     0
440
 16777216
100
AcDbPoint
 10
19.01875572359602
 20
54.71290810342157
 30
0.0
  0
ENDBLK
  5
365
330
363
100
AcDbEntity
  8
0
100
AcDbBlockEnd
  0
BLOCK
  5
464
330
463
100
AcDbEntity
  8
0
100
AcDbBlockBegin
  2
*D13
 70
     1
 10
0.0
 20
0.0
 30
0.0
  3
*D13
  1

  0
LINE
  5
52F
330
463
100
AcDbEntity
  8
Bemaßungen(Laser)
  6
Continuous
 62
     7
440
 16777216
370
    25
100
AcDbLine
 10
24.10715521170343
 20
79.21290810342156
 30
0.0
 11
24.10715521170343
 21
86.49409534416276
 31
0.0
  0
LINE
  5
530
330
463
100
AcDbEntity
  8
Bemaßungen(Laser)
  6
Continuous
 62
     7
440
 16777216
370
    25
100
AcDbLine
 10
54.12049779401582
 20
79.21290810342156
 30
0.0
 11
54.12049779401582
 21
86.49409534416276
 31
0.0
  0
LINE
  5
531
330
463
100
AcDbEntity
  8
Bemaßungen(Laser)
  6
Continuous
 62
     7
440
 16777216
370
    25
100
AcDbLine
 10
25.35715521170343
 20
85.49409534416277
 30
0.0
 11
52.87049779401582
 21
85.49409534416277
 31
0.0
  0
SOLID
  5
532
330
463
100
AcDbEntity
  8
Bemaßungen(Laser)
  6
Continuous
 62
     7
440
 16777216
100
AcDbTrace
 10
25.35715521170343
 20
85.70242867749611
 30
0.0
 11
25.35715521170343
 21
85.28576201082945
 31
0.0
 12
24.10715521170343
 22
85.49409534416277
 32
0.0
 13
24.10715521170343
 23
85.49409534416277
 33
0.0
  0
SOLID
  5
533
330
463
100
AcDbEntity
  8
Bemaßungen(Laser)
  6
Continuous
 62
     7
440
 16777216
100
AcDbTrace
 10
52.87049779401582
 20
85.70242867749611
 30
0.0
 11
52.87049779401582
 21
85.28576201082945
 31
0.0
 12
54.12049779401582
 22
85.49409534416277
 32
0.0
 13
54.12049779401582
 23
85.49409534416277
 33
0.0
  0
MTEXT
  5
534
330
463
100
AcDbEntity
  8
Bemaßungen(Laser)
  6
Continuous
 62
     7
440
 16777216
370
    25
100
AcDbMText
 10
38.22109116342038
 20
87.17138048120192
 30
0.0
 40
1.25
 41
0.0
 71
     1
 72
     1
  1
\A1;30
  7
DIN - Andere-Laser
 73
     1
 44
1.0
  0
POINT
  5
535
330
463
100
AcDbEntity
  8
Defpoints
  6
Continuous
 62
     0
440
 16777216
100
AcDbPoint
 10
24.10715521170343
 20
78.71290810342157
 30
0.0
  0
POINT
  5
536
330
463
100
AcDbEntity
  8
Defpoints
  6
Continuous
 62
     0
440
 16777216
100
AcDbPoint
 10
54.12049779401582
 20
78.71290810342157
 30
0.0
  0
POINT
  5
537
330
463
100
AcDbEntity
  8
Defpoints
  6
Continuous
 62
     0
440
 16777216
100
AcDbPoint
 10
54.12049779401582
 20
85.49409534416277
 30
0.0
  0
ENDBLK
  5
465
330
463
100
AcDbEntity
  8
0
100
AcDbBlockEnd
  0
BLOCK
  5
539
330
538
100
AcDbEntity
  8
0
100
AcDbBlockBegin
  2
2DTransSchnitt0
 70
     0
 10
0.0
 20
0.0
 30
0.0
  3
2DTransSchnitt0
  1

  0
LINE
  5
53B
330
538
100
AcDbEntity
  8
Schnittansichtslinien(Laser)
  6
CHAIN
 48
10.82385158538818
100
AcDbLine
 10
78.22765300571925
 20
166.0131828069975
 30
0.0
 11
78.22765300571925
 21
99.78515271107378
 31
0.0
  0
LINE
  5
53C
330
538
100
AcDbEntity
  8
Schnittansichtslinien(Laser)
  6
Continuous
370
    70
100
AcDbLine
 10
78.22765300571925
 20
166.0131828069975
 30
0.0
 11
78.22765300571925
 21
161.1434016958246
 31
0.0
  0
LINE
  5
53D
330
538
100
AcDbEntity
  8
Schnittansichtslinien(Laser)
  6
Continuous
370
    70
100
AcDbLine
 10
78.22765300571925
 20
104.6549338222467
 30
0.0
 11
78.22765300571925
 21
99.78515271107378
 31
0.0
  0
LINE
  5
53E
330
538
100
AcDbEntity
  8
Schnittansichtslinien(Laser)
  6
Continuous
100
AcDbLine
 10
73.22765300571925
 20
163.578292251411
 30
0.0
 11
78.22765300571925
 21
163.578292251411
 31
0.0
  0
POLYLINE
  5
53F
330
538
100
AcDbEntity
  8
Schnittansichtslinien(Laser)
  6
Continuous
100
AcDb2dPolyline
 66
     1
 10
0.0
 20
0.0
 30
0.0
 70
   128
  0
VERTEX
  5
540
330
53F
100
AcDbEntity
  8
Schnittansichtslinien(Laser)
  6
Continuous
100
AcDbVertex
100
AcDb2dVertex
 10
73.22765300571925
 20
162.5782920407359
 30
0.0
  0
VERTEX
  5
541
330
53F
100
AcDbEntity
  8
Schnittansichtslinien(Laser)
  6
Continuous
100
AcDbVertex
100
AcDb2dVertex
 10
78.22765300571925
 20
163.5782910870616
 30
0.0
  0
VERTEX
  5
543
330
53F
100
AcDbEntity
  8
Schnittansichtslinien(Laser)
  6
Continuous
100
AcDbVertex
100
AcDb2dVertex
 10
73.22765300571925
 20
164.5782925175731
 30
0.0
  0
VERTEX
  5
544
330
53F
100
AcDbEntity
  8
Schnittansichtslinien(Laser)
  6
Continuous
100
AcDbVertex
100
AcDb2dVertex
 10
73.22765300571925
 20
162.5782920407359
 30
0.0
  0
SEQEND
  5
542
330
53F
100
AcDbEntity
  8
Schnittansichtslinien(Laser)
  6
Continuous
  0
SOLID
  5
545
330
538
100
AcDbEntity
  8
Schnittansichtslinien(Laser)
100
AcDbTrace
 10
73.22765300571925
 20
162.5782920407359
 30
0.0
 11
78.22765300571925
 21
163.5782910870616
 31
0.0
 12
73.22765300571925
 22
164.5782925175731
 32
0.0
 13
73.22765300571925
 23
162.5782920407359
 33
0.0
  0
LINE
  5
546
330
538
100
AcDbEntity
  8
Schnittansichtslinien(Laser)
  6
Continuous
100
AcDbLine
 10
73.22765300571925
 20
162.578292251411
 30
0.0
 11
78.22765300571925
 21
163.578292251411
 31
0.0
  0
LINE
  5
547
330
538
100
AcDbEntity
  8
Schnittansichtslinien(Laser)
  6
Continuous
100
AcDbLine
 10
78.22765300571925
 20
163.578292251411
 30
0.0
 11
73.22765300571925
 21
164.578292251411
 31
0.0
  0
LINE
  5
548
330
538
100
AcDbEntity
  8
Schnittansichtslinien(Laser)
  6
Continuous
100
AcDbLine
 10
73.22765300571925
 20
164.578292251411
 30
0.0
 11
73.22765300571925
 21
162.578292251411
 31
0.0
  0
LINE
  5
549
330
538
100
AcDbEntity
  8
Schnittansichtslinien(Laser)
  6
Continuous
100
AcDbLine
 10
67.9354864690913
 20
163.578292251411
 30
0.0
 11
73.22765300571925
 21
163.578292251411
 31
0.0
  0
LINE
  5
54A
330
538
100
AcDbEntity
  8
Schnittansichtslinien(Laser)
  6
Continuous
100
AcDbLine
 10
73.22765300571925
 20
102.2200432666602
 30
0.0
 11
78.22765300571925
 21
102.2200432666602
 31
0.0
  0
POLYLINE
  5
54B
330
538
100
AcDbEntity
  8
Schnittansichtslinien(Laser)
  6
Continuous
100
AcDb2dPolyline
 66
     1
 10
0.0
 20
0.0
 30
0.0
 70
   128
  0
VERTEX
  5
54C
330
54B
100
AcDbEntity
  8
Schnittansichtslinien(Laser)
  6
Continuous
100
AcDbVertex
100
AcDb2dVertex
 10
73.22765300571925
 20
101.2200428532665
 30
0.0
  0
VERTEX
  5
54D
330
54B
100
AcDbEntity
  8
Schnittansichtslinien(Laser)
  6
Continuous
100
AcDbVertex
100
AcDb2dVertex
 10
78.22765300571925
 20
102.2200442837779
 30
0.0
  0
VERTEX
  5
54F
330
54B
100
AcDbEntity
  8
Schnittansichtslinien(Laser)
  6
Continuous
100
AcDbVertex
100
AcDb2dVertex
 10
73.22765300571925
 20
103.2200433301036
 30
0.0
  0
VERTEX
  5
550
330
54B
100
AcDbEntity
  8
Schnittansichtslinien(Laser)
  6
Continuous
100
AcDbVertex
100
AcDb2dVertex
 10
73.22765300571925
 20
101.2200428532665
 30
0.0
  0
SEQEND
  5
54E
330
54B
100
AcDbEntity
  8
Schnittansichtslinien(Laser)
  6
Continuous
  0
SOLID
  5
551
330
538
100
AcDbEntity
  8
Schnittansichtslinien(Laser)
100
AcDbTrace
 10
73.22765300571925
 20
101.2200428532665
 30
0.0
 11
78.22765300571925
 21
102.2200442837779
 31
0.0
 12
73.22765300571925
 22
103.2200433301036
 32
0.0
 13
73.22765300571925
 23
101.2200428532665
 33
0.0
  0
LINE
  5
552
330
538
100
AcDbEntity
  8
Schnittansichtslinien(Laser)
  6
Continuous
100
AcDbLine
 10
73.22765300571925
 20
101.2200432666602
 30
0.0
 11
78.22765300571925
 21
102.2200432666602
 31
0.0
  0
LINE
  5
553
330
538
100
AcDbEntity
  8
Schnittansichtslinien(Laser)
  6
Continuous
100
AcDbLine
 10
78.22765300571925
 20
102.2200432666602
 30
0.0
 11
73.22765300571925
 21
103.2200432666602
 31
0.0
  0
LINE
  5
554
330
538
100
AcDbEntity
  8
Schnittansichtslinien(Laser)
  6
Continuous
100
AcDbLine
 10
73.22765300571925
 20
103.2200432666602
 30
0.0
 11
73.22765300571925
 21
101.2200432666602
 31
0.0
  0
LINE
  5
555
330
538
100
AcDbEntity
  8
Schnittansichtslinien(Laser)
  6
Continuous
100
AcDbLine
 10
67.9354864690913
 20
102.2200432666602
 30
0.0
 11
73.22765300571925
 21
102.2200432666602
 31
0.0
  0
MTEXT
  5
556
330
538
100
AcDbEntity
  8
Schnittansichtslinien(Laser)
100
AcDbMText
 10
61.21174467183962
 20
161.703292251411
 30
0.0
 40
3.75
 41
0.0
 71
     7
 72
     1
  1
A
  7
Aktuell-DIN-LaserGroßer Text
 73
     1
 44
1.0
  0
MTEXT
  5
557
330
538
100
AcDbEntity
  8
Schnittansichtslinien(Laser)
100
AcDbMText
 10
61.21174467183962
 20
100.3450432666602
 30
0.0
 40
3.75
 41
0.0
 71
     7
 72
     1
  1
A
  7
Aktuell-DIN-LaserGroßer Text
 73
     1
 44
1.0
  0
ENDBLK
  5
53A
330
538
100
AcDbEntity
  8
0
100
AcDbBlockEnd
  0
BLOCK
  5
595
330
594
100
AcDbEntity
  8
0
100
AcDbBlockBegin
  2
Schweißsymbol1
 70
     0
 10
0.0
 20
0.0
 30
0.0
  3
Schweißsymbol1
  1

  0
LINE
  5
597
330
594
100
AcDbEntity
  8
Symbole(Laser)
  6
Continuous
 62
     7
370
     9
100
AcDbLine
 10
152.0740448313911
 20
105.4159085059799
 30
0.0
 11
150.5873468008513
 21
107.4258162068431
 31
0.0
  0
POLYLINE
  5
598
330
594
100
AcDbEntity
  8
Symbole(Laser)
  6
Continuous
 62
     7
370
     9
100
AcDb2dPolyline
 66
     1
 10
0.0
 20
0.0
 30
0.0
 70
   128
  0
VERTEX
  5
599
330
598
100
AcDbEntity
  8
Symbole(Laser)
  6
Continuous
 62
     7
370
     9
100
AcDbVertex
100
AcDb2dVertex
 10
152.4760246276855
 20
105.713243484497
 30
0.0
  0
VERTEX
  5
59A
330
598
100
AcDbEntity
  8
Symbole(Laser)
  6
Continuous
 62
     7
370
     9
100
AcDbVertex
100
AcDb2dVertex
 10
150.5873489379883
 20
107.4258136749267
 30
0.0
  0
VERTEX
  5
59C
330
598
100
AcDbEntity
  8
Symbole(Laser)
  6
Continuous
 62
     7
370
     9
100
AcDbVertex
100
AcDb2dVertex
 10
151.6720676422119
 20
105.1185703277588
 30
0.0
  0
VERTEX
  5
59D
330
598
100
AcDbEntity
  8
Symbole(Laser)
  6
Continuous
 62
     7
370
     9
100
AcDbVertex
100
AcDb2dVertex
 10
152.4760246276855
 20
105.713243484497
 30
0.0
  0
SEQEND
  5
59B
330
598
100
AcDbEntity
  8
Symbole(Laser)
  6
Continuous
 62
     7
370
     9
  0
SOLID
  5
59E
330
594
100
AcDbEntity
  8
Symbole(Laser)
 62
     7
100
AcDbTrace
 10
152.4760246276855
 20
105.713243484497
 30
0.0
 11
150.5873489379883
 21
107.4258136749267
 31
0.0
 12
151.6720676422119
 22
105.1185703277588
 32
0.0
 13
152.4760246276855
 23
105.713243484497
 33
0.0
  0
LINE
  5
59F
330
594
100
AcDbEntity
  8
Symbole(Laser)
  6
Continuous
 62
     7
370
     9
100
AcDbLine
 10
152.4760263715637
 20
105.7132481120879
 30
0.0
 11
150.5873468008513
 21
107.4258162068431
 31
0.0
  0
LINE
  5
5A0
330
594
100
AcDbEntity
  8
Symbole(Laser)
  6
Continuous
 62
     7
370
     9
100
AcDbLine
 10
150.5873468008513
 20
107.4258162068431
 30
0.0
 11
151.6720632912184
 21
105.118568899872
 31
0.0
  0
LINE
  5
5A1
330
594
100
AcDbEntity
  8
Symbole(Laser)
  6
Continuous
 62
     7
370
     9
100
AcDbLine
 10
151.6720632912184
 20
105.118568899872
 30
0.0
 11
152.4760263715637
 21
105.7132481120879
 31
0.0
  0
LINE
  5
5A2
330
594
100
AcDbEntity
  8
Symbole(Laser)
  6
Continuous
 62
     7
370
     9
100
AcDbLine
 10
152.0740448313911
 20
105.4159085059799
 30
0.0
 11
153.6754659563086
 21
103.2509035182971
 31
0.0
  0
LINE
  5
5A3
330
594
100
AcDbEntity
  8
Symbole(Laser)
100
AcDbLine
 10
165.6754659578086
 20
103.2509035182971
 30
0.0
 11
168.1754659578086
 21
105.7509035182971
 31
0.0
  0
LINE
  5
5A4
330
594
100
AcDbEntity
  8
Symbole(Laser)
100
AcDbLine
 10
165.6754659578086
 20
103.2509035182971
 30
0.0
 11
168.1754659578086
 21
100.7509035182971
 31
0.0
  0
MTEXT
  5
5A5
330
594
100
AcDbEntity
  8
Symbole(Laser)
100
AcDbMText
 10
168.9254659578086
 20
102.0009035182971
 30
0.0
 40
2.5
 41
0.0
 71
     7
 72
     1
  1
 
  7
Aktuell-DIN
 73
     1
 44
1.0
  0
LINE
  5
5A6
330
594
100
AcDbEntity
  8
Symbole(Laser)
  6
Continuous
 62
     7
370
     9
100
AcDbLine
 10
153.6754659578086
 20
103.2509035182971
 30
0.0
 11
165.6754659578086
 21
103.2509035182971
 31
0.0
  0
ENDBLK
  5
596
330
594
100
AcDbEntity
  8
0
100
AcDbBlockEnd
  0
BLOCK
  5
5B0
330
5AF
100
AcDbEntity
  8
0
100
AcDbBlockBegin
  2
*D16
 70
     1
 10
0.0
 20
0.0
 30
0.0
  3
*D16
  1

  0
LINE
  5
689
330
5AF
100
AcDbEntity
  8
Bemaßungen(Laser)
  6
Continuous
 62
     7
440
 16777216
370
    25
100
AcDbLine
 10
23.60715521169419
 20
45.12519313888225
 30
0.0
 11
19.1071552116942
 21
45.12519313888225
 31
0.0
  0
LINE
  5
68A
330
5AF
100
AcDbEntity
  8
Bemaßungen(Laser)
  6
Continuous
 62
     7
440
 16777216
370
    25
100
AcDbLine
 10
23.60715521169421
 20
41.12519313888224
 30
0.0
 11
19.1071552116942
 21
41.12519313888224
 31
0.0
  0
LINE
  5
68B
330
5AF
100
AcDbEntity
  8
Bemaßungen(Laser)
  6
Continuous
 62
     7
440
 16777216
370
    25
100
AcDbLine
 10
20.1071552116942
 20
43.87519313888225
 30
0.0
 11
20.1071552116942
 21
42.37519313888224
 31
0.0
  0
SOLID
  5
68C
330
5AF
100
AcDbEntity
  8
Bemaßungen(Laser)
  6
Continuous
 62
     7
440
 16777216
100
AcDbTrace
 10
19.89882187836087
 20
43.87519313888225
 30
0.0
 11
20.31548854502753
 21
43.87519313888225
 31
0.0
 12
20.1071552116942
 22
45.12519313888225
 32
0.0
 13
20.1071552116942
 23
45.12519313888225
 33
0.0
  0
SOLID
  5
68D
330
5AF
100
AcDbEntity
  8
Bemaßungen(Laser)
  6
Continuous
 62
     7
440
 16777216
100
AcDbTrace
 10
19.89882187836087
 20
42.37519313888224
 30
0.0
 11
20.31548854502753
 21
42.37519313888224
 31
0.0
 12
20.1071552116942
 22
41.12519313888224
 32
0.0
 13
20.1071552116942
 23
41.12519313888224
 33
0.0
  0
MTEXT
  5
68E
330
5AF
100
AcDbEntity
  8
Bemaßungen(Laser)
  6
Continuous
 62
     7
440
 16777216
370
    25
100
AcDbMText
 10
18.45715520441824
 20
42.69289436419676
 30
0.0
 40
1.25
 41
0.0
 71
     1
 72
     1
  1
\A1;4
  7
DIN - Andere-Laser
 11
0.0000000000000001
 21
1.0
 31
0.0
 73
     1
 44
1.0
  0
POINT
  5
68F
330
5AF
100
AcDbEntity
  8
Defpoints
  6
Continuous
 62
     0
440
 16777216
100
AcDbPoint
 10
24.10715521169419
 20
45.12519313888225
 30
0.0
  0
POINT
  5
690
330
5AF
100
AcDbEntity
  8
Defpoints
  6
Continuous
 62
     0
440
 16777216
100
AcDbPoint
 10
24.10715521169421
 20
41.12519313888224
 30
0.0
  0
POINT
  5
691
330
5AF
100
AcDbEntity
  8
Defpoints
  6
Continuous
 62
     0
440
 16777216
100
AcDbPoint
 10
20.1071552116942
 20
41.12519313888224
 30
0.0
  0
ENDBLK
  5
5B1
330
5AF
100
AcDbEntity
  8
0
100
AcDbBlockEnd
  0
BLOCK
  5
694
330
693
100
AcDbEntity
  8
0
100
AcDbBlockBegin
  2
*D17
 70
     1
 10
0.0
 20
0.0
 30
0.0
  3
*D17
  1

  0
LINE
  5
75F
330
693
100
AcDbEntity
  8
Bemaßungen(Laser)
  6
Continuous
 62
     7
440
 16777216
370
    25
100
AcDbLine
 10
48.1138265028504
 20
34.62519313888224
 30
0.0
 11
48.1138265028504
 21
29.18783006799385
 31
0.0
  0
LINE
  5
760
330
693
100
AcDbEntity
  8
Bemaßungen(Laser)
  6
Continuous
 62
     7
440
 16777216
370
    25
100
AcDbLine
 10
30.1138265028504
 20
34.62519313888225
 30
0.0
 11
30.1138265028504
 21
29.18783006799385
 31
0.0
  0
LINE
  5
761
330
693
100
AcDbEntity
  8
Bemaßungen(Laser)
  6
Continuous
 62
     7
440
 16777216
370
    25
100
AcDbLine
 10
46.8638265028504
 20
30.18783006799385
 30
0.0
 11
31.3638265028504
 21
30.18783006799385
 31
0.0
  0
SOLID
  5
762
330
693
100
AcDbEntity
  8
Bemaßungen(Laser)
  6
Continuous
 62
     7
440
 16777216
100
AcDbTrace
 10
46.8638265028504
 20
30.39616340132718
 30
0.0
 11
46.8638265028504
 21
29.97949673466052
 31
0.0
 12
48.1138265028504
 22
30.18783006799385
 32
0.0
 13
48.1138265028504
 23
30.18783006799385
 33
0.0
  0
SOLID
  5
763
330
693
100
AcDbEntity
  8
Bemaßungen(Laser)
  6
Continuous
 62
     7
440
 16777216
100
AcDbTrace
 10
31.3638265028504
 20
30.39616340132718
 30
0.0
 11
31.3638265028504
 21
29.97949673466052
 31
0.0
 12
30.1138265028504
 22
30.18783006799385
 32
0.0
 13
30.1138265028504
 23
30.18783006799385
 33
0.0
  0
MTEXT
  5
764
330
693
100
AcDbEntity
  8
Bemaßungen(Laser)
  6
Continuous
 62
     7
440
 16777216
370
    25
100
AcDbMText
 10
38.27608775309008
 20
31.86426254472789
 30
0.0
 40
1.25
 41
0.0
 71
     1
 72
     1
  1
\A1;18
  7
DIN - Andere-Laser
 73
     1
 44
1.0
  0
POINT
  5
765
330
693
100
AcDbEntity
  8
Defpoints
  6
Continuous
 62
     0
440
 16777216
100
AcDbPoint
 10
48.1138265028504
 20
35.12519313888224
 30
0.0
  0
POINT
  5
766
330
693
100
AcDbEntity
  8
Defpoints
  6
Continuous
 62
     0
440
 16777216
100
AcDbPoint
 10
30.1138265028504
 20
35.12519313888225
 30
0.0
  0
POINT
  5
767
330
693
100
AcDbEntity
  8
Defpoints
  6
Continuous
 62
     0
440
 16777216
100
AcDbPoint
 10
30.1138265028504
 20
30.18783006799385
 30
0.0
  0
ENDBLK
  5
695
330
693
100
AcDbEntity
  8
0
100
AcDbBlockEnd
  0
BLOCK
  5
76A
330
769
100
AcDbEntity
  8
0
100
AcDbBlockBegin
  2
*D18
 70
     1
 10
0.0
 20
0.0
 30
0.0
  3
*D18
  1

  0
LINE
  5
841
330
769
100
AcDbEntity
  8
Bemaßungen(Laser)
  6
Continuous
 62
     7
440
 16777216
370
    25
100
AcDbLine
 10
23.60715521169419
 20
45.12519313888225
 30
0.0
 11
13.00714782490254
 21
45.12519313888225
 31
0.0
  0
LINE
  5
842
330
769
100
AcDbEntity
  8
Bemaßungen(Laser)
  6
Continuous
 62
     7
440
 16777216
370
    25
100
AcDbLine
 10
29.6138265028504
 20
35.12519313888225
 30
0.0
 11
13.00714782490254
 21
35.12519313888225
 31
0.0
  0
LINE
  5
843
330
769
100
AcDbEntity
  8
Bemaßungen(Laser)
  6
Continuous
 62
     7
440
 16777216
370
    25
100
AcDbLine
 10
14.00714782490254
 20
43.87519313888225
 30
0.0
 11
14.00714782490254
 21
36.37519313888225
 31
0.0
  0
SOLID
  5
844
330
769
100
AcDbEntity
  8
Bemaßungen(Laser)
  6
Continuous
 62
     7
440
 16777216
100
AcDbTrace
 10
13.79881449156921
 20
43.87519313888225
 30
0.0
 11
14.21548115823588
 21
43.87519313888225
 31
0.0
 12
14.00714782490254
 22
45.12519313888225
 32
0.0
 13
14.00714782490254
 23
45.12519313888225
 33
0.0
  0
SOLID
  5
845
330
769
100
AcDbEntity
  8
Bemaßungen(Laser)
  6
Continuous
 62
     7
440
 16777216
100
AcDbTrace
 10
13.79881449156921
 20
36.37519313888225
 30
0.0
 11
14.21548115823588
 21
36.37519313888225
 31
0.0
 12
14.00714782490254
 22
35.12519313888225
 32
0.0
 13
14.00714782490254
 23
35.12519313888225
 33
0.0
  0
MTEXT
  5
846
330
769
100
AcDbEntity
  8
Bemaßungen(Laser)
  6
Continuous
 62
     7
440
 16777216
370
    25
100
AcDbMText
 10
12.33071534816849
 20
39.29086503034233
 30
0.0
 40
1.25
 41
0.0
 71
     1
 72
     1
  1
\A1;10
  7
DIN - Andere-Laser
 11
0.0000000000000001
 21
1.0
 31
0.0
 73
     1
 44
1.0
  0
POINT
  5
847
330
769
100
AcDbEntity
  8
Defpoints
  6
Continuous
 62
     0
440
 16777216
100
AcDbPoint
 10
24.10715521169419
 20
45.12519313888225
 30
0.0
  0
POINT
  5
848
330
769
100
AcDbEntity
  8
Defpoints
  6
Continuous
 62
     0
440
 16777216
100
AcDbPoint
 10
30.1138265028504
 20
35.12519313888225
 30
0.0
  0
POINT
  5
849
330
769
100
AcDbEntity
  8
Defpoints
  6
Continuous
 62
     0
440
 16777216
100
AcDbPoint
 10
14.00714782490254
 20
35.12519313888225
 30
0.0
  0
ENDBLK
  5
76B
330
769
100
AcDbEntity
  8
0
100
AcDbBlockEnd
  0
BLOCK
  5
931
330
92F
100
AcDbEntity
  8
0
100
AcDbBlockBegin
  2
GENAXEH
 70
     0
 10
0.0
 20
0.0
 30
0.0
  3
GENAXEH
  1

  0
LINE
  5
930
330
92F
100
AcDbEntity
  8
0
100
AcDbLine
 10
-1.0
 20
0.0
 30
0.0
 11
1.0
 21
0.0
 31
0.0
  0
ENDBLK
  5
932
330
92F
100
AcDbEntity
  8
0
100
AcDbBlockEnd
  0
BLOCK
  5
9A3
330
99E
100
AcDbEntity
  8
0
100
AcDbBlockBegin
  2
logo-Optibelt
 70
     0
 10
0.0
 20
0.0
 30
0.0
  3
logo-Optibelt
  1

  0
IMAGE
  5
99F
330
99E
100
AcDbEntity
  8
0
 92
      140
310
8C0000000100000084000000060000000500000068271581EDE52140B08682E9988CF73F000000000000000063271581EDE52140075E9FC5D91C1C4000000000000000001139420CD6593240185E9FC5D91C1C4000000000000000001439420CD6593240F28682E9988CF73F000000000000000068271581EDE52140B08682
310
E9988CF73F0000000000000000
100
AcDbRasterImage
 90
        0
 10
8.949077638466135
 20
1.471825515888138
 30
0.0
 11
0.0156959010401798
 21
0.0
 31
0.0
 12
0.0
 22
0.0156959010401798
 32
0.0
 13
599.0
 23
354.0
340
9A5
 70
     7
280
     0
281
    50
282
    50
283
     0
360
9A0
 71
     1
 91
        2
 14
-0.5
 24
-0.5
 14
598.5
 24
353.5
  0
ENDBLK
  5
9A4
330
99E
100
AcDbEntity
  8
0
100
AcDbBlockEnd
  0
ENDSEC
  0
SECTION
  2
ENTITIES
  0
INSERT
  5
1C1
330
71
100
AcDbEntity
  8
0
100
AcDbBlockReference
  2
Ränder Rahmen A4 quer
 10
0.0
 20
0.0
 30
0.0
 41
0.5
 42
0.5
 43
0.5
  0
INSERT
  5
211
330
71
100
AcDbEntity
  8
0
100
AcDbBlockReference
 66
     1
  2
Schriftfelder Schriftfeld Nocke
 10
0.7994428631618434
 20
-44.914030191406
 30
0.0
 41
0.5
 42
0.5
 43
0.5
  0
ATTRIB
  5
213
102
{ACAD_XDICTIONARY
360
86B
102
}
330
211
100
AcDbEntity
  8
Titel (ISO)
100
AcDbText
 10
138.4874031948437
 20
7.535256410256456
 30
0.0
 40
1.25
  1
A4
  7
Textstil151
100
AcDbAttribute
  2
Blattgröße_001
 70
     0
  0
ATTRIB
  5
214
102
{ACAD_XDICTIONARY
360
86E
102
}
330
211
100
AcDbEntity
  8
Titel (ISO)
100
AcDbText
 10
115.7869593717579
 20
19.32963316556252
 30
0.0
 40
2.5
  1
WKZ-0154
  7
Textstil150
100
AcDbAttribute
  2
BAUTEILNUMMER_001
 70
     0
  0
ATTRIB
  5
215
102
{ACAD_XDICTIONARY
360
871
102
}
330
211
100
AcDbEntity
  8
Titel (ISO)
100
AcDbText
 10
86.29990316138593
 20
20.70833333830043
 30
0.0
 40
1.000000014901161
  1
17.11.2011
  7
Textstil157
100
AcDbAttribute
  2
ERSTELLUNGSDATUM_001
 70
     0
  0
ATTRIB
  5
216
102
{ACAD_XDICTIONARY
360
874
102
}
330
211
100
AcDbEntity
  8
Titel (ISO)
100
AcDbText
 10
86.49990316119968
 20
18.40984848216884
 30
0.0
 40
1.000000014901161
  1

  7
Textstil157
 11
86.49990316119968
 21
18.25000000000003
 31
0.0
100
AcDbAttribute
  2
KONTROLLDATUM
 70
     0
 74
     1
  0
ATTRIB
  5
217
102
{ACAD_XDICTIONARY
360
877
102
}
330
211
100
AcDbEntity
  8
Titel (ISO)
100
AcDbText
 10
94.29990316119969
 20
20.53484848216886
 30
0.0
 40
1.000000014901161
  1

  7
Textstil157
 11
94.29990316119969
 21
20.37500000000004
 31
0.0
100
AcDbAttribute
  2
KONSTRUKTEUR
 70
     0
 74
     1
  0
ATTRIB
  5
218
102
{ACAD_XDICTIONARY
360
87A
102
}
330
211
100
AcDbEntity
  8
Titel (ISO)
100
AcDbText
 10
94.29990316119969
 20
16.28484848216883
 30
0.0
 40
1.000000014901161
  1

  7
Textstil157
 11
94.29990316119969
 21
16.12500000000002
 31
0.0
100
AcDbAttribute
  2
KONSTR._GEN._VON
 70
     0
 74
     1
  0
ATTRIB
  5
219
102
{ACAD_XDICTIONARY
360
87D
102
}
330
211
100
AcDbEntity
  8
Titel (ISO)
100
AcDbText
 10
94.29990316119969
 20
18.40984848216884
 30
0.0
 40
1.000000014901161
  1

  7
Textstil157
 11
94.29990316119969
 21
18.25000000000003
 31
0.0
100
AcDbAttribute
  2
KONTROLLIERT_VON
 70
     0
 74
     1
  0
ATTRIB
  5
21A
102
{ACAD_XDICTIONARY
360
880
102
}
330
211
100
AcDbEntity
  8
Titel (ISO)
100
AcDbText
 10
139.5685661886458
 20
10.42795984518725
 30
0.0
 40
1.242753565311431
  1
1
  7
Textstil160
100
AcDbAttribute
  2
Blattnummer_001
 70
     0
  0
ATTRIB
  5
21B
102
{ACAD_XDICTIONARY
360
883
102
}
330
211
100
AcDbEntity
  8
Titel (ISO)
100
AcDbText
 10
86.56656254645696
 20
16.30980476408447
 30
0.0
 40
1.000000014901161
  1

  7
Textstil157
 11
86.56656254645696
 21
16.14995628191566
 31
0.0
100
AcDbAttribute
  2
GENEHM.DAT._KONSTR.
 70
     0
 74
     1
  0
SEQEND
  5
212
330
211
100
AcDbEntity
  8
0
  0
LINE
  5
21C
330
71
100
AcDbEntity
  8
Verdeckte Kanten(Laser)
 48
3.422835111618041
100
AcDbLine
 10
30.9416027391409
 20
64.71290810342155
 30
0.0
 11
26.93715521170347
 21
64.71290810342155
 31
0.0
  0
LINE
  5
21D
330
71
100
AcDbEntity
  8
Verdeckte Kanten(Laser)
 48
3.594240188598632
100
AcDbLine
 10
47.28605026657835
 20
64.71290810342155
 30
0.0
 11
30.9416027391409
 21
64.71290810342155
 31
0.0
  0
LINE
  5
21E
330
71
100
AcDbEntity
  8
Verdeckte Kanten(Laser)
 48
3.422835111618041
100
AcDbLine
 10
51.29049779401583
 20
64.71290810342155
 30
0.0
 11
47.28605026657835
 21
64.71290810342155
 31
0.0
  0
LINE
  5
21F
330
71
100
AcDbEntity
  8
Verdeckte Kanten(Laser)
 48
3.422835111618041
100
AcDbLine
 10
47.28605026657835
 20
68.71290810342157
 30
0.0
 11
51.29049779401583
 21
68.71290810342157
 31
0.0
  0
LINE
  5
220
330
71
100
AcDbEntity
  8
Verdeckte Kanten(Laser)
 48
3.594240188598632
100
AcDbLine
 10
30.9416027391409
 20
68.71290810342157
 30
0.0
 11
47.28605026657835
 21
68.71290810342157
 31
0.0
  0
LINE
  5
221
330
71
100
AcDbEntity
  8
Verdeckte Kanten(Laser)
 48
3.422835111618041
100
AcDbLine
 10
26.93715521170347
 20
68.71290810342157
 30
0.0
 11
30.9416027391409
 21
68.71290810342157
 31
0.0
  0
LINE
  5
222
330
71
100
AcDbEntity
  8
Verdeckte Kanten(Laser)
 48
3.721484184265136
100
AcDbLine
 10
26.93715521170347
 20
64.71290810342155
 30
0.0
 11
26.93715521170347
 21
54.71290810342157
 31
0.0
  0
LINE
  5
223
330
71
100
AcDbEntity
  8
Verdeckte Kanten(Laser)
 48
3.721484184265136
100
AcDbLine
 10
30.9416027391409
 20
64.71290810342155
 30
0.0
 11
30.9416027391409
 21
54.71290810342157
 31
0.0
  0
LINE
  5
224
330
71
100
AcDbEntity
  8
Verdeckte Kanten(Laser)
 48
3.721484184265136
100
AcDbLine
 10
30.9416027391409
 20
78.71290810342157
 30
0.0
 11
30.9416027391409
 21
68.71290810342157
 31
0.0
  0
LINE
  5
225
330
71
100
AcDbEntity
  8
Verdeckte Kanten(Laser)
 48
3.721484184265136
100
AcDbLine
 10
26.93715521170347
 20
78.71290810342157
 30
0.0
 11
26.93715521170347
 21
68.71290810342157
 31
0.0
  0
LINE
  5
226
330
71
100
AcDbEntity
  8
Verdeckte Kanten(Laser)
 48
3.721484184265136
100
AcDbLine
 10
47.28605026657835
 20
64.71290810342155
 30
0.0
 11
47.28605026657835
 21
54.71290810342157
 31
0.0
  0
LINE
  5
227
330
71
100
AcDbEntity
  8
Verdeckte Kanten(Laser)
 48
3.721484184265136
100
AcDbLine
 10
47.28605026657835
 20
78.71290810342157
 30
0.0
 11
47.28605026657835
 21
68.71290810342157
 31
0.0
  0
LINE
  5
228
330
71
100
AcDbEntity
  8
Verdeckte Kanten(Laser)
 48
3.721484184265136
100
AcDbLine
 10
51.29049779401583
 20
64.71290810342155
 30
0.0
 11
51.29049779401583
 21
54.71290810342157
 31
0.0
  0
LINE
  5
229
330
71
100
AcDbEntity
  8
Verdeckte Kanten(Laser)
 48
3.721484184265136
100
AcDbLine
 10
51.29049779401583
 20
78.71290810342157
 30
0.0
 11
51.29049779401583
 21
68.71290810342157
 31
0.0
  0
LINE
  5
22A
330
71
100
AcDbEntity
  8
Sichtbare Kanten(Laser)
100
AcDbLine
 10
24.10715521170343
 20
54.71290810342157
 30
0.0
 11
24.10715521170343
 21
78.71290810342157
 31
0.0
  0
LINE
  5
22B
330
71
100
AcDbEntity
  8
Sichtbare Kanten(Laser)
100
AcDbLine
 10
54.12049779401583
 20
54.71290810342157
 30
0.0
 11
54.12049779401583
 21
78.71290810342157
 31
0.0
  0
LINE
  5
22C
330
71
100
AcDbEntity
  8
Sichtbare Kanten(Laser)
100
AcDbLine
 10
30.11382650285963
 20
54.71290810342157
 30
0.0
 11
24.10715521170343
 21
54.71290810342157
 31
0.0
  0
LINE
  5
22D
330
71
100
AcDbEntity
  8
Sichtbare Kanten(Laser)
100
AcDbLine
 10
48.11382650285963
 20
54.71290810342157
 30
0.0
 11
30.11382650285963
 21
54.71290810342157
 31
0.0
  0
LINE
  5
22E
330
71
100
AcDbEntity
  8
Sichtbare Kanten(Laser)
100
AcDbLine
 10
54.12049779401583
 20
54.71290810342157
 30
0.0
 11
48.11382650285963
 21
54.71290810342157
 31
0.0
  0
LINE
  5
22F
330
71
100
AcDbEntity
  8
Sichtbare Kanten(Laser)
100
AcDbLine
 10
30.11382650285963
 20
53.71290810342157
 30
0.0
 11
30.11382650285963
 21
54.71290810342157
 31
0.0
  0
LINE
  5
230
330
71
100
AcDbEntity
  8
Sichtbare Kanten(Laser)
100
AcDbLine
 10
30.11382650285963
 20
53.71290810342157
 30
0.0
 11
48.11382650285963
 21
53.71290810342157
 31
0.0
  0
LINE
  5
231
330
71
100
AcDbEntity
  8
Sichtbare Kanten(Laser)
100
AcDbLine
 10
48.11382650285963
 20
53.71290810342157
 30
0.0
 11
48.11382650285963
 21
54.71290810342157
 31
0.0
  0
LINE
  5
232
330
71
100
AcDbEntity
  8
Sichtbare Kanten(Laser)
100
AcDbLine
 10
24.10715521170343
 20
53.71290810342157
 30
0.0
 11
24.10715521170343
 21
54.71290810342157
 31
0.0
  0
LINE
  5
233
330
71
100
AcDbEntity
  8
Sichtbare Kanten(Laser)
100
AcDbLine
 10
24.10715521170343
 20
53.71290810342157
 30
0.0
 11
30.11382650285963
 21
53.71290810342157
 31
0.0
  0
LINE
  5
234
330
71
100
AcDbEntity
  8
Sichtbare Kanten(Laser)
100
AcDbLine
 10
48.11382650285963
 20
53.71290810342157
 30
0.0
 11
54.12049779401583
 21
53.71290810342157
 31
0.0
  0
LINE
  5
235
330
71
100
AcDbEntity
  8
Sichtbare Kanten(Laser)
100
AcDbLine
 10
54.12049779401583
 20
53.71290810342157
 30
0.0
 11
54.12049779401583
 21
54.71290810342157
 31
0.0
  0
LINE
  5
236
330
71
100
AcDbEntity
  8
Verdeckte Kanten(Laser)
 48
3.594240188598632
100
AcDbLine
 10
47.28605026657835
 20
68.71290810342157
 30
0.0
 11
30.9416027391409
 21
68.71290810342157
 31
0.0
  0
LINE
  5
237
330
71
100
AcDbEntity
  8
Verdeckte Kanten(Laser)
 48
3.422835111618041
100
AcDbLine
 10
51.29049779401583
 20
68.71290810342157
 30
0.0
 11
47.28605026657835
 21
68.71290810342157
 31
0.0
  0
LINE
  5
238
330
71
100
AcDbEntity
  8
Verdeckte Kanten(Laser)
 48
3.422835111618041
100
AcDbLine
 10
30.9416027391409
 20
68.71290810342157
 30
0.0
 11
26.93715521170347
 21
68.71290810342157
 31
0.0
  0
LINE
  5
239
330
71
100
AcDbEntity
  8
Verdeckte Kanten(Laser)
 48
3.422835111618041
100
AcDbLine
 10
47.28605026657835
 20
64.71290810342157
 30
0.0
 11
51.29049779401583
 21
64.71290810342157
 31
0.0
  0
LINE
  5
23A
330
71
100
AcDbEntity
  8
Verdeckte Kanten(Laser)
 48
3.594240188598632
100
AcDbLine
 10
30.9416027391409
 20
64.71290810342157
 30
0.0
 11
47.28605026657835
 21
64.71290810342157
 31
0.0
  0
LINE
  5
23B
330
71
100
AcDbEntity
  8
Verdeckte Kanten(Laser)
 48
3.422835111618041
100
AcDbLine
 10
26.93715521170347
 20
64.71290810342157
 30
0.0
 11
30.9416027391409
 21
64.71290810342157
 31
0.0
  0
LINE
  5
23C
330
71
100
AcDbEntity
  8
Verdeckte Kanten(Laser)
 48
3.721484184265136
100
AcDbLine
 10
47.28605026657835
 20
68.71290810342157
 30
0.0
 11
47.28605026657835
 21
78.71290810342157
 31
0.0
  0
LINE
  5
23D
330
71
100
AcDbEntity
  8
Verdeckte Kanten(Laser)
 48
3.721484184265136
100
AcDbLine
 10
51.29049779401583
 20
68.71290810342157
 30
0.0
 11
51.29049779401583
 21
78.71290810342157
 31
0.0
  0
LINE
  5
23E
330
71
100
AcDbEntity
  8
Verdeckte Kanten(Laser)
 48
3.721484184265136
100
AcDbLine
 10
30.9416027391409
 20
68.71290810342157
 30
0.0
 11
30.9416027391409
 21
78.71290810342157
 31
0.0
  0
LINE
  5
23F
330
71
100
AcDbEntity
  8
Verdeckte Kanten(Laser)
 48
3.721484184265136
100
AcDbLine
 10
30.9416027391409
 20
54.71290810342157
 30
0.0
 11
30.9416027391409
 21
64.71290810342157
 31
0.0
  0
LINE
  5
240
330
71
100
AcDbEntity
  8
Verdeckte Kanten(Laser)
 48
3.721484184265136
100
AcDbLine
 10
26.93715521170347
 20
54.71290810342157
 30
0.0
 11
26.93715521170347
 21
64.71290810342157
 31
0.0
  0
LINE
  5
241
330
71
100
AcDbEntity
  8
Verdeckte Kanten(Laser)
 48
3.721484184265136
100
AcDbLine
 10
26.93715521170347
 20
68.71290810342157
 30
0.0
 11
26.93715521170347
 21
78.71290810342157
 31
0.0
  0
LINE
  5
242
330
71
100
AcDbEntity
  8
Verdeckte Kanten(Laser)
 48
3.721484184265136
100
AcDbLine
 10
47.28605026657835
 20
54.71290810342157
 30
0.0
 11
47.28605026657835
 21
64.71290810342157
 31
0.0
  0
LINE
  5
243
330
71
100
AcDbEntity
  8
Verdeckte Kanten(Laser)
 48
3.721484184265136
100
AcDbLine
 10
51.29049779401583
 20
54.71290810342157
 30
0.0
 11
51.29049779401583
 21
64.71290810342157
 31
0.0
  0
LINE
  5
244
330
71
100
AcDbEntity
  8
Sichtbare Kanten(Laser)
100
AcDbLine
 10
48.11382650285963
 20
78.71290810342157
 30
0.0
 11
30.11382650285963
 21
78.71290810342157
 31
0.0
  0
LINE
  5
245
330
71
100
AcDbEntity
  8
Sichtbare Kanten(Laser)
100
AcDbLine
 10
30.11382650285963
 20
54.71290810342157
 30
0.0
 11
30.11382650285963
 21
78.71290810342157
 31
0.0
  0
LINE
  5
246
330
71
100
AcDbEntity
  8
Sichtbare Kanten(Laser)
100
AcDbLine
 10
30.11382650285963
 20
54.71290810342157
 30
0.0
 11
48.11382650285963
 21
54.71290810342157
 31
0.0
  0
LINE
  5
247
330
71
100
AcDbEntity
  8
Sichtbare Kanten(Laser)
100
AcDbLine
 10
48.11382650285963
 20
54.71290810342157
 30
0.0
 11
48.11382650285963
 21
78.71290810342157
 31
0.0
  0
LINE
  5
248
330
71
100
AcDbEntity
  8
Sichtbare Kanten(Laser)
100
AcDbLine
 10
30.11382650285963
 20
78.71290810342157
 30
0.0
 11
24.10715521170343
 21
78.71290810342157
 31
0.0
  0
LINE
  5
249
330
71
100
AcDbEntity
  8
Sichtbare Kanten(Laser)
100
AcDbLine
 10
24.10715521170343
 20
54.71290810342157
 30
0.0
 11
24.10715521170343
 21
78.71290810342157
 31
0.0
  0
LINE
  5
24A
330
71
100
AcDbEntity
  8
Sichtbare Kanten(Laser)
100
AcDbLine
 10
24.10715521170343
 20
54.71290810342157
 30
0.0
 11
30.11382650285963
 21
54.71290810342157
 31
0.0
  0
LINE
  5
24B
330
71
100
AcDbEntity
  8
Sichtbare Kanten(Laser)
100
AcDbLine
 10
54.12049779401582
 20
54.71290810342157
 30
0.0
 11
54.12049779401582
 21
78.71290810342157
 31
0.0
  0
LINE
  5
24C
330
71
100
AcDbEntity
  8
Sichtbare Kanten(Laser)
100
AcDbLine
 10
54.12049779401582
 20
78.71290810342157
 30
0.0
 11
48.11382650285963
 21
78.71290810342157
 31
0.0
  0
LINE
  5
24D
330
71
100
AcDbEntity
  8
Sichtbare Kanten(Laser)
100
AcDbLine
 10
48.11382650285963
 20
54.71290810342157
 30
0.0
 11
54.12049779401582
 21
54.71290810342157
 31
0.0
  0
LINE
  5
24E
330
71
100
AcDbEntity
  8
Verdeckte Kanten(Laser)
 48
3.870343446731567
100
AcDbLine
 10
29.61382650285962
 20
64.71290810342157
 30
0.0
 11
29.61382650285962
 21
68.71290810342157
 31
0.0
  0
LINE
  5
24F
330
71
100
AcDbEntity
  8
Verdeckte Kanten(Laser)
 48
3.870343446731567
100
AcDbLine
 10
31.61382650285962
 20
64.71290810342157
 30
0.0
 11
31.61382650285962
 21
68.71290810342157
 31
0.0
  0
LINE
  5
250
330
71
100
AcDbEntity
  8
Verdeckte Kanten(Laser)
 48
3.870343446731567
100
AcDbLine
 10
38.11382650285962
 20
64.71290810342157
 30
0.0
 11
38.11382650285962
 21
68.71290810342157
 31
0.0
  0
LINE
  5
251
330
71
100
AcDbEntity
  8
Verdeckte Kanten(Laser)
 48
3.870343446731567
100
AcDbLine
 10
40.11382650285962
 20
64.71290810342157
 30
0.0
 11
40.11382650285962
 21
68.71290810342157
 31
0.0
  0
LINE
  5
252
330
71
100
AcDbEntity
  8
Verdeckte Kanten(Laser)
 48
3.870343446731567
100
AcDbLine
 10
46.61382650285962
 20
64.71290810342157
 30
0.0
 11
46.61382650285962
 21
68.71290810342157
 31
0.0
  0
LINE
  5
253
330
71
100
AcDbEntity
  8
Verdeckte Kanten(Laser)
 48
3.870343446731567
100
AcDbLine
 10
48.61382650285962
 20
64.71290810342157
 30
0.0
 11
48.61382650285962
 21
68.71290810342157
 31
0.0
  0
LINE
  5
254
330
71
100
AcDbEntity
  8
Sichtbare Kanten(Laser)
100
AcDbLine
 10
114.6013299517877
 20
80.96363562706592
 30
0.0
 11
112.7618405129271
 21
79.30498246120404
 31
0.0
  0
LINE
  5
255
330
71
100
AcDbEntity
  8
Sichtbare Kanten(Laser)
100
AcDbLine
 10
112.7618405129271
 20
79.30498246120404
 30
0.0
 11
119.7175200585441
 21
72.63257601451059
 31
0.0
  0
LINE
  5
256
330
71
100
AcDbEntity
  8
Sichtbare Kanten(Laser)
100
AcDbLine
 10
119.7175200585441
 20
72.63257601451059
 30
0.0
 11
124.9653417412857
 21
71.02170276136496
 31
0.0
  0
LINE
  5
257
330
71
100
AcDbEntity
  8
Sichtbare Kanten(Laser)
100
AcDbLine
 10
113.3969715248019
 20
82.11894602911186
 30
0.0
 11
114.6013299517877
 21
80.96363562706592
 31
0.0
  0
LINE
  5
258
330
71
100
AcDbEntity
  8
Sichtbare Kanten(Laser)
100
AcDbLine
 10
121.7411857470699
 20
47.95783661618793
 30
0.0
 11
126.1697001682715
 21
69.86639235931902
 31
0.0
  0
LINE
  5
259
330
71
100
AcDbEntity
  8
Sichtbare Kanten(Laser)
100
AcDbLine
 10
124.9653417412857
 20
71.02170276136496
 30
0.0
 11
126.1697001682715
 21
69.86639235931902
 31
0.0
  0
LINE
  5
25A
330
71
100
AcDbEntity
  8
Sichtbare Kanten(Laser)
100
AcDbLine
 10
113.8694532229574
 20
50.37414649590637
 30
0.0
 11
106.2092229453094
 21
57.72241053718794
 31
0.0
  0
LINE
  5
25B
330
71
100
AcDbEntity
  8
Sichtbare Kanten(Laser)
100
AcDbLine
 10
121.7411857470699
 20
47.95783661618793
 30
0.0
 11
113.8694532229574
 21
50.37414649590637
 31
0.0
  0
LINE
  5
25C
330
71
100
AcDbEntity
  8
Sichtbare Kanten(Laser)
100
AcDbLine
 10
129.7133557290726
 20
69.89028231567717
 30
0.0
 11
126.1697001682715
 21
69.86639235931902
 31
0.0
  0
LINE
  5
25D
330
71
100
AcDbEntity
  8
Sichtbare Kanten(Laser)
100
AcDbLine
 10
116.940627085603
 20
82.14283598547
 30
0.0
 11
129.7133557290726
 21
69.89028231567717
 31
0.0
  0
LINE
  5
25E
330
71
100
AcDbEntity
  8
Sichtbare Kanten(Laser)
100
AcDbLine
 10
113.3969715248019
 20
82.11894602911186
 30
0.0
 11
116.940627085603
 21
82.14283598547
 31
0.0
  0
LINE
  5
25F
330
71
100
AcDbEntity
  8
Sichtbare Kanten(Laser)
100
AcDbLine
 10
106.0247015110926
 20
56.80955404789081
 30
0.0
 11
106.2092229453094
 21
57.72241053718794
 31
0.0
  0
LINE
  5
260
330
71
100
AcDbEntity
  8
Sichtbare Kanten(Laser)
100
AcDbLine
 10
106.0247015110926
 20
56.80955404789081
 30
0.0
 11
113.6849317887407
 21
49.46129000660924
 31
0.0
  0
LINE
  5
261
330
71
100
AcDbEntity
  8
Sichtbare Kanten(Laser)
100
AcDbLine
 10
113.6849317887407
 20
49.46129000660924
 30
0.0
 11
113.8694532229574
 21
50.37414649590637
 31
0.0
  0
LINE
  5
262
330
71
100
AcDbEntity
  8
Sichtbare Kanten(Laser)
100
AcDbLine
 10
113.6849317887407
 20
49.46129000660924
 30
0.0
 11
121.5566643128531
 21
47.0449801268908
 31
0.0
  0
LINE
  5
263
330
71
100
AcDbEntity
  8
Sichtbare Kanten(Laser)
100
AcDbLine
 10
121.5566643128531
 20
47.0449801268908
 30
0.0
 11
121.7411857470699
 21
47.95783661618793
 31
0.0
  0
LINE
  5
264
330
71
100
AcDbEntity
  8
Sichtbare Kanten(Laser)
100
AcDbLine
 10
125.1003198736543
 20
47.06887008324894
 30
0.0
 11
129.7133557290726
 21
69.89028231567717
 31
0.0
  0
LINE
  5
265
330
71
100
AcDbEntity
  8
Sichtbare Kanten(Laser)
100
AcDbLine
 10
121.5566643128531
 20
47.0449801268908
 30
0.0
 11
125.1003198736543
 21
47.06887008324894
 31
0.0
  0
LINE
  5
266
330
71
100
AcDbEntity
  8
Sichtbare Kanten(Laser)
100
AcDbLine
 10
119.7175200585441
 20
72.63257601451059
 30
0.0
 11
124.9653417412857
 21
71.02170276136496
 31
0.0
  0
LINE
  5
267
330
71
100
AcDbEntity
  8
Sichtbare Kanten(Laser)
100
AcDbLine
 10
112.7618405129271
 20
79.30498246120404
 30
0.0
 11
119.7175200585441
 21
72.63257601451059
 31
0.0
  0
LINE
  5
268
330
71
100
AcDbEntity
  8
Sichtbare Kanten(Laser)
100
AcDbLine
 10
118.297967644159
 20
72.28270223903746
 30
0.0
 11
110.637737366511
 21
79.63096628031903
 31
0.0
  0
LINE
  5
269
330
71
100
AcDbEntity
  8
Sichtbare Kanten(Laser)
100
AcDbLine
 10
106.2092229453094
 20
57.72241053718794
 30
0.0
 11
110.637737366511
 21
79.63096628031903
 31
0.0
  0
LINE
  5
26A
330
71
100
AcDbEntity
  8
Sichtbare Kanten(Laser)
100
AcDbLine
 10
106.2092229453094
 20
57.72241053718794
 30
0.0
 11
113.8694532229574
 21
50.37414649590637
 31
0.0
  0
LINE
  5
26B
330
71
100
AcDbEntity
  8
Sichtbare Kanten(Laser)
100
AcDbLine
 10
113.8694532229574
 20
50.37414649590637
 30
0.0
 11
118.297967644159
 21
72.28270223903746
 31
0.0
  0
LINE
  5
26C
330
71
100
AcDbEntity
  8
Sichtbare Kanten(Laser)
100
AcDbLine
 10
110.637737366511
 20
79.63096628031903
 30
0.0
 11
113.3969715248019
 21
82.11894602911186
 31
0.0
  0
LINE
  5
26D
330
71
100
AcDbEntity
  8
Sichtbare Kanten(Laser)
100
AcDbLine
 10
114.6013299517877
 20
80.9636356270659
 30
0.0
 11
112.7618405129271
 21
79.30498246120404
 31
0.0
  0
LINE
  5
26E
330
71
100
AcDbEntity
  8
Sichtbare Kanten(Laser)
100
AcDbLine
 10
124.9653417412857
 20
71.02170276136496
 30
0.0
 11
126.1697001682715
 21
69.86639235931903
 31
0.0
  0
LINE
  5
26F
330
71
100
AcDbEntity
  8
Sichtbare Kanten(Laser)
100
AcDbLine
 10
121.7411857470699
 20
47.95783661618793
 30
0.0
 11
126.1697001682715
 21
69.86639235931903
 31
0.0
  0
LINE
  5
270
330
71
100
AcDbEntity
  8
Sichtbare Kanten(Laser)
100
AcDbLine
 10
113.3969715248019
 20
82.11894602911186
 30
0.0
 11
114.6013299517877
 21
80.9636356270659
 31
0.0
  0
LINE
  5
271
330
71
100
AcDbEntity
  8
Sichtbare Kanten(Laser)
100
AcDbLine
 10
126.1697001682715
 20
69.86639235931903
 30
0.0
 11
118.297967644159
 21
72.28270223903746
 31
0.0
  0
LINE
  5
272
330
71
100
AcDbEntity
  8
Sichtbare Kanten(Laser)
100
AcDbLine
 10
113.8694532229574
 20
50.37414649590637
 30
0.0
 11
121.7411857470699
 21
47.95783661618793
 31
0.0
  0
LINE
  5
273
330
71
100
AcDbEntity
  8
Mittellinie(Laser)
  6
CHAIN
 48
7.778401851654052
100
AcDbLine
 10
47.61382650285963
 20
63.21290810342156
 30
0.0
 11
47.61382650285963
 21
70.21290810342157
 31
0.0
  0
LINE
  5
274
330
71
100
AcDbEntity
  8
Mittellinie(Laser)
  6
CHAIN
 48
21.16850090026856
100
AcDbLine
 10
39.11382650285963
 20
52.62976745743856
 30
0.0
 11
39.11382650285963
 21
79.60947476753395
 31
0.0
  0
LINE
  5
275
330
71
100
AcDbEntity
  8
Mittellinie(Laser)
  6
CHAIN
 48
7.778401851654052
100
AcDbLine
 10
30.61382650285962
 20
63.21290810342156
 30
0.0
 11
30.61382650285962
 21
70.21290810342157
 31
0.0
  0
LINE
  5
276
330
71
100
AcDbEntity
  8
Verdeckte Kanten(Laser)
 48
3.681867122650146
100
AcDbLine
 10
51.2904977940066
 20
41.12519313887927
 30
0.0
 11
26.93715521169425
 21
41.12519313887926
 31
0.0
  0
LINE
  5
277
330
71
100
AcDbEntity
  8
Sichtbare Kanten(Laser)
100
AcDbLine
 10
26.93715521169425
 20
41.12519313888222
 30
0.0
 11
30.94160273913168
 21
37.12519313888224
 31
0.0
  0
LINE
  5
278
330
71
100
AcDbEntity
  8
Sichtbare Kanten(Laser)
100
AcDbLine
 10
30.94160273913168
 20
37.12519313888224
 30
0.0
 11
47.28605026656913
 21
37.12519313888224
 31
0.0
  0
LINE
  5
279
330
71
100
AcDbEntity
  8
Sichtbare Kanten(Laser)
100
AcDbLine
 10
47.28605026656913
 20
37.12519313888224
 30
0.0
 11
51.2904977940066
 21
41.12519313888223
 31
0.0
  0
LINE
  5
27A
330
71
100
AcDbEntity
  8
Sichtbare Kanten(Laser)
100
AcDbLine
 10
24.10715521169422
 20
41.12519313888224
 30
0.0
 11
26.93715521169425
 21
41.12519313888222
 31
0.0
  0
LINE
  5
27B
330
71
100
AcDbEntity
  8
Sichtbare Kanten(Laser)
100
AcDbLine
 10
51.2904977940066
 20
41.12519313888223
 30
0.0
 11
54.12049779400661
 21
41.12519313888223
 31
0.0
  0
LINE
  5
27C
330
71
100
AcDbEntity
  8
Sichtbare Kanten(Laser)
100
AcDbLine
 10
54.12049779400661
 20
45.12519313888224
 30
0.0
 11
54.12049779400661
 21
41.12519313888223
 31
0.0
  0
LINE
  5
27D
330
71
100
AcDbEntity
  8
Sichtbare Kanten(Laser)
100
AcDbLine
 10
24.1071552116942
 20
45.12519313888225
 30
0.0
 11
54.12049779400661
 21
45.12519313888224
 31
0.0
  0
LINE
  5
27E
330
71
100
AcDbEntity
  8
Sichtbare Kanten(Laser)
100
AcDbLine
 10
24.10715521169422
 20
41.12519313888224
 30
0.0
 11
24.1071552116942
 21
45.12519313888225
 31
0.0
  0
CIRCLE
  5
27F
330
71
100
AcDbEntity
  8
Verdeckte Kanten(Laser)
 48
3.799700736999511
100
AcDbCircle
 10
30.6138265028504
 20
39.12519313887927
 30
0.0
 40
1.0
  0
CIRCLE
  5
280
330
71
100
AcDbEntity
  8
Verdeckte Kanten(Laser)
 48
3.799700736999511
100
AcDbCircle
 10
39.1138265028504
 20
39.12519313887927
 30
0.0
 40
1.0
  0
CIRCLE
  5
281
330
71
100
AcDbEntity
  8
Verdeckte Kanten(Laser)
 48
3.799700736999511
100
AcDbCircle
 10
47.6138265028504
 20
39.12519313887928
 30
0.0
 40
1.0
  0
LINE
  5
282
330
71
100
AcDbEntity
  8
Verdeckte Kanten(Laser)
 48
3.681867122650146
100
AcDbLine
 10
26.93715521169424
 20
41.12519313887926
 30
0.0
 11
51.29049779400659
 21
41.12519313887928
 31
0.0
  0
LINE
  5
283
330
71
100
AcDbEntity
  8
Sichtbare Kanten(Laser)
100
AcDbLine
 10
47.28605026656913
 20
37.12519313888225
 30
0.0
 11
51.29049779400659
 21
41.12519313888224
 31
0.0
  0
LINE
  5
284
330
71
100
AcDbEntity
  8
Sichtbare Kanten(Laser)
100
AcDbLine
 10
30.94160273913168
 20
37.12519313888225
 30
0.0
 11
47.28605026656913
 21
37.12519313888225
 31
0.0
  0
LINE
  5
285
330
71
100
AcDbEntity
  8
Sichtbare Kanten(Laser)
100
AcDbLine
 10
48.1138265028504
 20
35.12519313888225
 30
0.0
 11
30.1138265028504
 21
35.12519313888225
 31
0.0
  0
LINE
  5
286
330
71
100
AcDbEntity
  8
Sichtbare Kanten(Laser)
100
AcDbLine
 10
30.1138265028504
 20
35.12519313888225
 30
0.0
 11
24.10715521169422
 21
41.12519313888224
 31
0.0
  0
LINE
  5
287
330
71
100
AcDbEntity
  8
Sichtbare Kanten(Laser)
100
AcDbLine
 10
26.93715521169424
 20
41.12519313888222
 30
0.0
 11
30.94160273913168
 21
37.12519313888225
 31
0.0
  0
LINE
  5
288
330
71
100
AcDbEntity
  8
Sichtbare Kanten(Laser)
100
AcDbLine
 10
51.29049779400659
 20
41.12519313888224
 30
0.0
 11
54.12049779400661
 21
41.12519313888224
 31
0.0
  0
LINE
  5
289
330
71
100
AcDbEntity
  8
Sichtbare Kanten(Laser)
100
AcDbLine
 10
24.10715521169422
 20
41.12519313888224
 30
0.0
 11
26.93715521169424
 21
41.12519313888222
 31
0.0
  0
LINE
  5
28A
330
71
100
AcDbEntity
  8
Sichtbare Kanten(Laser)
100
AcDbLine
 10
54.12049779400661
 20
41.12519313888224
 30
0.0
 11
48.1138265028504
 21
35.12519313888225
 31
0.0
  0
DIMENSION
  5
28B
330
71
100
AcDbEntity
  8
Bemaßungen(Laser)
  6
Continuous
 62
     7
370
    25
100
AcDbDimension
  2
*D11
 10
14.67265707502062
 20
78.71290810342157
 30
0.0
 11
14.6726570750206
 21
66.21290810342157
 31
0.0
 70
   160
  1
<>
 42
25.0
  3
DIN - Andere-Laser
100
AcDbAlignedDimension
 13
24.10715521170343
 23
53.71290810342157
 33
0.0
 14
24.10715521170343
 24
78.71290810342157
 34
0.0
 50
90.0
100
AcDbRotatedDimension
1001
ACAD
1000
DSTYLE
1002
{
1070
   172
1070
     0
1070
   289
1070
     1
1070
   271
1070
     1
1070
   272
1070
     2
1070
    48
1040
0.0
1070
    47
1040
0.0
1002
}
  0
DIMENSION
  5
362
330
71
100
AcDbEntity
  8
Bemaßungen(Laser)
  6
Continuous
 62
     7
370
    25
100
AcDbDimension
  2
*D12
 10
19.01875572359602
 20
54.71290810342157
 30
0.0
 11
19.01875572359602
 21
57.84312638579845
 31
0.0
 70
   160
  1
<>
  3
DIN - Andere-Laser
100
AcDbAlignedDimension
 13
24.10715521170343
 23
53.71290810342157
 33
0.0
 14
24.10715521170343
 24
54.71290810342157
 34
0.0
 50
90.0
100
AcDbRotatedDimension
1001
ACAD
1000
DSTYLE
1002
{
1070
   172
1070
     1
1070
   289
1070
     1
1070
   271
1070
     1
1070
   272
1070
     2
1070
    48
1040
0.0
1070
    47
1040
0.0
1002
}
  0
DIMENSION
  5
462
330
71
100
AcDbEntity
  8
Bemaßungen(Laser)
  6
Continuous
 62
     7
370
    25
100
AcDbDimension
  2
*D13
 10
54.12049779401582
 20
85.49409534416277
 30
0.0
 11
39.11382650285963
 21
85.49409534416277
 31
0.0
 70
   160
  1
<>
 42
30.01334258231239
  3
DIN - Andere-Laser
100
AcDbAlignedDimension
 13
24.10715521170343
 23
78.71290810342157
 33
0.0
 14
54.12049779401582
 24
78.71290810342157
 34
0.0
 50
180.0
100
AcDbRotatedDimension
1001
ACAD
1000
DSTYLE
1002
{
1070
   172
1070
     0
1070
   289
1070
     1
1070
   271
1070
     1
1070
   272
1070
     2
1070
    48
1040
0.0
1070
    47
1040
0.0
1002
}
  0
INSERT
  5
558
330
71
100
AcDbEntity
  8
Schnittansichtslinien(Laser)
100
AcDbBlockReference
  2
2DTransSchnitt0
 10
0.0
 20
0.0
 30
0.0
 41
0.5
 42
0.5
 43
0.5
  0
LINE
  5
559
330
71
100
AcDbEntity
  8
Sichtbare Kanten(Laser)
100
AcDbLine
 10
74.29367340042567
 20
68.71290810342157
 30
0.0
 11
78.29367340042566
 21
68.71290810342157
 31
0.0
  0
LINE
  5
55A
330
71
100
AcDbEntity
  8
Sichtbare Kanten(Laser)
100
AcDbLine
 10
78.29367340042566
 20
68.71290810342157
 30
0.0
 11
78.29367340042566
 21
78.71290810342157
 31
0.0
  0
LINE
  5
55B
330
71
100
AcDbEntity
  8
Sichtbare Kanten(Laser)
100
AcDbLine
 10
78.29367340042566
 20
78.71290810342157
 30
0.0
 11
70.29367340042566
 21
78.71290810342157
 31
0.0
  0
LINE
  5
55C
330
71
100
AcDbEntity
  8
Sichtbare Kanten(Laser)
100
AcDbLine
 10
70.29367340042566
 20
78.71290810342157
 30
0.0
 11
70.29367340042568
 21
53.71290810342157
 31
0.0
  0
LINE
  5
55D
330
71
100
AcDbEntity
  8
Sichtbare Kanten(Laser)
100
AcDbLine
 10
70.29367340042568
 20
53.71290810342157
 30
0.0
 11
80.29367340042567
 21
53.71290810342157
 31
0.0
  0
LINE
  5
55E
330
71
100
AcDbEntity
  8
Sichtbare Kanten(Laser)
100
AcDbLine
 10
80.29367340042567
 20
53.71290810342157
 30
0.0
 11
80.29367340042567
 21
54.71290810342157
 31
0.0
  0
LINE
  5
55F
330
71
100
AcDbEntity
  8
Sichtbare Kanten(Laser)
100
AcDbLine
 10
80.29367340042567
 20
54.71290810342157
 30
0.0
 11
78.29367340042567
 21
54.71290810342157
 31
0.0
  0
LINE
  5
560
330
71
100
AcDbEntity
  8
Sichtbare Kanten(Laser)
100
AcDbLine
 10
78.29367340042567
 20
54.71290810342157
 30
0.0
 11
78.29367340042567
 21
64.71290810342155
 31
0.0
  0
LINE
  5
561
330
71
100
AcDbEntity
  8
Sichtbare Kanten(Laser)
100
AcDbLine
 10
78.29367340042567
 20
64.71290810342155
 30
0.0
 11
74.29367340042567
 21
64.71290810342155
 31
0.0
  0
LINE
  5
562
330
71
100
AcDbEntity
  8
Sichtbare Kanten(Laser)
100
AcDbLine
 10
74.29367340042567
 20
64.71290810342155
 30
0.0
 11
74.29367340042567
 21
68.71290810342157
 31
0.0
  0
LINE
  5
563
330
71
100
AcDbEntity
  8
Verdeckte Kanten(Laser)
 48
3.422835111618041
100
AcDbLine
 10
74.29367340042567
 20
54.71290810342157
 30
0.0
 11
78.29367340042567
 21
54.71290810342157
 31
0.0
  0
LINE
  5
564
330
71
100
AcDbEntity
  8
Verdeckte Kanten(Laser)
 48
3.721484184265136
100
AcDbLine
 10
74.29367340042566
 20
64.71290810342155
 30
0.0
 11
74.29367340042567
 21
54.71290810342157
 31
0.0
  0
LINE
  5
565
330
71
100
AcDbEntity
  8
Verdeckte Kanten(Laser)
 48
3.721484184265136
100
AcDbLine
 10
74.29367340042566
 20
78.71290810342157
 30
0.0
 11
74.29367340042566
 21
68.71290810342157
 31
0.0
  0
LINE
  5
566
330
71
100
AcDbEntity
  8
Verdeckte Kanten(Laser)
 48
1.904646635055541
100
AcDbLine
 10
74.29367340042567
 20
53.71290810342157
 30
0.0
 11
74.29367340042567
 21
54.71290810342157
 31
0.0
  0
LINE
  5
567
330
71
100
AcDbEntity
  8
Sichtbare Kanten(Laser)
100
AcDbLine
 10
80.29367340042567
 20
54.71290810342157
 30
0.0
 11
80.29367340042567
 21
78.71290810342157
 31
0.0
  0
LINE
  5
568
330
71
100
AcDbEntity
  8
Sichtbare Kanten(Laser)
100
AcDbLine
 10
80.29367340042567
 20
78.71290810342157
 30
0.0
 11
78.29367340042566
 21
78.71290810342157
 31
0.0
  0
LINE
  5
569
330
71
100
AcDbEntity
  8
Sichtbare Kanten(Laser)
100
AcDbLine
 10
78.29367340042566
 20
78.71290810342157
 30
0.0
 11
78.29367340042567
 21
68.71290810342157
 31
0.0
  0
LINE
  5
56A
330
71
100
AcDbEntity
  8
Sichtbare Kanten(Laser)
100
AcDbLine
 10
78.29367340042567
 20
68.71290810342157
 30
0.0
 11
77.29367340042568
 21
68.71290810342157
 31
0.0
  0
LINE
  5
56B
330
71
100
AcDbEntity
  8
Sichtbare Kanten(Laser)
100
AcDbLine
 10
77.29367340042568
 20
68.71290810342157
 30
0.0
 11
77.29367340042569
 21
64.71290810342157
 31
0.0
  0
LINE
  5
56C
330
71
100
AcDbEntity
  8
Sichtbare Kanten(Laser)
100
AcDbLine
 10
77.29367340042569
 20
64.71290810342157
 30
0.0
 11
78.29367340042567
 21
64.71290810342157
 31
0.0
  0
LINE
  5
56D
330
71
100
AcDbEntity
  8
Sichtbare Kanten(Laser)
100
AcDbLine
 10
78.29367340042567
 20
64.71290810342157
 30
0.0
 11
78.29367340042567
 21
54.71290810342157
 31
0.0
  0
LINE
  5
56E
330
71
100
AcDbEntity
  8
Sichtbare Kanten(Laser)
100
AcDbLine
 10
78.29367340042567
 20
54.71290810342157
 30
0.0
 11
80.29367340042567
 21
54.71290810342157
 31
0.0
  0
LINE
  5
56F
330
71
100
AcDbEntity
  8
Sichtbare Kanten(Laser)
100
AcDbLine
 10
75.29367340042568
 20
64.71290810342157
 30
0.0
 11
75.29367340042568
 21
68.71290810342157
 31
0.0
  0
LINE
  5
570
330
71
100
AcDbEntity
  8
Sichtbare Kanten(Laser)
100
AcDbLine
 10
75.29367340042568
 20
68.71290810342157
 30
0.0
 11
74.29367340042567
 21
68.71290810342157
 31
0.0
  0
LINE
  5
571
330
71
100
AcDbEntity
  8
Sichtbare Kanten(Laser)
100
AcDbLine
 10
74.29367340042567
 20
68.71290810342157
 30
0.0
 11
74.29367340042567
 21
64.71290810342157
 31
0.0
  0
LINE
  5
572
330
71
100
AcDbEntity
  8
Sichtbare Kanten(Laser)
100
AcDbLine
 10
74.29367340042567
 20
64.71290810342157
 30
0.0
 11
75.29367340042568
 21
64.71290810342157
 31
0.0
  0
LINE
  5
573
330
71
100
AcDbEntity
  8
Verdeckte Kanten(Laser)
 48
3.721484184265136
100
AcDbLine
 10
74.29367340042566
 20
68.71290810342157
 30
0.0
 11
74.29367340042566
 21
78.71290810342157
 31
0.0
  0
LINE
  5
574
330
71
100
AcDbEntity
  8
Verdeckte Kanten(Laser)
 48
3.721484184265136
100
AcDbLine
 10
74.29367340042567
 20
54.71290810342157
 30
0.0
 11
74.29367340042567
 21
64.71290810342157
 31
0.0
  0
LINE
  5
575
330
71
100
AcDbEntity
  8
Verdeckte Kanten(Laser)
 48
3.422835111618041
100
AcDbLine
 10
74.29367340042567
 20
54.71290810342157
 30
0.0
 11
78.29367340042567
 21
54.71290810342157
 31
0.0
  0
MTEXT
  5
576
330
71
100
AcDbEntity
  8
Symbole(Laser)
 62
     7
100
AcDbMText
 10
68.5966950831143
 20
88.65337370960675
 30
0.0
 40
1.875
 41
0.0
 71
     7
 72
     1
  1
A-A ( 2 : 1 )
  7
Aktuell-DIN-LaserGroßer Text
 73
     1
 44
1.0
  0
HATCH
  5
585
330
71
100
AcDbEntity
  8
Schraffur
100
AcDbHatch
 10
0.0
 20
0.0
 30
0.0
210
0.0
220
0.0
230
1.0
  2
ANSI31
 70
     0
 71
     0
 91
        1
 92
        1
 93
       14
 72
     1
 10
74.29367340042567
 20
68.71290810342157
 11
75.29367340042566
 21
68.71290810342157
 72
     1
 10
75.29367340042568
 20
68.71290810342157
 11
77.29367340042569
 21
68.71290810342157
 72
     1
 10
77.29367340042569
 20
68.71290810342157
 11
78.29367340042567
 21
68.71290810342157
 72
     1
 10
78.29367340042567
 20
68.71290810342157
 11
78.29367340042567
 21
78.71290810342158
 72
     1
 10
78.29367340042567
 20
78.71290810342157
 11
70.29367340042568
 21
78.71290810342157
 72
     1
 10
70.29367340042568
 20
78.71290810342157
 11
70.29367340042568
 21
53.71290810342157
 72
     1
 10
70.29367340042568
 20
53.71290810342157
 11
80.29367340042567
 21
53.71290810342157
 72
     1
 10
80.29367340042567
 20
53.71290810342157
 11
80.29367340042567
 21
54.71290810342157
 72
     1
 10
80.29367340042567
 20
54.71290810342157
 11
78.29367340042567
 21
54.71290810342157
 72
     1
 10
78.29367340042567
 20
54.71290810342157
 11
78.29367340042567
 21
64.71290810342157
 72
     1
 10
78.29367340042567
 20
64.71290810342157
 11
77.29367340042569
 21
64.71290810342157
 72
     1
 10
77.29367340042569
 20
64.71290810342157
 11
75.29367340042568
 21
64.71290810342157
 72
     1
 10
75.29367340042568
 20
64.71290810342157
 11
74.29367340042569
 21
64.71290810342157
 72
     1
 10
74.29367340042569
 20
64.71290810342157
 11
74.29367340042569
 21
68.71290810342157
 97
        0
 75
     0
 76
     1
 52
0.0
 41
2.54
 77
     0
 78
     1
 53
45.0
 43
0.0
 44
0.0
 45
-0.2245064030267288
 46
0.2245064030267288
 79
     0
 98
        1
 10
75.29367340042568
 20
66.21290810342157
  0
HATCH
  5
592
330
71
100
AcDbEntity
  8
Schraffur
100
AcDbHatch
 10
0.0
 20
0.0
 30
0.0
210
0.0
220
0.0
230
1.0
  2
ANSI31
 70
     0
 71
     0
 91
        2
 92
        1
 93
        4
 72
     1
 10
75.29367340042568
 20
64.71290810342157
 11
75.29367340042568
 21
68.71290810342157
 72
     1
 10
75.29367340042568
 20
68.71290810342157
 11
74.29367340042569
 21
68.71290810342157
 72
     1
 10
74.29367340042567
 20
68.71290810342157
 11
74.29367340042567
 21
64.71290810342157
 72
     1
 10
74.29367340042569
 20
64.71290810342157
 11
75.29367340042568
 21
64.71290810342157
 97
        0
 92
        1
 93
        8
 72
     1
 10
80.29367340042567
 20
54.71290810342157
 11
80.29367340042567
 21
78.71290810342157
 72
     1
 10
80.29367340042567
 20
78.71290810342157
 11
78.29367340042567
 21
78.71290810342157
 72
     1
 10
78.29367340042567
 20
78.71290810342157
 11
78.29367340042567
 21
68.71290810342157
 72
     1
 10
78.29367340042567
 20
68.71290810342157
 11
77.29367340042569
 21
68.71290810342157
 72
     1
 10
77.29367340042569
 20
68.71290810342157
 11
77.29367340042569
 21
64.71290810342157
 72
     1
 10
77.29367340042569
 20
64.71290810342157
 11
78.29367340042567
 21
64.71290810342157
 72
     1
 10
78.29367340042567
 20
64.71290810342157
 11
78.29367340042567
 21
54.71290810342157
 72
     1
 10
78.29367340042567
 20
54.71290810342157
 11
80.29367340042567
 21
54.71290810342157
 97
        0
 75
     0
 76
     1
 52
90.0
 41
1.27
 77
     0
 78
     1
 53
135.0
 43
0.0
 44
0.0
 45
-0.1122532015133644
 46
-0.1122532015133644
 79
     0
 98
        1
 10
75.29367340042568
 20
66.21290810342157
  0
LINE
  5
593
330
71
100
AcDbEntity
  8
Mittellinie(Laser)
  6
CHAIN
 48
7.778401851654052
100
AcDbLine
 10
76.29367340042569
 20
63.21290810342156
 30
0.0
 11
76.29367340042569
 21
70.21290810342157
 31
0.0
  0
INSERT
  5
5A7
330
71
100
AcDbEntity
  8
Symbole(Laser)
100
AcDbBlockReference
  2
Schweißsymbol1
 10
0.0
 20
0.0
 30
0.0
 41
0.5
 42
0.5
 43
0.5
  0
LINE
  5
5A8
330
71
100
AcDbEntity
  8
Mittelpunktmarkierung(Laser)
  6
CHAIN
 48
4.444779872894287
100
AcDbLine
 10
32.6138265028504
 20
39.12519313887926
 30
0.0
 11
28.6138265028504
 21
39.12519313887926
 31
0.0
  0
LINE
  5
5A9
330
71
100
AcDbEntity
  8
Mittelpunktmarkierung(Laser)
  6
CHAIN
 48
4.444779872894287
100
AcDbLine
 10
30.6138265028504
 20
41.12519313887926
 30
0.0
 11
30.6138265028504
 21
37.12519313887926
 31
0.0
  0
LINE
  5
5AA
330
71
100
AcDbEntity
  8
Mittelpunktmarkierung(Laser)
  6
CHAIN
 48
4.444779872894287
100
AcDbLine
 10
41.1138265028504
 20
39.12519313887927
 30
0.0
 11
37.1138265028504
 21
39.12519313887927
 31
0.0
  0
LINE
  5
5AB
330
71
100
AcDbEntity
  8
Mittelpunktmarkierung(Laser)
  6
CHAIN
 48
12.48662567138672
100
AcDbLine
 10
39.11382650285041
 20
45.84000429118439
 30
0.0
 11
39.11382650285041
 21
34.6029700017556
 31
0.0
  0
LINE
  5
5AC
330
71
100
AcDbEntity
  8
Mittelpunktmarkierung(Laser)
  6
CHAIN
 48
4.444779872894287
100
AcDbLine
 10
49.6138265028504
 20
39.12519313887928
 30
0.0
 11
45.6138265028504
 21
39.12519313887928
 31
0.0
  0
LINE
  5
5AD
330
71
100
AcDbEntity
  8
Mittelpunktmarkierung(Laser)
  6
CHAIN
 48
4.444779872894287
100
AcDbLine
 10
47.6138265028504
 20
41.12519313887927
 30
0.0
 11
47.6138265028504
 21
37.12519313887927
 31
0.0
  0
DIMENSION
  5
5AE
330
71
100
AcDbEntity
  8
Bemaßungen(Laser)
  6
Continuous
 62
     7
370
    25
100
AcDbDimension
  2
*D16
 10
20.1071552116942
 20
41.12519313888224
 30
0.0
 11
20.10715521169419
 21
43.12519313888224
 31
0.0
 70
   160
  1
<>
 42
4.000000000000007
  3
DIN - Andere-Laser
100
AcDbAlignedDimension
 13
24.10715521169419
 23
45.12519313888225
 33
0.0
 14
24.10715521169421
 24
41.12519313888224
 34
0.0
 50
90.0
100
AcDbRotatedDimension
1001
ACAD
1000
DSTYLE
1002
{
1070
   172
1070
     0
1070
   289
1070
     1
1070
   271
1070
     1
1070
   272
1070
     2
1070
    48
1040
0.0
1070
    47
1040
0.0
1002
}
  0
DIMENSION
  5
692
330
71
100
AcDbEntity
  8
Bemaßungen(Laser)
  6
Continuous
 62
     7
370
    25
100
AcDbDimension
  2
*D17
 10
30.1138265028504
 20
30.18783006799385
 30
0.0
 11
39.1138265028504
 21
30.18783006799385
 31
0.0
 70
   160
  1
<>
 42
18.0
  3
DIN - Andere-Laser
100
AcDbAlignedDimension
 13
48.1138265028504
 23
35.12519313888224
 33
0.0
 14
30.1138265028504
 24
35.12519313888225
 34
0.0
 50
180.0
100
AcDbRotatedDimension
1001
ACAD
1000
DSTYLE
1002
{
1070
   172
1070
     0
1070
   289
1070
     1
1070
   271
1070
     1
1070
   272
1070
     2
1070
    48
1040
0.0
1070
    47
1040
0.0
1002
}
  0
DIMENSION
  5
768
330
71
100
AcDbEntity
  8
Bemaßungen(Laser)
  6
Continuous
 62
     7
370
    25
100
AcDbDimension
  2
*D18
 10
14.00714782490254
 20
35.12519313888225
 30
0.0
 11
14.00714782490253
 21
40.12519313888225
 31
0.0
 70
   160
  1
<>
 42
10.0
  3
DIN - Andere-Laser
100
AcDbAlignedDimension
 13
24.10715521169419
 23
45.12519313888225
 33
0.0
 14
30.1138265028504
 24
35.12519313888225
 34
0.0
 50
90.0
100
AcDbRotatedDimension
1001
ACAD
1000
DSTYLE
1002
{
1070
   172
1070
     0
1070
   289
1070
     1
1070
   271
1070
     1
1070
   272
1070
     2
1070
    48
1040
0.0
1070
    47
1040
0.0
1002
}
  0
ENDSEC
  0
SECTION
  2
OBJECTS
  0
DICTIONARY
  5
C
330
0
100
AcDbDictionary
281
     1
  3
ACAD_CIP_PREVIOUS_PRODUCT_INFO
350
84D
  3
ACAD_COLOR
350
63
  3
ACAD_DETAILVIEWSTYLE
350
6B
  3
ACAD_GROUP
350
D
  3
ACAD_IMAGE_DICT
350
1C6
  3
ACAD_IMAGE_VARS
350
84A
  3
ACAD_LAYOUT
350
62
  3
ACAD_MATERIAL
350
10
  3
ACAD_MLEADERSTYLE
350
66
  3
ACAD_MLINESTYLE
350
5F
  3
ACAD_PLOTSETTINGS
350
61
  3
ACAD_PLOTSTYLENAME
350
E
  3
ACAD_SCALELIST
350
42
  3
ACAD_SECTIONVIEWSTYLE
350
68
  3
ACAD_TABLESTYLE
350
64
  3
ACAD_VISUALSTYLE
350
29
  3
ACDB_RECOMPOSE_DATA
350
A43
  3
AcDbVariableDictionary
350
8CC
  3
AcmDictionary
350
90D
  3
AMG
350
8F5
  3
AMGSNAPSETTINGS
350
9A7
  0
DICTIONARY
  5
887
330
8
100
AcDbDictionary
280
     1
281
     1
  0
DICTIONARY
  5
99C
330
2
100
AcDbDictionary
280
     1
281
     1
  3
ACAD_LAYERSTATES
360
99D
  0
DICTIONARY
  5
84B
330
71
100
AcDbDictionary
280
     1
281
     1
  3
ACAD_SORTENTS
360
84C
  0
DICTIONARY
  5
996
330
1C2
100
AcDbDictionary
280
     1
281
     1
  0
DICTIONARY
  5
9A1
330
99E
100
AcDbDictionary
280
     1
281
     1
  3
ACAD_SORTENTS
360
9A2
  0
DICTIONARY
  5
8C0
330
1A9
100
AcDbDictionary
280
     1
281
     1
  3
ACAD_MTEXT_2008_RT
360
A7A
  0
DICTIONARY
  5
8C2
330
1B1
100
AcDbDictionary
280
     1
281
     1
  3
ACAD_MTEXT_2008_RT
360
A7B
  0
DICTIONARY
  5
8C4
330
1B5
100
AcDbDictionary
280
     1
281
     1
  3
ACAD_MTEXT_2008_RT
360
A7C
  0
DICTIONARY
  5
977
330
976
100
AcDbDictionary
280
     1
281
     1
  3
ACAD_MTEXT_2008_RT
360
A84
  0
DICTIONARY
  5
97B
330
97A
100
AcDbDictionary
280
     1
281
     1
  3
ACAD_MTEXT_2008_RT
360
A85
  0
DICTIONARY
  5
982
330
981
100
AcDbDictionary
280
     1
281
     1
  3
ACAD_MTEXT_2008_RT
360
A86
  0
DICTIONARY
  5
984
330
983
100
AcDbDictionary
280
     1
281
     1
  3
ACAD_MLATT
360
A32
  3
ACAD_XREC_ROUNDTRIP
360
A31
  0
DICTIONARY
  5
986
330
985
100
AcDbDictionary
280
     1
281
     1
  3
ACAD_MLATT
360
A34
  3
ACAD_XREC_ROUNDTRIP
360
A33
  0
DICTIONARY
  5
988
330
987
100
AcDbDictionary
280
     1
281
     1
  3
ACAD_MLATT
360
A36
  3
ACAD_XREC_ROUNDTRIP
360
A35
  0
DICTIONARY
  5
98A
330
989
100
AcDbDictionary
280
     1
281
     1
  3
ACAD_MLATT
360
A38
  3
ACAD_XREC_ROUNDTRIP
360
A37
  0
DICTIONARY
  5
98C
330
98B
100
AcDbDictionary
280
     1
281
     1
  3
ACAD_MLATT
360
A3A
  3
ACAD_XREC_ROUNDTRIP
360
A39
  0
DICTIONARY
  5
98E
330
98D
100
AcDbDictionary
280
     1
281
     1
  3
ACAD_MLATT
360
A3C
  3
ACAD_XREC_ROUNDTRIP
360
A3B
  0
DICTIONARY
  5
990
330
98F
100
AcDbDictionary
280
     1
281
     1
  3
ACAD_MLATT
360
A3E
  3
ACAD_XREC_ROUNDTRIP
360
A3D
  0
DICTIONARY
  5
992
330
991
100
AcDbDictionary
280
     1
281
     1
  3
ACAD_MLATT
360
A40
  3
ACAD_XREC_ROUNDTRIP
360
A3F
  0
DICTIONARY
  5
994
330
993
100
AcDbDictionary
280
     1
281
     1
  3
ACAD_MLATT
360
A42
  3
ACAD_XREC_ROUNDTRIP
360
A41
  0
IMAGEDEF_REACTOR
  5
9A0
330
99F
100
AcDbRasterImageDefReactor
 90
        2
330
99F
  0
DICTIONARY
  5
86B
330
213
100
AcDbDictionary
280
     1
281
     1
  3
ACAD_MLATT
360
A20
  3
ACAD_XREC_ROUNDTRIP
360
A1F
  0
DICTIONARY
  5
86E
330
214
100
AcDbDictionary
280
     1
281
     1
  3
ACAD_MLATT
360
A22
  3
ACAD_XREC_ROUNDTRIP
360
A21
  0
DICTIONARY
  5
871
330
215
100
AcDbDictionary
280
     1
281
     1
  3
ACAD_MLATT
360
A24
  3
ACAD_XREC_ROUNDTRIP
360
A23
  0
DICTIONARY
  5
874
330
216
100
AcDbDictionary
280
     1
281
     1
  3
ACAD_MLATT
360
A26
  3
ACAD_XREC_ROUNDTRIP
360
A25
  0
DICTIONARY
  5
877
330
217
100
AcDbDictionary
280
     1
281
     1
  3
ACAD_MLATT
360
A28
  3
ACAD_XREC_ROUNDTRIP
360
A27
  0
DICTIONARY
  5
87A
330
218
100
AcDbDictionary
280
     1
281
     1
  3
ACAD_MLATT
360
A2A
  3
ACAD_XREC_ROUNDTRIP
360
A29
  0
DICTIONARY
  5
87D
330
219
100
AcDbDictionary
280
     1
281
     1
  3
ACAD_MLATT
360
A2C
  3
ACAD_XREC_ROUNDTRIP
360
A2B
  0
DICTIONARY
  5
880
330
21A
100
AcDbDictionary
280
     1
281
     1
  3
ACAD_MLATT
360
A2E
  3
ACAD_XREC_ROUNDTRIP
360
A2D
  0
DICTIONARY
  5
883
330
21B
100
AcDbDictionary
280
     1
281
     1
  3
ACAD_MLATT
360
A30
  3
ACAD_XREC_ROUNDTRIP
360
A2F
  0
XRECORD
  5
84D
102
{ACAD_REACTORS
330
C
102
}
330
C
100
AcDbXrecord
280
     1
300
AMECH_PP
300
2013
300
PDSS_F_S
  0
DICTIONARY
  5
63
102
{ACAD_REACTORS
330
C
102
}
330
C
100
AcDbDictionary
281
     1
  0
DICTIONARY
  5
6B
102
{ACAD_REACTORS
330
C
102
}
330
C
100
AcDbDictionary
281
     1
  3
Imperial24
350
6C
  3
Metric50
350
8D9
  0
DICTIONARY
  5
D
102
{ACAD_REACTORS
330
C
102
}
330
C
100
AcDbDictionary
281
     1
  0
DICTIONARY
  5
1C6
102
{ACAD_REACTORS
330
C
102
}
330
C
100
AcDbDictionary
281
     1
  3
Logo Optibelt CMYK
350
9A5
  3
OAImg-4160048
350
1C7
  0
RASTERVARIABLES
  5
84A
102
{ACAD_REACTORS
330
C
102
}
330
C
100
AcDbRasterVariables
 90
        0
 70
     0
 71
     1
 72
     1
  0
DICTIONARY
  5
62
102
{ACAD_REACTORS
330
C
102
}
330
C
100
AcDbDictionary
281
     1
  3
Layout1
350
70
  3
Layout2
350
78
  3
Model
350
74
  0
DICTIONARY
  5
10
102
{ACAD_REACTORS
330
C
102
}
330
C
100
AcDbDictionary
281
     1
  3
ByBlock
350
19
  3
ByLayer
350
11
  3
Global
350
21
  0
DICTIONARY
  5
66
102
{ACAD_REACTORS
330
C
102
}
330
C
100
AcDbDictionary
281
     1
  3
Standard
350
67
  0
DICTIONARY
  5
5F
102
{ACAD_REACTORS
330
C
102
}
330
C
100
AcDbDictionary
281
     1
  3
Standard
350
60
  0
DICTIONARY
  5
61
102
{ACAD_REACTORS
330
C
102
}
330
C
100
AcDbDictionary
281
     1
  0
ACDBDICTIONARYWDFLT
  5
E
102
{ACAD_REACTORS
330
C
102
}
330
C
100
AcDbDictionary
281
     1
  3
Normal
350
F
100
AcDbDictionaryWithDefault
340
F
  0
DICTIONARY
  5
42
102
{ACAD_REACTORS
330
C
102
}
330
C
100
AcDbDictionary
281
     1
  3
A0
350
43
  3
A1
350
44
  3
A2
350
45
  3
A3
350
46
  3
A4
350
47
  3
A5
350
48
  3
A6
350
49
  3
A7
350
4A
  3
A8
350
4B
  3
A9
350
4C
  3
B0
350
4D
  3
B1
350
4E
  3
B2
350
4F
  3
B3
350
50
  3
B4
350
51
  3
B5
350
52
  3
B6
350
53
  0
DICTIONARY
  5
68
102
{ACAD_REACTORS
330
C
102
}
330
C
100
AcDbDictionary
281
     1
  3
Imperial24
350
6A
  3
Metric50
350
8D8
  0
DICTIONARY
  5
64
102
{ACAD_REACTORS
330
C
102
}
330
C
100
AcDbDictionary
281
     1
  3
Standard
350
65
  0
DICTIONARY
  5
29
102
{ACAD_REACTORS
330
C
102
}
330
C
100
AcDbDictionary
281
     1
  3
2dWireframe
350
2F
  3
Basic
350
2E
  3
Brighten
350
35
  3
ColorChange
350
39
  3
Conceptual
350
32
  3
Dim
350
34
  3
EdgeColorOff
350
41
  3
Facepattern
350
38
  3
Flat
350
2A
  3
FlatWithEdges
350
2B
  3
Gouraud
350
2C
  3
GouraudWithEdges
350
2D
  3
Hidden
350
31
  3
JitterOff
350
3F
  3
Linepattern
350
37
  3
OverhangOff
350
40
  3
Realistic
350
33
  3
Shaded
350
3E
  3
Shaded with edges
350
3D
  3
Shades of Gray
350
3A
  3
Sketchy
350
3B
  3
Thicken
350
36
  3
Wireframe
350
30
  3
X-Ray
350
3C
  0
XRECORD
  5
A43
102
{ACAD_REACTORS
330
C
102
}
330
C
100
AcDbXrecord
280
     1
 90
        1
330
65
330
213
330
214
330
215
330
216
330
217
330
218
330
219
330
21A
330
21B
330
983
330
985
330
987
330
989
330
98B
330
98D
330
98F
330
991
330
993
  0
DICTIONARY
  5
8CC
102
{ACAD_REACTORS
330
C
102
}
330
C
100
AcDbDictionary
281
     1
  3
CANNOSCALE
350
8D2
  3
CMLEADERSTYLE
350
8CE
  3
CTABLESTYLE
350
8CD
  3
CVIEWDETAILSTYLE
350
8CF
  3
CVIEWSECTIONSTYLE
350
8D0
  3
LAYEREVAL
350
8D4
  3
LAYERNOTIFY
350
8D5
  3
LIGHTINGUNITS
350
8D3
  3
MSLTSCALE
350
8D1
  3
XCLIPFRAME
350
A1D
  0
DICTIONARY
  5
90D
102
{ACAD_REACTORS
330
C
102
}
330
C
100
AcDbDictionary
281
     1
  3
AcmStdDictionary
350
914
  0
DICTIONARY
  5
8F5
102
{ACAD_REACTORS
330
C
102
}
330
C
100
AcDbDictionary
281
     1
  0
DICTIONARY
  5
9A7
102
{ACAD_REACTORS
330
C
102
}
330
C
100
AcDbDictionary
281
     1
  0
DICTIONARY
  5
99D
102
{ACAD_REACTORS
330
99C
102
}
330
99C
100
AcDbDictionary
281
     1
  0
SORTENTSTABLE
  5
84C
102
{ACAD_REACTORS
330
84B
102
}
330
84B
100
AcDbSortentsTable
330
71
331
24C
  5
24C
331
248
  5
248
331
287
  5
287
331
56D
  5
56D
331
244
  5
244
331
283
  5
283
331
569
  5
569
331
240
  5
240
331
27F
  5
27F
331
27B
  5
27B
331
565
  5
565
331
23C
  5
23C
331
238
  5
238
331
277
  5
277
331
5AC
  5
5AC
331
462
  5
462
331
561
  5
561
331
55D
  5
55D
331
234
  5
234
331
5A8
  5
5A8
331
273
  5
273
331
559
  5
559
331
230
  5
230
331
26F
  5
26F
331
22C
  5
22C
331
26B
  5
26B
331
228
  5
228
331
267
  5
267
331
224
  5
224
331
263
  5
263
331
220
  5
220
331
362
  5
362
331
25F
  5
25F
331
21C
  5
21C
331
25B
  5
25B
331
257
  5
257
331
253
  5
253
331
28A
  5
28A
331
574
  5
574
331
570
  5
570
331
24F
  5
24F
331
24B
  5
24B
331
247
  5
247
331
286
  5
286
331
56C
  5
56C
331
243
  5
243
331
282
  5
282
331
568
  5
568
331
23F
  5
23F
331
27E
  5
27E
331
27A
  5
27A
331
1C1
  5
211
331
564
  5
564
331
23B
  5
23B
331
560
  5
560
331
237
  5
237
331
5AB
  5
5AB
331
276
  5
276
331
55C
  5
55C
331
233
  5
233
331
5A7
  5
5A7
331
272
  5
272
331
558
  5
558
331
22F
  5
22F
331
26E
  5
26E
331
26A
  5
26A
331
22B
  5
22B
331
227
  5
227
331
266
  5
266
331
223
  5
223
331
262
  5
262
331
593
  5
593
331
21F
  5
21F
331
25E
  5
25E
331
25A
  5
25A
331
256
  5
256
331
252
  5
252
331
289
  5
289
331
573
  5
573
331
692
  5
692
331
24E
  5
24E
331
24A
  5
24A
331
56F
  5
56F
331
246
  5
246
331
285
  5
285
331
56B
  5
56B
331
242
  5
242
331
281
  5
281
331
567
  5
567
331
23E
  5
23E
331
27D
  5
27D
331
279
  5
279
331
5AE
  5
5AE
331
563
  5
563
331
23A
  5
23A
331
55F
  5
55F
331
236
  5
236
331
5AA
  5
5AA
331
275
  5
275
331
55B
  5
55B
331
232
  5
232
331
271
  5
271
331
22E
  5
22E
331
26D
  5
26D
331
269
  5
269
331
22A
  5
22A
331
226
  5
226
331
265
  5
265
331
222
  5
222
331
261
  5
261
331
592
  5
592
331
21E
  5
21E
331
25D
  5
25D
331
259
  5
259
331
255
  5
255
331
251
  5
251
331
576
  5
576
331
288
  5
288
331
572
  5
572
331
24D
  5
24D
331
249
  5
249
331
56E
  5
56E
331
245
  5
245
331
284
  5
284
331
56A
  5
56A
331
241
  5
241
331
280
  5
280
331
566
  5
566
331
23D
  5
23D
331
27C
  5
27C
331
239
  5
239
331
278
  5
278
331
5AD
  5
5AD
331
562
  5
562
331
55E
  5
55E
331
235
  5
235
331
5A9
  5
5A9
331
274
  5
274
331
55A
  5
55A
331
231
  5
231
331
270
  5
270
331
22D
  5
22D
331
26C
  5
26C
331
268
  5
268
331
229
  5
229
331
225
  5
225
331
264
  5
264
331
768
  5
768
331
221
  5
221
331
260
  5
260
331
21D
  5
21D
331
25C
  5
25C
331
258
  5
258
331
585
  5
585
331
254
  5
254
331
28B
  5
28B
331
211
  5
1C1
331
250
  5
250
331
575
  5
575
331
571
  5
571
  0
SORTENTSTABLE
  5
9A2
102
{ACAD_REACTORS
330
9A1
102
}
330
9A1
100
AcDbSortentsTable
330
99E
  0
XRECORD
  5
A7A
102
{ACAD_REACTORS
330
8C0
102
}
330
8C0
100
AcDbXrecord
280
     1
 40
966031.0
  1
\fArial|b0|i0;\H3.5000;Rohrleitungen müssen an die Gegebenheiten\Pder Anlage angepasst werden. \PZuschnittlängen sind unverbindlich.
  0
XRECORD
  5
A7B
102
{ACAD_REACTORS
330
8C2
102
}
330
8C2
100
AcDbXrecord
280
     1
 40
18482639.0
  1
Schweißverbindungen:\PAlle Schweißverbindungen sind nach den allgemeinen Regeln der Technik auszuführen.\PZulässig sind ausschließlich dem Werkstoff angepasste Schweißverfahren. Die Ausführung und Güte der Schweißverbindungen muss dem Verwendungszwec
  1
k der Bauteile entsprechen (z.B. Tanks wasserdicht, Rahmen Tragfähigkeit, Rohrleitungen druckbeständigkeit usw.).\PDie Schweißnähte sind so zu positionieren, dass Spaltkorrosion vermieden wird. Schweißnähte mit statischer Funktion sind grundsätzlich 
  1
mit Schweißzusatz zu schweißen. \P
  0
XRECORD
  5
A7C
102
{ACAD_REACTORS
330
8C4
102
}
330
8C4
100
AcDbXrecord
280
     1
 40
682360.0
  1
Baugruppe wasserdicht geschweißt. \PAlle Schweißnähte auf der Innenseite.\P(Zeichnungshinweise beachten)
  0
XRECORD
  5
A84
102
{ACAD_REACTORS
330
977
102
}
330
977
100
AcDbXrecord
280
     1
 40
61201.0
  1
\fISOCPEUR|b0|i0;\H1.5000;Maßstab:
  0
XRECORD
  5
A85
102
{ACAD_REACTORS
330
97B
102
}
330
97B
100
AcDbXrecord
280
     1
 40
332977.0
  1
\fISOCPEUR|b0|i0;\H2.0000;Für diese Zeichnung\Pbehalten wir uns alle Rechte vor!
  0
XRECORD
  5
A86
102
{ACAD_REACTORS
330
982
102
}
330
982
100
AcDbXrecord
280
     1
 40
327687.0
  1
\fArial|b0|i0;\H2.5000;gemäß Nockenselektor\Paccording to cleat selector
  0
XRECORD
  5
A32
102
{ACAD_REACTORS
330
984
102
}
330
984
100
AcDbXrecord
280
     1
 70
     4
 70
     0
 70
     0
 40
1.0
  2
Blattgröße
  1
Embedded Object
 10
277.5009206633637
 20
106.1485732033249
 30
0.0
 40
2.5
 41
0.0
 46
0.0
 71
     5
 72
     5
  1
A4
  7
Textstil151
 73
     1
 44
1.0
  0
XRECORD
  5
A31
102
{ACAD_REACTORS
330
984
102
}
330
984
100
AcDbXrecord
280
     1
102
ACAD_MATT_HEIGHT
140
2.5
  0
XRECORD
  5
A34
102
{ACAD_REACTORS
330
986
102
}
330
986
100
AcDbXrecord
280
     1
 70
     4
 70
     0
 70
     0
 40
1.0
  2
BAUTEILNUMMER
  1
Embedded Object
 10
245.2250330171921
 20
130.987326713937
 30
0.0
 40
5.0
 41
0.0
 46
0.0
 71
     5
 72
     5
  1
WKZ-0154
  7
Textstil150
 73
     1
 44
1.0
  0
XRECORD
  5
A33
102
{ACAD_REACTORS
330
986
102
}
330
986
100
AcDbXrecord
280
     1
102
ACAD_MATT_HEIGHT
140
5.0
  0
XRECORD
  5
A36
102
{ACAD_REACTORS
330
988
102
}
330
988
100
AcDbXrecord
280
     1
 70
     4
 70
     0
 70
     0
 40
1.0
  2
ERSTELLUNGSDATUM
  1
Embedded Object
 10
171.2009205994284
 20
131.2447270594129
 30
0.0
 40
2.000000029802322
 41
0.0
 46
0.0
 71
     7
 72
     5
  1
17.11.2011
  7
Textstil157
 73
     1
 44
1.0
  0
XRECORD
  5
A35
102
{ACAD_REACTORS
330
988
102
}
330
988
100
AcDbXrecord
280
     1
102
ACAD_MATT_HEIGHT
140
2.000000029802322
  0
XRECORD
  5
A38
102
{ACAD_REACTORS
330
98A
102
}
330
98A
100
AcDbXrecord
280
     1
 70
     4
 70
     0
 70
     0
 40
1.0
  2
KONTROLLDATUM
  1
Embedded Object
 10
171.4009205960756
 20
126.328060382812
 30
0.0
 40
2.000000029802322
 41
0.0
 46
0.0
 71
     7
 72
     5
  1

  7
Textstil157
 73
     1
 44
1.0
  0
XRECORD
  5
A37
102
{ACAD_REACTORS
330
98A
102
}
330
98A
100
AcDbXrecord
280
     1
102
ACAD_MATT_HEIGHT
140
2.000000029802322
  0
XRECORD
  5
A3A
102
{ACAD_REACTORS
330
98C
102
}
330
98C
100
AcDbXrecord
280
     1
 70
     4
 70
     0
 70
     0
 40
1.0
  2
KONSTRUKTEUR
  1
Embedded Object
 10
187.0009205960757
 20
130.5780603828121
 30
0.0
 40
2.000000029802322
 41
0.0
 46
0.0
 71
     7
 72
     5
  1

  7
Textstil157
 73
     1
 44
1.0
  0
XRECORD
  5
A39
102
{ACAD_REACTORS
330
98C
102
}
330
98C
100
AcDbXrecord
280
     1
102
ACAD_MATT_HEIGHT
140
2.000000029802322
  0
XRECORD
  5
A3C
102
{ACAD_REACTORS
330
98E
102
}
330
98E
100
AcDbXrecord
280
     1
 70
     4
 70
     0
 70
     0
 40
1.0
  2
KONSTR._GEN._VON
  1
Embedded Object
 10
187.0009205960757
 20
122.078060382812
 30
0.0
 40
2.000000029802322
 41
0.0
 46
0.0
 71
     7
 72
     5
  1

  7
Textstil157
 73
     1
 44
1.0
  0
XRECORD
  5
A3B
102
{ACAD_REACTORS
330
98E
102
}
330
98E
100
AcDbXrecord
280
     1
102
ACAD_MATT_HEIGHT
140
2.000000029802322
  0
XRECORD
  5
A3E
102
{ACAD_REACTORS
330
990
102
}
330
990
100
AcDbXrecord
280
     1
 70
     4
 70
     0
 70
     0
 40
1.0
  2
KONTROLLIERT_VON
  1
Embedded Object
 10
187.0009205960757
 20
126.328060382812
 30
0.0
 40
2.000000029802322
 41
0.0
 46
0.0
 71
     7
 72
     5
  1

  7
Textstil157
 73
     1
 44
1.0
  0
XRECORD
  5
A3D
102
{ACAD_REACTORS
330
990
102
}
330
990
100
AcDbXrecord
280
     1
102
ACAD_MATT_HEIGHT
140
2.000000029802322
  0
XRECORD
  5
A40
102
{ACAD_REACTORS
330
992
102
}
330
992
100
AcDbXrecord
280
     1
 70
     4
 70
     0
 70
     0
 40
1.0
  2
Blattnummer
  1
Embedded Object
 10
278.1596234336237
 20
111.9267336384979
 30
0.0
 40
2.485507130622863
 41
0.0
 46
0.0
 71
     5
 72
     5
  1
1 
  7
Textstil160
 73
     1
 44
1.0
  0
XRECORD
  5
A3F
102
{ACAD_REACTORS
330
992
102
}
330
992
100
AcDbXrecord
280
     1
102
ACAD_MATT_HEIGHT
140
2.485507130622863
  0
XRECORD
  5
A42
102
{ACAD_REACTORS
330
994
102
}
330
994
100
AcDbXrecord
280
     1
 70
     4
 70
     0
 70
     0
 40
1.0
  2
GENEHM.DAT._KONSTR.
  1
Embedded Object
 10
171.5342393665902
 20
122.1279729466433
 30
0.0
 40
2.000000029802322
 41
0.0
 46
0.0
 71
     7
 72
     5
  1

  7
Textstil157
 73
     1
 44
1.0
  0
XRECORD
  5
A41
102
{ACAD_REACTORS
330
994
102
}
330
994
100
AcDbXrecord
280
     1
102
ACAD_MATT_HEIGHT
140
2.000000029802322
  0
XRECORD
  5
A20
102
{ACAD_REACTORS
330
86B
102
}
330
86B
100
AcDbXrecord
280
     1
 70
     2
 70
     0
 70
     0
 40
1.0
  2
Blattgröße
  1
Embedded Object
 10
139.5499031948437
 20
8.160256410256456
 30
0.0
 40
1.25
 41
0.0
 46
0.0
 71
     5
 72
     5
  1
A4
  7
Textstil151
 73
     1
 44
1.0
  0
XRECORD
  5
A1F
102
{ACAD_REACTORS
330
86B
102
}
330
86B
100
AcDbXrecord
280
     1
102
ACAD_MATT_HEIGHT
140
1.25
  0
XRECORD
  5
A22
102
{ACAD_REACTORS
330
86E
102
}
330
86E
100
AcDbXrecord
280
     1
 70
     2
 70
     0
 70
     0
 40
1.0
  2
BAUTEILNUMMER
  1
Embedded Object
 10
123.4119593717579
 20
20.57963316556252
 30
0.0
 40
2.5
 41
0.0
 46
0.0
 71
     5
 72
     5
  1
WKZ-0154
  7
Textstil150
 73
     1
 44
1.0
  0
XRECORD
  5
A21
102
{ACAD_REACTORS
330
86E
102
}
330
86E
100
AcDbXrecord
280
     1
102
ACAD_MATT_HEIGHT
140
2.5
  0
XRECORD
  5
A24
102
{ACAD_REACTORS
330
871
102
}
330
871
100
AcDbXrecord
280
     1
 70
     2
 70
     0
 70
     0
 40
1.0
  2
ERSTELLUNGSDATUM
  1
Embedded Object
 10
86.39990316287606
 20
20.70833333830043
 30
0.0
 40
1.000000014901161
 41
0.0
 46
0.0
 71
     7
 72
     5
  1
17.11.2011
  7
Textstil157
 73
     1
 44
1.0
  0
XRECORD
  5
A23
102
{ACAD_REACTORS
330
871
102
}
330
871
100
AcDbXrecord
280
     1
102
ACAD_MATT_HEIGHT
140
1.000000014901161
  0
XRECORD
  5
A26
102
{ACAD_REACTORS
330
874
102
}
330
874
100
AcDbXrecord
280
     1
 70
     2
 70
     0
 70
     0
 40
1.0
  2
KONTROLLDATUM
  1
Embedded Object
 10
86.49990316119968
 20
18.25000000000003
 30
0.0
 40
1.000000014901161
 41
0.0
 46
0.0
 71
     7
 72
     5
  1

  7
Textstil157
 73
     1
 44
1.0
  0
XRECORD
  5
A25
102
{ACAD_REACTORS
330
874
102
}
330
874
100
AcDbXrecord
280
     1
102
ACAD_MATT_HEIGHT
140
1.000000014901161
  0
XRECORD
  5
A28
102
{ACAD_REACTORS
330
877
102
}
330
877
100
AcDbXrecord
280
     1
 70
     2
 70
     0
 70
     0
 40
1.0
  2
KONSTRUKTEUR
  1
Embedded Object
 10
94.29990316119969
 20
20.37500000000004
 30
0.0
 40
1.000000014901161
 41
0.0
 46
0.0
 71
     7
 72
     5
  1

  7
Textstil157
 73
     1
 44
1.0
  0
XRECORD
  5
A27
102
{ACAD_REACTORS
330
877
102
}
330
877
100
AcDbXrecord
280
     1
102
ACAD_MATT_HEIGHT
140
1.000000014901161
  0
XRECORD
  5
A2A
102
{ACAD_REACTORS
330
87A
102
}
330
87A
100
AcDbXrecord
280
     1
 70
     2
 70
     0
 70
     0
 40
1.0
  2
KONSTR._GEN._VON
  1
Embedded Object
 10
94.29990316119969
 20
16.12500000000002
 30
0.0
 40
1.000000014901161
 41
0.0
 46
0.0
 71
     7
 72
     5
  1

  7
Textstil157
 73
     1
 44
1.0
  0
XRECORD
  5
A29
102
{ACAD_REACTORS
330
87A
102
}
330
87A
100
AcDbXrecord
280
     1
102
ACAD_MATT_HEIGHT
140
1.000000014901161
  0
XRECORD
  5
A2C
102
{ACAD_REACTORS
330
87D
102
}
330
87D
100
AcDbXrecord
280
     1
 70
     2
 70
     0
 70
     0
 40
1.0
  2
KONTROLLIERT_VON
  1
Embedded Object
 10
94.29990316119969
 20
18.25000000000003
 30
0.0
 40
1.000000014901161
 41
0.0
 46
0.0
 71
     7
 72
     5
  1

  7
Textstil157
 73
     1
 44
1.0
  0
XRECORD
  5
A2B
102
{ACAD_REACTORS
330
87D
102
}
330
87D
100
AcDbXrecord
280
     1
102
ACAD_MATT_HEIGHT
140
1.000000014901161
  0
XRECORD
  5
A2E
102
{ACAD_REACTORS
330
880
102
}
330
880
100
AcDbXrecord
280
     1
 70
     2
 70
     0
 70
     0
 40
1.0
  2
Blattnummer
  1
Embedded Object
 10
139.8792545799737
 20
11.04933662784296
 30
0.0
 40
1.242753565311431
 41
0.0
 46
0.0
 71
     5
 72
     5
  1
1 
  7
Textstil160
 73
     1
 44
1.0
  0
XRECORD
  5
A2D
102
{ACAD_REACTORS
330
880
102
}
330
880
100
AcDbXrecord
280
     1
102
ACAD_MATT_HEIGHT
140
1.242753565311431
  0
XRECORD
  5
A30
102
{ACAD_REACTORS
330
883
102
}
330
883
100
AcDbXrecord
280
     1
 70
     2
 70
     0
 70
     0
 40
1.0
  2
GENEHM.DAT._KONSTR.
  1
Embedded Object
 10
86.56656254645696
 20
16.14995628191566
 30
0.0
 40
1.000000014901161
 41
0.0
 46
0.0
 71
     7
 72
     5
  1

  7
Textstil157
 73
     1
 44
1.0
  0
XRECORD
  5
A2F
102
{ACAD_REACTORS
330
883
102
}
330
883
100
AcDbXrecord
280
     1
102
ACAD_MATT_HEIGHT
140
1.000000014901161
  0
ACDBDETAILVIEWSTYLE
  5
6C
102
{ACAD_REACTORS
330
6B
102
}
330
6B
100
AcDbModelDocViewStyle
 70
     0
  3
Imperial24
290
     0
100
AcDbDetailViewStyle
 70
     0
 71
     0
 90
        3
 71
     1
340
55
 62
   256
 40
0.24
340
0
 62
   256
 40
0.24
300

 40
0.36
280
     3
 71
     2
340
5D
 90
       25
 62
   256
 71
     3
340
55
 62
   256
 40
0.24
 90
        1
 40
0.75
 90
        1
300
%<\AcVar ViewType \f "%tc1">% %<\AcVar ViewDetailId>%\PVARIA %<\AcVar ViewScale \f "%sn">%
 71
     4
340
5D
 90
       25
 62
   256
340
5D
 90
       25
 62
   256
280
     0
  0
ACDBDETAILVIEWSTYLE
  5
8D9
102
{ACAD_REACTORS
330
6B
102
}
330
6B
100
AcDbModelDocViewStyle
 70
     0
  3
Metric50
290
     0
100
AcDbDetailViewStyle
 70
     0
 71
     0
 90
        3
 71
     1
340
55
 62
   256
 40
5.0
340
0
 62
   256
 40
5.0
300

 40
0.0
280
     1
 71
     2
340
5D
 90
       25
 62
   256
 71
     3
340
55
 62
   256
 40
5.0
 90
        0
 40
15.0
 90
        1
300
%<\AcVar ViewDetailId>% (%<\AcVar ViewScale \f "%sn">%)
 71
     4
340
5D
 90
       25
 62
   256
340
5D
 90
       25
 62
   256
280
     0
  0
IMAGEDEF
  5
9A5
102
{ACAD_REACTORS
330
9A0
330
1C6
102
}
330
1C6
100
AcDbRasterImageDef
 90
        0
  1
C:\CAD Workspace Vault\CAD\E_3_Nocken\Logo Optibelt CMYK.jpg
 10
599.0
 20
354.0
 11
0.001669449081803
 21
0.001669449081803
280
     1
281
     0
  0
IMAGEDEF
  5
1C7
102
{ACAD_REACTORS
330
1C6
330
1C8
330
94A
102
}
330
1C6
100
AcDbRasterImageDef
 90
        0
  1
C:\CAD Workspace Vault\CAD\E_3_Nocken\E_3_01_Aufschweißnocke\06_Trapez\E_3_01_06_00_00_WKZ-01540.bmp
 10
599.0
 20
354.0
 11
0.2645502645502646
 21
0.2645502645502646
280
     1
281
     2
  0
LAYOUT
  5
70
102
{ACAD_REACTORS
330
62
102
}
330
62
100
AcDbPlotSettings
  1

  2

  4

  6

 40
0.0
 41
0.0
 42
0.0
 43
0.0
 44
0.0
 45
0.0
 46
0.0
 47
0.0
 48
0.0
 49
0.0
140
0.0
141
0.0
142
1.0
143
1.0
 70
   688
 72
     0
 73
     0
 74
     5
  7

 75
    16
147
1.0
 76
     0
 77
     2
 78
   300
148
0.0
149
0.0
100
AcDbLayout
  1
Layout1
 70
     1
 71
     1
 10
0.0
 20
0.0
 11
148.5
 21
105.0
 12
0.0
 22
0.0
 32
0.0
 14
0.0
 24
0.0
 34
0.0
 15
148.5
 25
105.0
 35
0.0
146
0.0
 13
0.0
 23
0.0
 33
0.0
 16
1.0
 26
0.0
 36
0.0
 17
0.0
 27
1.0
 37
0.0
 76
     0
330
6D
  0
LAYOUT
  5
78
102
{ACAD_REACTORS
330
62
102
}
330
62
100
AcDbPlotSettings
  1

  2

  4

  6

 40
0.0
 41
0.0
 42
0.0
 43
0.0
 44
0.0
 45
0.0
 46
0.0
 47
0.0
 48
0.0
 49
0.0
140
0.0
141
0.0
142
1.0
143
1.0
 70
   688
 72
     0
 73
     0
 74
     5
  7

 75
    16
147
1.0
 76
     0
 77
     2
 78
   300
148
0.0
149
0.0
100
AcDbLayout
  1
Layout2
 70
     1
 71
     2
 10
0.0
 20
0.0
 11
12.0
 21
9.0
 12
0.0
 22
0.0
 32
0.0
 14
0.0
 24
0.0
 34
0.0
 15
0.0
 25
0.0
 35
0.0
146
0.0
 13
0.0
 23
0.0
 33
0.0
 16
1.0
 26
0.0
 36
0.0
 17
0.0
 27
1.0
 37
0.0
 76
     0
330
75
  0
LAYOUT
  5
74
102
{ACAD_REACTORS
330
62
102
}
330
62
100
AcDbPlotSettings
  1

  2

  4

  6

 40
0.0
 41
0.0
 42
0.0
 43
0.0
 44
0.0
 45
0.0
 46
0.0
 47
0.0
 48
0.0
 49
0.0
140
0.0
141
0.0
142
1.0
143
1.0
 70
  1712
 72
     0
 73
     0
 74
     0
  7

 75
     0
147
1.0
 76
     0
 77
     2
 78
   300
148
0.0
149
0.0
100
AcDbLayout
  1
Model
 70
     1
 71
     0
 10
0.0
 20
0.0
 11
12.0
 21
9.0
 12
0.0
 22
0.0
 32
0.0
 14
0.0
 24
0.0
 34
0.0
 15
0.0
 25
0.0
 35
0.0
146
0.0
 13
0.0
 23
0.0
 33
0.0
 16
1.0
 26
0.0
 36
0.0
 17
0.0
 27
1.0
 37
0.0
 76
     0
330
71
331
57
  0
MATERIAL
  5
19
102
{ACAD_XDICTIONARY
360
1A
102
}
102
{ACAD_REACTORS
330
10
102
}
330
10
100
AcDbMaterial
  1
ByBlock
 72
     0
 43
0.0208333333333333
 43
0.0
 43
0.0
 43
0.0
 43
0.0
 43
0.0208333333333333
 43
0.0
 43
0.0
 43
0.0
 43
0.0
 43
1.0
 43
0.0
 43
0.0
 43
0.0
 43
0.0
 43
1.0
 77
     0
 47
0.0208333333333333
 47
0.0
 47
0.0
 47
0.0
 47
0.0
 47
0.0208333333333333
 47
0.0
 47
0.0
 47
0.0
 47
0.0
 47
1.0
 47
0.0
 47
0.0
 47
0.0
 47
0.0
 47
1.0
171
     0
 49
0.0208333333333333
 49
0.0
 49
0.0
 49
0.0
 49
0.0
 49
0.0208333333333333
 49
0.0
 49
0.0
 49
0.0
 49
0.0
 49
1.0
 49
0.0
 49
0.0
 49
0.0
 49
0.0
 49
1.0
175
     0
142
0.0208333333333333
142
0.0
142
0.0
142
0.0
142
0.0
142
0.0208333333333333
142
0.0
142
0.0
142
0.0
142
0.0
142
1.0
142
0.0
142
0.0
142
0.0
142
0.0
142
1.0
179
     0
144
0.0208333333333333
144
0.0
144
0.0
144
0.0
144
0.0
144
0.0208333333333333
144
0.0
144
0.0
144
0.0
144
0.0
144
1.0
144
0.0
144
0.0
144
0.0
144
0.0
144
1.0
147
0.0208333333333333
147
0.0
147
0.0
147
0.0
147
0.0
147
0.0208333333333333
147
0.0
147
0.0
147
0.0
147
0.0
147
1.0
147
0.0
147
0.0
147
0.0
147
0.0
147
1.0
  0
MATERIAL
  5
11
102
{ACAD_XDICTIONARY
360
12
102
}
102
{ACAD_REACTORS
330
10
102
}
330
10
100
AcDbMaterial
  1
ByLayer
 72
     0
 43
0.0208333333333333
 43
0.0
 43
0.0
 43
0.0
 43
0.0
 43
0.0208333333333333
 43
0.0
 43
0.0
 43
0.0
 43
0.0
 43
1.0
 43
0.0
 43
0.0
 43
0.0
 43
0.0
 43
1.0
 77
     0
 47
0.0208333333333333
 47
0.0
 47
0.0
 47
0.0
 47
0.0
 47
0.0208333333333333
 47
0.0
 47
0.0
 47
0.0
 47
0.0
 47
1.0
 47
0.0
 47
0.0
 47
0.0
 47
0.0
 47
1.0
171
     0
 49
0.0208333333333333
 49
0.0
 49
0.0
 49
0.0
 49
0.0
 49
0.0208333333333333
 49
0.0
 49
0.0
 49
0.0
 49
0.0
 49
1.0
 49
0.0
 49
0.0
 49
0.0
 49
0.0
 49
1.0
175
     0
142
0.0208333333333333
142
0.0
142
0.0
142
0.0
142
0.0
142
0.0208333333333333
142
0.0
142
0.0
142
0.0
142
0.0
142
1.0
142
0.0
142
0.0
142
0.0
142
0.0
142
1.0
179
     0
144
0.0208333333333333
144
0.0
144
0.0
144
0.0
144
0.0
144
0.0208333333333333
144
0.0
144
0.0
144
0.0
144
0.0
144
1.0
144
0.0
144
0.0
144
0.0
144
0.0
144
1.0
147
0.0208333333333333
147
0.0
147
0.0
147
0.0
147
0.0
147
0.0208333333333333
147
0.0
147
0.0
147
0.0
147
0.0
147
1.0
147
0.0
147
0.0
147
0.0
147
0.0
147
1.0
  0
MATERIAL
  5
21
102
{ACAD_XDICTIONARY
360
22
102
}
102
{ACAD_REACTORS
330
10
102
}
330
10
100
AcDbMaterial
  1
Global
 72
     0
 43
0.0208333333333333
 43
0.0
 43
0.0
 43
0.0
 43
0.0
 43
0.0208333333333333
 43
0.0
 43
0.0
 43
0.0
 43
0.0
 43
1.0
 43
0.0
 43
0.0
 43
0.0
 43
0.0
 43
1.0
 77
     0
 47
0.0208333333333333
 47
0.0
 47
0.0
 47
0.0
 47
0.0
 47
0.0208333333333333
 47
0.0
 47
0.0
 47
0.0
 47
0.0
 47
1.0
 47
0.0
 47
0.0
 47
0.0
 47
0.0
 47
1.0
171
     0
 49
0.0208333333333333
 49
0.0
 49
0.0
 49
0.0
 49
0.0
 49
0.0208333333333333
 49
0.0
 49
0.0
 49
0.0
 49
0.0
 49
1.0
 49
0.0
 49
0.0
 49
0.0
 49
0.0
 49
1.0
175
     0
142
0.0208333333333333
142
0.0
142
0.0
142
0.0
142
0.0
142
0.0208333333333333
142
0.0
142
0.0
142
0.0
142
0.0
142
1.0
142
0.0
142
0.0
142
0.0
142
0.0
142
1.0
179
     0
144
0.0208333333333333
144
0.0
144
0.0
144
0.0
144
0.0
144
0.0208333333333333
144
0.0
144
0.0
144
0.0
144
0.0
144
1.0
144
0.0
144
0.0
144
0.0
144
0.0
144
1.0
147
0.0208333333333333
147
0.0
147
0.0
147
0.0
147
0.0
147
0.0208333333333333
147
0.0
147
0.0
147
0.0
147
0.0
147
1.0
147
0.0
147
0.0
147
0.0
147
0.0
147
1.0
  0
MLEADERSTYLE
  5
67
102
{ACAD_XDICTIONARY
360
A78
102
}
102
{ACAD_REACTORS
330
66
102
}
330
66
100
AcDbMLeaderStyle
170
     2
171
     1
172
     0
 90
        2
 40
0.0
 41
0.0
173
     1
 91
-1056964608
340
5B
 92
       -2
290
     1
 42
0.09
291
     1
 43
0.36
  3
Standard
 44
0.18
300

342
55
174
     1
178
     6
175
     1
176
     0
 93
-1056964608
 45
0.18
292
     0
297
     0
 46
0.18
 94
-1056964608
 47
1.0
 49
1.0
140
1.0
293
     1
141
0.0
294
     1
177
     0
142
1.0
295
     0
296
     0
143
0.125
1001
ACAD_MLEADERVER
1070
     2
  0
MLINESTYLE
  5
60
102
{ACAD_REACTORS
330
5F
102
}
330
5F
100
AcDbMlineStyle
  2
STANDARD
 70
     0
  3

 62
   256
 51
90.0
 52
90.0
 71
     2
 49
0.5
 62
   256
  6
BYLAYER
 49
-0.5
 62
   256
  6
BYLAYER
  0
ACDBPLACEHOLDER
  5
F
102
{ACAD_REACTORS
330
E
102
}
330
E
  0
SCALE
  5
43
102
{ACAD_REACTORS
330
42
102
}
330
42
100
AcDbScale
 70
     0
300
1:1
140
1.0
141
1.0
290
     1
  0
SCALE
  5
44
102
{ACAD_REACTORS
330
42
102
}
330
42
100
AcDbScale
 70
     0
300
1/128" = 1'-0"
140
0.0078125
141
12.0
290
     0
  0
SCALE
  5
45
102
{ACAD_REACTORS
330
42
102
}
330
42
100
AcDbScale
 70
     0
300
1/64" = 1'-0"
140
0.015625
141
12.0
290
     0
  0
SCALE
  5
46
102
{ACAD_REACTORS
330
42
102
}
330
42
100
AcDbScale
 70
     0
300
1/32" = 1'-0"
140
0.03125
141
12.0
290
     0
  0
SCALE
  5
47
102
{ACAD_REACTORS
330
42
102
}
330
42
100
AcDbScale
 70
     0
300
1/16" = 1'-0"
140
0.0625
141
12.0
290
     0
  0
SCALE
  5
48
102
{ACAD_REACTORS
330
42
102
}
330
42
100
AcDbScale
 70
     0
300
3/32" = 1'-0"
140
0.09375
141
12.0
290
     0
  0
SCALE
  5
49
102
{ACAD_REACTORS
330
42
102
}
330
42
100
AcDbScale
 70
     0
300
1/8" = 1'-0"
140
0.125
141
12.0
290
     0
  0
SCALE
  5
4A
102
{ACAD_REACTORS
330
42
102
}
330
42
100
AcDbScale
 70
     0
300
3/16" = 1'-0"
140
0.1875
141
12.0
290
     0
  0
SCALE
  5
4B
102
{ACAD_REACTORS
330
42
102
}
330
42
100
AcDbScale
 70
     0
300
1/4" = 1'-0"
140
0.25
141
12.0
290
     0
  0
SCALE
  5
4C
102
{ACAD_REACTORS
330
42
102
}
330
42
100
AcDbScale
 70
     0
300
3/8" = 1'-0"
140
0.375
141
12.0
290
     0
  0
SCALE
  5
4D
102
{ACAD_REACTORS
330
42
102
}
330
42
100
AcDbScale
 70
     0
300
1/2" = 1'-0"
140
0.5
141
12.0
290
     0
  0
SCALE
  5
4E
102
{ACAD_REACTORS
330
42
102
}
330
42
100
AcDbScale
 70
     0
300
3/4" = 1'-0"
140
0.75
141
12.0
290
     0
  0
SCALE
  5
4F
102
{ACAD_REACTORS
330
42
102
}
330
42
100
AcDbScale
 70
     0
300
1" = 1'-0"
140
1.0
141
12.0
290
     0
  0
SCALE
  5
50
102
{ACAD_REACTORS
330
42
102
}
330
42
100
AcDbScale
 70
     0
300
1-1/2" = 1'-0"
140
1.5
141
12.0
290
     0
  0
SCALE
  5
51
102
{ACAD_REACTORS
330
42
102
}
330
42
100
AcDbScale
 70
     0
300
3" = 1'-0"
140
3.0
141
12.0
290
     0
  0
SCALE
  5
52
102
{ACAD_REACTORS
330
42
102
}
330
42
100
AcDbScale
 70
     0
300
6" = 1'-0"
140
6.0
141
12.0
290
     0
  0
SCALE
  5
53
102
{ACAD_REACTORS
330
42
102
}
330
42
100
AcDbScale
 70
     0
300
1'-0" = 1'-0"
140
12.0
141
12.0
290
     0
  0
ACDBSECTIONVIEWSTYLE
  5
6A
102
{ACAD_REACTORS
330
68
102
}
330
68
100
AcDbModelDocViewStyle
 70
     0
  3
Imperial24
290
     0
100
AcDbSectionViewStyle
 70
     0
 71
     0
 90
       78
 71
     1
340
55
 62
   256
 40
0.24
340
0
340
0
 62
   256
 40
0.24
300
I, O, Q, S, X, Z
 40
0.48
 90
        3
 40
0.18
 90
        1
 71
     2
340
69
 90
       25
 62
   256
340
5D
 90
       50
 62
   256
 40
0.24
 40
0.0
 40
0.24
 71
     3
340
55
 62
   256
 40
0.24
 90
        1
 40
0.75
 90
        1
300
%<\AcVar ViewType \f "%tc1">% %<\AcVar ViewSectionStartId>%-%<\AcVar ViewSectionEndId>%\PVARIA %<\AcVar ViewScale \f "%sn">%
 71
     4
 62
   256
 62
   257
300
ANSI31
 40
1.0
 90
        0
290
     0
290
     0
 90
        6
 40
0.0
 40
1.570796326794896
 40
0.2617993877991494
 40
1.308996938995747
 40
-0.2617993877991494
 40
1.832595714594046
  0
ACDBSECTIONVIEWSTYLE
  5
8D8
102
{ACAD_REACTORS
330
68
102
}
330
68
100
AcDbModelDocViewStyle
 70
     0
  3
Metric50
290
     0
100
AcDbSectionViewStyle
 70
     0
 71
     0
 90
      102
 71
     1
340
55
 62
   256
 40
5.0
340
0
340
0
 62
   256
 40
5.0
300
I, O, Q, S, X, Z
 40
10.0
 90
        0
 40
2.5
 90
        0
 71
     2
340
5D
 90
       25
 62
   256
340
5D
 90
       50
 62
   256
 40
5.0
 40
2.5
 40
5.0
 71
     3
340
55
 62
   256
 40
5.0
 90
        0
 40
15.0
 90
        1
300
%<\AcVar ViewSectionStartId>%-%<\AcVar ViewSectionEndId>% (%<\AcVar ViewScale \f "%sn">%)
 71
     4
 62
   256
 62
   257
300
ANSI31
 40
1.0
 90
        0
290
     0
290
     0
 90
        6
 40
0.0
 40
1.570796326794896
 40
0.2617993877991494
 40
1.308996938995747
 40
-0.2617993877991494
 40
1.832595714594046
  0
TABLESTYLE
  5
65
102
{ACAD_XDICTIONARY
360
84E
102
}
102
{ACAD_REACTORS
330
64
102
}
330
64
100
AcDbTableStyle
  3
Standard
 70
     0
 71
     0
 40
0.06
 41
0.06
280
     0
281
     0
  7
Standard
140
0.18
170
     2
 62
     0
 63
     7
283
     0
274
    -2
284
     1
 64
     0
275
    -2
285
     1
 65
     0
276
    -2
286
     1
 66
     0
277
    -2
287
     1
 67
     0
278
    -2
288
     1
 68
     0
279
    -2
289
     1
 69
     0
  7
Standard
140
0.25
170
     5
 62
     0
 63
     7
283
     0
274
    -2
284
     1
 64
     0
275
    -2
285
     1
 65
     0
276
    -2
286
     1
 66
     0
277
    -2
287
     1
 67
     0
278
    -2
288
     1
 68
     0
279
    -2
289
     1
 69
     0
  7
Standard
140
0.18
170
     5
 62
     0
 63
     7
283
     0
274
    -2
284
     1
 64
     0
275
    -2
285
     1
 65
     0
276
    -2
286
     1
 66
     0
277
    -2
287
     1
 67
     0
278
    -2
288
     1
 68
     0
279
    -2
289
     1
 69
     0
  0
VISUALSTYLE
  5
2F
102
{ACAD_XDICTIONARY
360
A51
102
}
102
{ACAD_REACTORS
330
29
102
}
330
29
100
AcDbVisualStyle
  2
2dWireframe
 70
     4
 71
     0
 72
     2
 73
     0
 90
        0
 40
-0.6
 41
-30.0
 62
     5
 63
     7
421
 16777215
 74
     1
 91
        4
 64
     7
 65
   257
 75
     1
175
     1
 42
1.0
 92
        0
 66
   257
 43
1.0
 76
     1
 77
     6
 78
     2
 67
     7
 79
     5
170
     0
171
     0
290
     0
174
     0
 93
        1
 44
0.0
173
     0
291
     0
 45
0.0
1001
ACAD
1000
AcDbSavedByObjectVersion
1070
     0
  0
VISUALSTYLE
  5
2E
102
{ACAD_XDICTIONARY
360
A4F
102
}
102
{ACAD_REACTORS
330
29
102
}
330
29
100
AcDbVisualStyle
  2
Basic
 70
     7
 71
     1
 72
     0
 73
     1
 90
        0
 40
-0.6
 41
-30.0
 62
     5
 63
     7
421
 16777215
 74
     0
 91
        4
 64
     7
 65
   257
 75
     1
175
     1
 42
1.0
 92
        8
 66
     7
 43
1.0
 76
     1
 77
     6
 78
     2
 67
     7
 79
     5
170
     0
171
     0
290
     0
174
     0
 93
        1
 44
0.0
173
     0
291
     1
 45
0.0
1001
ACAD
1000
AcDbSavedByObjectVersion
1070
     0
  0
VISUALSTYLE
  5
35
102
{ACAD_XDICTIONARY
360
A5D
102
}
102
{ACAD_REACTORS
330
29
102
}
330
29
100
AcDbVisualStyle
  2
Brighten
 70
    12
 71
     2
 72
     2
 73
     0
 90
        0
 40
-0.6
 41
-30.0
 62
     5
 63
     7
421
 16777215
 74
     1
 91
        4
 64
     7
 65
   257
 75
     1
175
     1
 42
1.0
 92
        8
 66
     7
 43
1.0
 76
     1
 77
     6
 78
     2
 67
     7
 79
     5
170
     0
171
     0
290
     0
174
     0
 93
        1
 44
50.0
173
     0
291
     1
 45
0.0
1001
ACAD
1000
AcDbSavedByObjectVersion
1070
     0
  0
VISUALSTYLE
  5
39
102
{ACAD_XDICTIONARY
360
A65
102
}
102
{ACAD_REACTORS
330
29
102
}
330
29
100
AcDbVisualStyle
  2
ColorChange
 70
    16
 71
     2
 72
     2
 73
     3
 90
        0
 40
-0.6
 41
-30.0
 62
     5
 63
     8
421
  8421504
 74
     1
 91
        4
 64
     7
 65
   257
 75
     1
175
     1
 42
1.0
 92
        8
 66
     8
424
  8421504
 43
1.0
 76
     1
 77
     6
 78
     2
 67
     7
 79
     5
170
     0
171
     0
290
     0
174
     0
 93
        1
 44
0.0
173
     0
291
     1
 45
0.0
1001
ACAD
1000
AcDbSavedByObjectVersion
1070
     0
  0
VISUALSTYLE
  5
32
102
{ACAD_XDICTIONARY
360
A57
102
}
102
{ACAD_REACTORS
330
29
102
}
330
29
100
AcDbVisualStyle
  2
Conceptual
 70
     9
 71
     3
 72
     2
 73
     0
 90
        0
 40
-0.6
 41
-30.0
 62
     5
 63
     7
421
 16777215
 74
     2
 91
        2
 64
     7
 65
   257
 75
     1
175
     1
 42
179.0
 92
        8
 66
     7
 43
1.0
 76
     1
 77
     6
 78
     2
 67
     7
 79
     3
170
     0
171
     0
290
     0
174
     0
 93
        1
 44
0.0
173
     0
291
     0
 45
0.0
1001
ACAD
1000
AcDbSavedByObjectVersion
1070
     0
  0
VISUALSTYLE
  5
34
102
{ACAD_XDICTIONARY
360
A5B
102
}
102
{ACAD_REACTORS
330
29
102
}
330
29
100
AcDbVisualStyle
  2
Dim
 70
    11
 71
     2
 72
     2
 73
     0
 90
        0
 40
-0.6
 41
-30.0
 62
     5
 63
     7
421
 16777215
 74
     1
 91
        4
 64
     7
 65
   257
 75
     1
175
     1
 42
1.0
 92
        8
 66
     7
 43
1.0
 76
     1
 77
     6
 78
     2
 67
     7
 79
     5
170
     0
171
     0
290
     0
174
     0
 93
        1
 44
-50.0
173
     0
291
     1
 45
0.0
1001
ACAD
1000
AcDbSavedByObjectVersion
1070
     0
  0
VISUALSTYLE
  5
41
102
{ACAD_XDICTIONARY
360
A75
102
}
102
{ACAD_REACTORS
330
29
102
}
330
29
100
AcDbVisualStyle
  2
EdgeColorOff
 70
    22
 71
     2
 72
     2
 73
     0
 90
        0
 40
-0.6
 41
-30.0
 62
     5
 63
     7
421
 16777215
 74
     1
 91
        4
 64
     7
 65
   257
 75
     1
175
     1
 42
1.0
 92
        8
 66
     7
 43
1.0
 76
     1
 77
     6
 78
     2
 67
     7
 79
     5
170
     0
171
     0
290
     0
174
     0
 93
        1
 44
0.0
173
     0
291
     1
 45
0.0
1001
ACAD
1000
AcDbSavedByObjectVersion
1070
     0
  0
VISUALSTYLE
  5
38
102
{ACAD_XDICTIONARY
360
A63
102
}
102
{ACAD_REACTORS
330
29
102
}
330
29
100
AcDbVisualStyle
  2
Facepattern
 70
    15
 71
     2
 72
     2
 73
     0
 90
        0
 40
-0.6
 41
-30.0
 62
     5
 63
     7
421
 16777215
 74
     1
 91
        4
 64
     7
 65
   257
 75
     1
175
     1
 42
1.0
 92
        8
 66
     7
 43
1.0
 76
     1
 77
     6
 78
     2
 67
     7
 79
     5
170
     0
171
     0
290
     0
174
     0
 93
        1
 44
0.0
173
     0
291
     1
 45
0.0
1001
ACAD
1000
AcDbSavedByObjectVersion
1070
     0
  0
VISUALSTYLE
  5
2A
102
{ACAD_XDICTIONARY
360
A47
102
}
102
{ACAD_REACTORS
330
29
102
}
330
29
100
AcDbVisualStyle
  2
Flat
 70
     0
 71
     2
 72
     1
 73
     1
 90
        2
 40
-0.6
 41
30.0
 62
     5
 63
     7
421
 16777215
 74
     0
 91
        0
 64
     7
 65
   257
 75
     1
175
     1
 42
1.0
 92
        8
 66
     7
 43
1.0
 76
     1
 77
     6
 78
     2
 67
     7
 79
     5
170
     0
171
     0
290
     0
174
     0
 93
       13
 44
0.0
173
     0
291
     1
 45
0.0
1001
ACAD
1000
AcDbSavedByObjectVersion
1070
     0
  0
VISUALSTYLE
  5
2B
102
{ACAD_XDICTIONARY
360
A49
102
}
102
{ACAD_REACTORS
330
29
102
}
330
29
100
AcDbVisualStyle
  2
FlatWithEdges
 70
     1
 71
     2
 72
     1
 73
     1
 90
        2
 40
-0.6
 41
30.0
 62
     5
 63
     7
421
 16777215
 74
     1
 91
        0
 64
     7
 65
   257
 75
     1
175
     1
 42
1.0
 92
        0
 66
   257
 43
1.0
 76
     1
 77
     6
 78
     2
 67
     7
 79
     5
170
     0
171
     0
290
     0
174
     0
 93
       13
 44
0.0
173
     0
291
     1
 45
0.0
1001
ACAD
1000
AcDbSavedByObjectVersion
1070
     0
  0
VISUALSTYLE
  5
2C
102
{ACAD_XDICTIONARY
360
A4B
102
}
102
{ACAD_REACTORS
330
29
102
}
330
29
100
AcDbVisualStyle
  2
Gouraud
 70
     2
 71
     2
 72
     2
 73
     1
 90
        2
 40
-0.6
 41
30.0
 62
     5
 63
     7
421
 16777215
 74
     0
 91
        0
 64
     7
 65
   257
 75
     1
175
     1
 42
1.0
 92
        0
 66
     7
 43
1.0
 76
     1
 77
     6
 78
     2
 67
     7
 79
     5
170
     0
171
     0
290
     0
174
     0
 93
       13
 44
0.0
173
     0
291
     1
 45
0.0
1001
ACAD
1000
AcDbSavedByObjectVersion
1070
     0
  0
VISUALSTYLE
  5
2D
102
{ACAD_XDICTIONARY
360
A4D
102
}
102
{ACAD_REACTORS
330
29
102
}
330
29
100
AcDbVisualStyle
  2
GouraudWithEdges
 70
     3
 71
     2
 72
     2
 73
     1
 90
        2
 40
-0.6
 41
30.0
 62
     5
 63
     7
421
 16777215
 74
     1
 91
        0
 64
     7
 65
   257
 75
     1
175
     1
 42
1.0
 92
        0
 66
   257
 43
1.0
 76
     1
 77
     6
 78
     2
 67
     7
 79
     5
170
     0
171
     0
290
     0
174
     0
 93
       13
 44
0.0
173
     0
291
     1
 45
0.0
1001
ACAD
1000
AcDbSavedByObjectVersion
1070
     0
  0
VISUALSTYLE
  5
31
102
{ACAD_XDICTIONARY
360
A55
102
}
102
{ACAD_REACTORS
330
29
102
}
330
29
100
AcDbVisualStyle
  2
Hidden
 70
     6
 71
     1
 72
     2
 73
     2
 90
        0
 40
-0.6
 41
-30.0
 62
     5
 63
     7
421
 16777215
 74
     2
 91
        2
 64
     7
 65
   257
 75
     2
175
     1
 42
40.0
 92
        0
 66
   257
 43
1.0
 76
     1
 77
     6
 78
     2
 67
     7
 79
     3
170
     0
171
     0
290
     0
174
     0
 93
        1
 44
0.0
173
     0
291
     0
 45
0.0
1001
ACAD
1000
AcDbSavedByObjectVersion
1070
     0
  0
VISUALSTYLE
  5
3F
102
{ACAD_XDICTIONARY
360
A71
102
}
102
{ACAD_REACTORS
330
29
102
}
330
29
100
AcDbVisualStyle
  2
JitterOff
 70
    20
 71
     2
 72
     2
 73
     0
 90
        0
 40
-0.6
 41
-30.0
 62
     5
 63
     7
421
 16777215
 74
     1
 91
        4
 64
     7
 65
   257
 75
     1
175
     1
 42
1.0
 92
       10
 66
     7
 43
1.0
 76
     1
 77
     6
 78
     2
 67
     7
 79
     5
170
     0
171
     0
290
     0
174
     0
 93
        1
 44
0.0
173
     0
291
     1
 45
0.0
1001
ACAD
1000
AcDbSavedByObjectVersion
1070
     0
  0
VISUALSTYLE
  5
37
102
{ACAD_XDICTIONARY
360
A61
102
}
102
{ACAD_REACTORS
330
29
102
}
330
29
100
AcDbVisualStyle
  2
Linepattern
 70
    14
 71
     2
 72
     2
 73
     0
 90
        0
 40
-0.6
 41
-30.0
 62
     5
 63
     7
421
 16777215
 74
     1
 91
        4
 64
     7
 65
   257
 75
     7
175
     7
 42
1.0
 92
        8
 66
     7
 43
1.0
 76
     1
 77
     6
 78
     2
 67
     7
 79
     5
170
     0
171
     0
290
     0
174
     0
 93
        1
 44
0.0
173
     0
291
     1
 45
0.0
1001
ACAD
1000
AcDbSavedByObjectVersion
1070
     0
  0
VISUALSTYLE
  5
40
102
{ACAD_XDICTIONARY
360
A73
102
}
102
{ACAD_REACTORS
330
29
102
}
330
29
100
AcDbVisualStyle
  2
OverhangOff
 70
    21
 71
     2
 72
     2
 73
     0
 90
        0
 40
-0.6
 41
-30.0
 62
     5
 63
     7
421
 16777215
 74
     1
 91
        4
 64
     7
 65
   257
 75
     1
175
     1
 42
1.0
 92
        9
 66
     7
 43
1.0
 76
     1
 77
     6
 78
     2
 67
     7
 79
     5
170
     0
171
     0
290
     0
174
     0
 93
        1
 44
0.0
173
     0
291
     1
 45
0.0
1001
ACAD
1000
AcDbSavedByObjectVersion
1070
     0
  0
VISUALSTYLE
  5
33
102
{ACAD_XDICTIONARY
360
A59
102
}
102
{ACAD_REACTORS
330
29
102
}
330
29
100
AcDbVisualStyle
  2
Realistic
 70
     8
 71
     2
 72
     2
 73
     0
 90
        2
 40
-0.6
 41
30.0
 62
     5
 63
     7
421
 16777215
 74
     0
 91
        0
 64
     7
 65
   257
 75
     1
175
     1
 42
1.0
 92
        8
 66
   257
 43
1.0
 76
     1
 77
     6
 78
     2
 67
     7
 79
     3
170
     0
171
     0
290
     0
174
     0
 93
       13
 44
0.0
173
     0
291
     0
 45
0.0
1001
ACAD
1000
AcDbSavedByObjectVersion
1070
     0
  0
VISUALSTYLE
  5
3E
102
{ACAD_XDICTIONARY
360
A6F
102
}
102
{ACAD_REACTORS
330
29
102
}
330
29
100
AcDbVisualStyle
  2
Shaded
 70
    27
 71
     2
 72
     2
 73
     1
 90
        2
 40
-0.6
 41
30.0
 62
     5
 63
     7
421
 16777215
 74
     0
 91
        4
 64
     7
 65
   257
 75
     1
175
     1
 42
1.0
 92
        8
 66
   257
 43
1.0
 76
     1
 77
     6
 78
     2
 67
     8
425
  7895160
 79
     3
170
     0
171
     0
290
     0
174
     0
 93
        5
 44
0.0
173
     0
291
     0
 45
0.0
1001
ACAD
1000
AcDbSavedByObjectVersion
1070
     0
  0
VISUALSTYLE
  5
3D
102
{ACAD_XDICTIONARY
360
A6D
102
}
102
{ACAD_REACTORS
330
29
102
}
330
29
100
AcDbVisualStyle
  2
Shaded with edges
 70
    26
 71
     2
 72
     2
 73
     1
 90
        2
 40
-0.6
 41
30.0
 62
     5
 63
     7
421
 16777215
 74
     1
 91
       10
 64
     7
 65
   257
 75
     2
175
     1
 42
1.0
 92
        8
 66
   257
 43
1.0
 76
     1
 77
     6
 78
     2
 67
     7
 79
     3
170
     0
171
     0
290
     0
174
     0
 93
        5
 44
0.0
173
     0
291
     0
 45
0.0
1001
ACAD
1000
AcDbSavedByObjectVersion
1070
     0
  0
VISUALSTYLE
  5
3A
102
{ACAD_XDICTIONARY
360
A67
102
}
102
{ACAD_REACTORS
330
29
102
}
330
29
100
AcDbVisualStyle
  2
Shades of Gray
 70
    23
 71
     2
 72
     2
 73
     3
 90
        0
 40
-0.6
 41
-30.0
 62
     5
 63
     7
421
 16777215
 74
     2
 91
        2
 64
     7
 65
     7
 75
     1
175
     1
 42
40.0
 92
        8
 66
     7
 43
1.0
 76
     1
 77
     6
 78
     2
 67
     7
 79
     3
170
     0
171
     0
290
     0
174
     0
 93
        1
 44
0.0
173
     0
291
     0
 45
0.0
1001
ACAD
1000
AcDbSavedByObjectVersion
1070
     0
  0
VISUALSTYLE
  5
3B
102
{ACAD_XDICTIONARY
360
A69
102
}
102
{ACAD_REACTORS
330
29
102
}
330
29
100
AcDbVisualStyle
  2
Sketchy
 70
    24
 71
     1
 72
     2
 73
     2
 90
        0
 40
-0.6
 41
-30.0
 62
     5
 63
     7
421
 16777215
 74
     2
 91
        2
 64
     7
 65
     7
 75
     1
175
     1
 42
40.0
 92
       11
 66
     7
 43
1.0
 76
     1
 77
     6
 78
     2
 67
     7
 79
     6
170
     0
171
     0
290
     0
174
     0
 93
        1
 44
0.0
173
     0
291
     0
 45
0.0
1001
ACAD
1000
AcDbSavedByObjectVersion
1070
     0
  0
VISUALSTYLE
  5
36
102
{ACAD_XDICTIONARY
360
A5F
102
}
102
{ACAD_REACTORS
330
29
102
}
330
29
100
AcDbVisualStyle
  2
Thicken
 70
    13
 71
     2
 72
     2
 73
     0
 90
        0
 40
-0.6
 41
-30.0
 62
     5
 63
     7
421
 16777215
 74
     1
 91
        4
 64
     7
 65
   257
 75
     1
175
     1
 42
1.0
 92
       12
 66
     7
 43
1.0
 76
     1
 77
     6
 78
     2
 67
     7
 79
     5
170
     0
171
     0
290
     0
174
     0
 93
        1
 44
0.0
173
     0
291
     1
 45
0.0
1001
ACAD
1000
AcDbSavedByObjectVersion
1070
     0
  0
VISUALSTYLE
  5
30
102
{ACAD_XDICTIONARY
360
A53
102
}
102
{ACAD_REACTORS
330
29
102
}
330
29
100
AcDbVisualStyle
  2
Wireframe
 70
     5
 71
     0
 72
     2
 73
     0
 90
        0
 40
-0.6
 41
-30.0
 62
     5
 63
     7
421
 16777215
 74
     1
 91
        4
 64
     7
 65
   257
 75
     1
175
     1
 42
1.0
 92
        0
 66
   257
 43
1.0
 76
     1
 77
     6
 78
     2
 67
     7
 79
     3
170
     0
171
     0
290
     0
174
     0
 93
        1
 44
0.0
173
     0
291
     0
 45
0.0
1001
ACAD
1000
AcDbSavedByObjectVersion
1070
     0
  0
VISUALSTYLE
  5
3C
102
{ACAD_XDICTIONARY
360
A6B
102
}
102
{ACAD_REACTORS
330
29
102
}
330
29
100
AcDbVisualStyle
  2
X-Ray
 70
    25
 71
     2
 72
     2
 73
     1
 90
        1
 40
0.5
 41
-30.0
 62
     5
 63
     7
421
 16777215
 74
     1
 91
        0
 64
     7
 65
   257
 75
     1
175
     1
 42
1.0
 92
        8
 66
     7
 43
1.0
 76
     1
 77
     6
 78
     2
 67
     7
 79
     3
170
     0
171
     0
290
     0
174
     0
 93
       13
 44
0.0
173
     0
291
     0
 45
0.0
1001
ACAD
1000
AcDbSavedByObjectVersion
1070
     0
  0
DICTIONARYVAR
  5
8D2
102
{ACAD_REACTORS
330
8CC
102
}
330
8CC
100
DictionaryVariables
280
     0
  1
1:1
  0
DICTIONARYVAR
  5
8CE
102
{ACAD_REACTORS
330
8CC
102
}
330
8CC
100
DictionaryVariables
280
     0
  1
STANDARD
  0
DICTIONARYVAR
  5
8CD
102
{ACAD_REACTORS
330
8CC
102
}
330
8CC
100
DictionaryVariables
280
     0
  1
STANDARD
  0
DICTIONARYVAR
  5
8CF
102
{ACAD_REACTORS
330
8CC
102
}
330
8CC
100
DictionaryVariables
280
     0
  1
Imperial24
  0
DICTIONARYVAR
  5
8D0
102
{ACAD_REACTORS
330
8CC
102
}
330
8CC
100
DictionaryVariables
280
     0
  1
Imperial24
  0
DICTIONARYVAR
  5
8D4
102
{ACAD_REACTORS
330
8CC
102
}
330
8CC
100
DictionaryVariables
280
     0
  1
0
  0
DICTIONARYVAR
  5
8D5
102
{ACAD_REACTORS
330
8CC
102
}
330
8CC
100
DictionaryVariables
280
     0
  1
0
  0
DICTIONARYVAR
  5
8D3
102
{ACAD_REACTORS
330
8CC
102
}
330
8CC
100
DictionaryVariables
280
     0
  1
2
  0
DICTIONARYVAR
  5
8D1
102
{ACAD_REACTORS
330
8CC
102
}
330
8CC
100
DictionaryVariables
280
     0
  1
1
  0
DICTIONARYVAR
  5
A1D
102
{ACAD_REACTORS
330
8CC
102
}
330
8CC
100
DictionaryVariables
280
     0
  1
2
  0
DICTIONARY
  5
914
102
{ACAD_REACTORS
330
90D
102
}
330
90D
100
AcDbDictionary
281
     1
  0
DICTIONARY
  5
1A
330
19
100
AcDbDictionary
280
     1
281
     1
  3
ACAD_XREC_ROUNDTRIP
360
A45
  3
BUMPTILE
360
1C
  3
DIFFUSETILE
360
1B
  3
OPACITYTILE
360
1F
  3
REFLECTIONTILE
360
1E
  3
REFRACTIONTILE
360
20
  3
SPECULARTILE
360
1D
  0
DICTIONARY
  5
12
330
11
100
AcDbDictionary
280
     1
281
     1
  3
ACAD_XREC_ROUNDTRIP
360
A44
  3
BUMPTILE
360
14
  3
DIFFUSETILE
360
13
  3
FBXASSET
360
162
  3
OPACITYTILE
360
17
  3
REFLECTIONTILE
360
16
  3
REFRACTIONTILE
360
18
  3
SPECULARTILE
360
15
  0
DICTIONARY
  5
22
330
21
100
AcDbDictionary
280
     1
281
     1
  3
ACAD_XREC_ROUNDTRIP
360
A46
  3
BUMPTILE
360
24
  3
DIFFUSETILE
360
23
  3
OPACITYTILE
360
27
  3
REFLECTIONTILE
360
26
  3
REFRACTIONTILE
360
28
  3
SPECULARTILE
360
25
  0
DICTIONARY
  5
A78
330
67
100
AcDbDictionary
280
     1
281
     1
  3
ACAD_XREC_ROUNDTRIP
360
A79
  0
DICTIONARY
  5
84E
330
65
100
AcDbDictionary
280
     1
281
     1
  3
ACAD_ROUNDTRIP_2008_TABLESTYLE_CELLSTYLEMAP
360
A1E
  3
ACAD_XREC_ROUNDTRIP
360
A77
  0
DICTIONARY
  5
A51
330
2F
100
AcDbDictionary
280
     1
281
     1
  3
ACAD_XREC_ROUNDTRIP
360
A52
  0
DICTIONARY
  5
A4F
330
2E
100
AcDbDictionary
280
     1
281
     1
  3
ACAD_XREC_ROUNDTRIP
360
A50
  0
DICTIONARY
  5
A5D
330
35
100
AcDbDictionary
280
     1
281
     1
  3
ACAD_XREC_ROUNDTRIP
360
A5E
  0
DICTIONARY
  5
A65
330
39
100
AcDbDictionary
280
     1
281
     1
  3
ACAD_XREC_ROUNDTRIP
360
A66
  0
DICTIONARY
  5
A57
330
32
100
AcDbDictionary
280
     1
281
     1
  3
ACAD_XREC_ROUNDTRIP
360
A58
  0
DICTIONARY
  5
A5B
330
34
100
AcDbDictionary
280
     1
281
     1
  3
ACAD_XREC_ROUNDTRIP
360
A5C
  0
DICTIONARY
  5
A75
330
41
100
AcDbDictionary
280
     1
281
     1
  3
ACAD_XREC_ROUNDTRIP
360
A76
  0
DICTIONARY
  5
A63
330
38
100
AcDbDictionary
280
     1
281
     1
  3
ACAD_XREC_ROUNDTRIP
360
A64
  0
DICTIONARY
  5
A47
330
2A
100
AcDbDictionary
280
     1
281
     1
  3
ACAD_XREC_ROUNDTRIP
360
A48
  0
DICTIONARY
  5
A49
330
2B
100
AcDbDictionary
280
     1
281
     1
  3
ACAD_XREC_ROUNDTRIP
360
A4A
  0
DICTIONARY
  5
A4B
330
2C
100
AcDbDictionary
280
     1
281
     1
  3
ACAD_XREC_ROUNDTRIP
360
A4C
  0
DICTIONARY
  5
A4D
330
2D
100
AcDbDictionary
280
     1
281
     1
  3
ACAD_XREC_ROUNDTRIP
360
A4E
  0
DICTIONARY
  5
A55
330
31
100
AcDbDictionary
280
     1
281
     1
  3
ACAD_XREC_ROUNDTRIP
360
A56
  0
DICTIONARY
  5
A71
330
3F
100
AcDbDictionary
280
     1
281
     1
  3
ACAD_XREC_ROUNDTRIP
360
A72
  0
DICTIONARY
  5
A61
330
37
100
AcDbDictionary
280
     1
281
     1
  3
ACAD_XREC_ROUNDTRIP
360
A62
  0
DICTIONARY
  5
A73
330
40
100
AcDbDictionary
280
     1
281
     1
  3
ACAD_XREC_ROUNDTRIP
360
A74
  0
DICTIONARY
  5
A59
330
33
100
AcDbDictionary
280
     1
281
     1
  3
ACAD_XREC_ROUNDTRIP
360
A5A
  0
DICTIONARY
  5
A6F
330
3E
100
AcDbDictionary
280
     1
281
     1
  3
ACAD_XREC_ROUNDTRIP
360
A70
  0
DICTIONARY
  5
A6D
330
3D
100
AcDbDictionary
280
     1
281
     1
  3
ACAD_XREC_ROUNDTRIP
360
A6E
  0
DICTIONARY
  5
A67
330
3A
100
AcDbDictionary
280
     1
281
     1
  3
ACAD_XREC_ROUNDTRIP
360
A68
  0
DICTIONARY
  5
A69
330
3B
100
AcDbDictionary
280
     1
281
     1
  3
ACAD_XREC_ROUNDTRIP
360
A6A
  0
DICTIONARY
  5
A5F
330
36
100
AcDbDictionary
280
     1
281
     1
  3
ACAD_XREC_ROUNDTRIP
360
A60
  0
DICTIONARY
  5
A53
330
30
100
AcDbDictionary
280
     1
281
     1
  3
ACAD_XREC_ROUNDTRIP
360
A54
  0
DICTIONARY
  5
A6B
330
3C
100
AcDbDictionary
280
     1
281
     1
  3
ACAD_XREC_ROUNDTRIP
360
A6C
  0
XRECORD
  5
A45
102
{ACAD_REACTORS
330
1A
102
}
330
1A
100
AcDbXrecord
280
     1
102
MATERIAL
148
0.0
149
0.0
149
0.0
 93
        0
 94
      127
282
     0
 72
     0
 77
     0
171
     0
175
     0
179
     0
273
     0
  0
XRECORD
  5
1C
102
{ACAD_REACTORS
330
1A
102
}
330
1A
100
AcDbXrecord
280
     1
270
     1
271
     1
  0
XRECORD
  5
1B
102
{ACAD_REACTORS
330
1A
102
}
330
1A
100
AcDbXrecord
280
     1
270
     1
271
     1
  0
XRECORD
  5
1F
102
{ACAD_REACTORS
330
1A
102
}
330
1A
100
AcDbXrecord
280
     1
270
     1
271
     1
  0
XRECORD
  5
1E
102
{ACAD_REACTORS
330
1A
102
}
330
1A
100
AcDbXrecord
280
     1
270
     1
271
     1
  0
XRECORD
  5
20
102
{ACAD_REACTORS
330
1A
102
}
330
1A
100
AcDbXrecord
280
     1
270
     1
271
     1
  0
XRECORD
  5
1D
102
{ACAD_REACTORS
330
1A
102
}
330
1A
100
AcDbXrecord
280
     1
270
     1
271
     1
  0
XRECORD
  5
A44
102
{ACAD_REACTORS
330
12
102
}
330
12
100
AcDbXrecord
280
     1
102
MATERIAL
148
0.0
149
0.0
149
0.0
 93
        0
 94
      127
282
     0
 72
     0
 77
     0
171
     0
175
     0
179
     0
273
     0
  0
XRECORD
  5
14
102
{ACAD_REACTORS
330
12
102
}
330
12
100
AcDbXrecord
280
     1
270
     1
271
     1
  0
XRECORD
  5
13
102
{ACAD_REACTORS
330
12
102
}
330
12
100
AcDbXrecord
280
     1
270
     1
271
     1
  0
XRECORD
  5
162
102
{ACAD_REACTORS
330
12
102
}
330
12
100
AcDbXrecord
280
     1
 70
     1
 90
1959938040
 71
     1
  1
3A43FDD6-FF8F-4DAF-9221-4A320DCDE0C7
311
504B03040A0000080000077164433DEE336E79000000790000001B0000006175746F6465736B2D64657369676E2D7061636B6167652E786D6C3C3F786D6C2076657273696F6E3D22312E302220656E636F64696E673D227574662D3822203F3E3C666F726D6174733E3C666F726D61743E687474703A2F2F736368656D612E
311
6175746F6465736B2E636F6D2F64657369676E2D7061636B6167652F323030393C2F666F726D61743E3C2F666F726D6174733E504B030414000608080007716443FAA28935A700000035010000130000005B436F6E74656E745F54797065735D2E786D6CA58FC10E823010447FA5D93B143D1863281ED43FE0076ADD4223DD
311
36ED62F0EF2DE16ABC78DC9DC99B99F6BCF849BC30651748C1AE6E402099F070342898D9564710E7AEEDDF11B3285ECA0A46E67892329B11BDCE75884845B12179CDE54C838CDA3CF58072DF34076902311257BC32A06BAF68F53CB1B82DE5BDE5DE1D81B86CBEBED814E818276734975A321846AE3227D41EE4578023FB1F
311
A00CF80158D5122CD76EB9FB00504B030414000608080007716443D29932E1F80000009701000008000000636F72652E786D6C8D905D6EC3201084AF82F6B5C206E326C6C24451D59EA01740405C9418227EA21EBF3871A4F6AD4FBB1AE66347230EDFCB05DD6C4C2EF80968430059AF83717E9EA0E4131E001DA48821E45F
311
36405E2D7682550629E618CA759374F0D9FA5C551F8CDD449592CD80F4A52E1324FD6517D5A892AB239D9BABD26735DB863EB70A97E20C7A1C71A6FEE74ECE4690C3B11BF69C30BCE7DD11F78C33CCDFDF087E658CF774E01F7CB713ED0A4B91DDF2BCAFA355D91A901DA10C538A49FF49FB910C23ED5F081D0911ED6AFF03
311
95ABF927549CCFACDBE23EB00492D620F70729528EB5D0CD504BC828A95BCDD34AD1AE35D571EFB0CEB552F903504B03041400060808000771644397A4D5957D0000009D00000007000000636E782E786D6C4DCCD10A83201886E15B91FFDCB5A6C604356C7921B12C64A6C36974F9ABD1C18E3E78F87845BB2D1EAD367D5C
311
0C12EACB15900DCF38BA304B2879C27740AD1229C6FC77031486C54A38189498532CEF93463B0DC5E75DBD0BAF133967B4D3ACC6BA6938A6ECC130378462DD6B4D486F787733502951FD4AFB1E61F505504B03041400060808000771644302C4F1032B0100001E0200002D00000039393534424135312D413636392D343543
311
352D394533342D4144414133334445394232452F636F72652E786D6C8D514B6EC23014BC8AE51555E5C4260E22C8310A851BF402217E8005B1237F2A8E5FA709B4DDB189A37933F3C61EB1BDF737F405CE6B6B6ACC328A1198CE2A6DCE358EE144D6186DA570D6863F348C4CDB438D47184B7176360E33D45913C084841AAB
311
60065BEF2160D4DDD24F8D7D7781BECDDA1812C35FB3A1EDAEED193296A571E249E1834B01D0B464FC62595525DF352523CD6A55115E7E94A43A149C34FBA6298AFDA1DA2D0F229F8452C4A8D52CD72AC5D1270DEE5593512C45D0FD237EE7A00DA0B05C525610C608E59F8C6FE87AC3F83B651B4A453ED2FF89E2A05E1445
311
6D42B19CE34E328F2513F9349042D978BC3DC2C07DB02EA071DFC243F786F374DDE4B0E2B3830FD6A5E75C5C8FCFD9D31DFA2328648790EAC6B2FC5D918F6D4991FF5499CEB159F90D504B0304140006080800077164436A77868595000000F50000002C00000039393534424135312D413636392D343543352D394533342D
311
4144414133334445394232452F636E782E786D6C5D8E4B0EC2300C44AF12795F023B164E2A246EC00942E396887C503E88E313438550375EBC9979328EAFE0C5937271292A38ECF620284EC9BAB82868751E8E20468D39A5FA5703114D20058C41E392537BACC8D26C9AAF9D7A17EF2B3C9542F56CAAE99897C2A7C9F82EA0
311
38B402FA97A3E458A3E4B146BEABE232DD2898DE456E6C0514AE642D5951BEB58D477E3EEC5A7E58BF01504B0304140006080800077164433A8F64AFFC000000A00100003700000039393534424135312D413636392D343543352D394533342D4144414133334445394232452F4173736574446174612F636F72652E786D6C
311
8D50596EC32010BD0A9ADF0A1B8C9B180B13595D4ED00B209B382831582C558F5F485CA9FDEB0F83DE32F3F4C4E96BBDA14FED837176005A1140DA4E6E36761920C533EE009DA4F0CEC55F324056AD7A800283148B7769DBA1C9D9A86DCCA875B3DE4115828E80A65BFE0C10A68B5E55A552CC8A70AD36355DD5A22B5A653A
311
EBA408D1E700E871A4BC20C7B2E2554525EA072B454A66DE3566CE37CDD9680FB21B9BEEC849838FBC1971CB38C3FCED85E067C6784B3BFECE0F075117B314D1AC3F1927AF55D433C886508629C5A4FDA06D4FBA9EB64F84F68488BAC8FF98D236FFD3948C8DACD9E33E6C0164097227A4A84B5F79DCCBCCB3742BBF01504B
311
03041400060808000771644360AABAB676010000860500003600000039393534424135312D413636392D343543352D394533342D4144414133334445394232452F4173736574446174612F636E782E786D6CD5544D4F032110FD2B84ABD90FB487A661698C5E7AAA89C63B65672B290B1B9835FAEF855D9A35313DF5A05E80
311
0CEFBD195E86E1DB8FDE9077F0413BDB5056D6948055AED5F6D8D011BB624DC95670EF1C7E835162650F0D4D612AF8D1BB71C8A1163A391A8C51A3ED29071FA1D35663CCB143F0129D7FF26E008F1A0225CAC8101A1AD41BF4B29423BA16C2A96C25CA92951E821BBD82A8989212E394343137D8620C542CD2E4AC4D16715E
311
258EE0A3D7249D1A9AD6EFAC3369E194076D7915198207F4D188CCC4CF21162187C16825D35B2AA710B08820903DAFE21EC182A3EE2153940789D052715BB3BB82B1A25EBDB0D5A65E6FD8EAA6669BBAE655820B7E70CE6492B6D1233710E5E2C122151194AE05AF92A582A735637736A0B40A96EA7FC5CE9F65FC2713EF43
311
007C910703FBEE6136FDDAAE9C24C9A449F61D39AB5E6AC7093EA1970AFE9383CF181BBD7F9DC7C8F48E2BDB7016245931CC4E5E726F0667EC94BDD4B6FBD35FB89A4666FCD13E0E56F105504B030414000608080007716443B020D3C284000000200100004F00000039393534424135312D413636392D343543352D394533
311
342D4144414133334445394232452F4173736574446174612F446566696E6974696F6E4974657261746F7250726F706572746965732E62696EEB606064F90F050C40C008C40D0C8C0CBC40DA3D352FB5283339383923353791811D28E254E99358995A046242259980A220AE4B6A5A62694E09489B6F6671726A4E4E625E6A
311
7E69B120501EAA542137B104685E628E1E481327500226500C32211D621B23505C828101E424492093C137B1A438C61D2217930EA1F50AF2D2417274C000504B030414000608080007716443B6A803D3F2000000300200004500000039393534424135312D413636392D343543352D394533342D4144414133334445394232
311
452F4173736574446174612F496E7374616E636550726F706572746965732E62696EEB606061F90F050C40C008C40D0C8C0CBC40DA3D352FB5283339383923353751052860EC6862ECE6E262A6EBE666E1A66BE2E2E8A66B696464A86BE2686C64E0E2ECE26AE06CCE0E5407D508D66268E2E26A646AA96B6A6262AC6B6206
311
54EDE4E6E4A26B686E6CE06CE6EC6CE9E86A09B2934133A6FFD0578D2BF6509A09684C030303038C6F0F6403D1077BA0DB8034038380038300031CA83830E007408D10057006848B49C2158019CC40050D0C60F000EA061E300F9D00852142E603542DBA2A0686949D0E0C780176AD20E341E109D2FAC19E05483102311F10
311
079727962467E83A1525E6A5A4A680DC0B14A4190200504B030414000608080007716443AF3EE70951000000570000004700000039393534424135312D413636392D343543352D394533342D4144414133334445394232452F4173736574446174612F41737365745461626C654F66436F6E74656E74732E62696E53616060
311
3076343176737131D37573B370D335717174D3B5343232D43571343632707176713570361702AACB4D2C492DCA4CCC492C28484D2C4ACC4B4E050A82112F90744FCD03CA26072767A4E6260200504B030414000608080007716443F865834058000000680000004500000039393534424135312D413636392D343543352D39
311
4533342D4144414133334445394232452F4173736574446174612F53747265616D56657273696F6E5461626C652E696E66558CBD0A80300C06F73E4B117FB66E451741D041DC5BF98480A492E4FDD18EAEC7DD4555D89EF28DF51A0B1BD8340C4DE7DD848B988C0ACF0649566493F2408C508DDEBB99D5129FF8F1AF8CF5B9
311
503E20FAE5A16B5AF702504B030414000608080007716443442C901BFB0000009E0100003500000039393534424135312D413636392D343543352D394533342D4144414133334445394232452F536368656D61732F636F72652E786D6C8D504B6EC32010BD0A9A6D850DC64D8C8589A2AABD407B0164130725068B4FD5E317
311
1C576A77DDCC8CDE47F3F4C4E96BB9A34FED837176005A1140DA8E6E32761E20C50BEE009DA4F0CEC55F3240562D7A80028314B37769DDA1D1D9A86DCCA87593DE4115828E80C67B3E0608E3552FAA52296645B855AB1A6F6AD615AD329D755284E87300F4785226C8F7CD1444FDE0A448C94CBBC24CF9A3B918ED4176E7A6
311
3B72C2F0913767DC32CE307F7D21F89931DED28EBFF1C341D4C52C4534CB4FC2D16B15F504B22194614A31693F68DB93AEA7ED13A13D21A22EF23FA6B44EFF342563236BF6B80F5B004973908D90A22E6DE5B555997769567E03504B0304140006080800077164434B2476EB27010000D30300003400000039393534424135
311
312D413636392D343543352D394533342D4144414133334445394232452F536368656D61732F636E782E786D6CD593CF4E032110C65F85CCD5EC2E680F4DC3D283074F5EAC2F80ECB492B2CC863F46DF5ED872A889578D5E0833FC862FF3C1C8FDFBECD81B8668C98F207A0E0CBDA1C9FAD308391DBB2DB0BD9281285D61C0
311
BC9E71849A06254F81F2D252131E7576A9649DF5E796BCA779267F30AF386B60C6E91847886BD8EB9C68C278EE279D742FFA80917230586EA822CC91D1AE68A1EF72047558ABD8D13A94430594CCC1369D1A83BA56EB4B7F722884923185D25523D3C75214F4B2386B742ACD0F2B7861944C76C6469A803AE104EA968BBB4E
311
888E6F9EC566C7B73BB1B9E162C7B91C2AAEE40B916B45D6270CB4304365E313A802D56325876A8B92756DEC037A0CD65C1AFB7977BEC8FD037B9ED04F181ECB1B04ABDD6FB9F49DEA5F356B58E7AF7CAD50A6547D02504B0304140006080800077164432F7B2A8D8D0100005E0600003D00000039393534424135312D4136
311
36392D343543352D394533342D4144414133334445394232452F536368656D61732F436F6D6D6F6E536368656D612E786D6CC5944D6EC2301085F79C22F20550BB4E90A0486D24D44551BA1FE201AC3A76E43841B97D9D716A151228B448CD2A9267BE37CF3F2F9E5715DA75BEC702669388BE384B97510332614FBA28B4F2
311
AB6C3689A76E2554ADAD116A17099EB00554D8574565BD91224FD81664852CE2B8154A58A1556AD180D566091612664DED569B4E85C89E16E0A9B2B84343744F7E4753390A3B1530085C2BD91E211F89D94302D46B10936CAFC4265D326F95451236E83C7F5BE91CFB9E3104743B67DBD2D938F13C3A124D749E26750EF22A
311
1A551EB9BD06ADA0F879D09BD159FA3AC6BD7CE837AB7C607BD0860F8E1EA4D487A296569412DD55AAB1FADA973B4F9083BB8EDAB4FF3802C72A37A2EC5ED2608A7BB8CDDE56F432ECBE2E360A841CA8FC7ABBDDD1248C2EA913094F69A1B5445024FA2238473550BCEC8BB05B8A99EEA5F6BCC0CF6AC109DE27C7B30BAFDF
311
28F8C11D2C90FB5C21787326969A2ED91EA8B72F1F6D37D888D158BBD0EF3691A49D9F10AE0363E733C8B58751DC3FA1E6BC019523FF2B329ECEBB54F4893D9B7C02504B0304140006080800077164437229482E27050000001600003E00000039393534424135312D413636392D343543352D394533342D41444141333344
311
45394232452F536368656D61732F47656E65726963536368656D612E786D6CDD586D4FE33810FECEAFB0F27D4BCB1DAB5BA9456A41F4FA0171A2705F2D37718AEF9CA4B29D42EFD7DF783C3549CBB601F676B587549197F1CC3CF3F278E2E1D85AE9E6E9A32CC4C509C3BFE1C3EC8AAD851E2553594AA3D2F03AB938199EC2
311
AB2836115606B93B5966D2DC0807D24237C4BD4894779B15C9172429562B298C285389CABD40949E954E2EA5612A1B2541E39FD2585595095BD50BADD251920B6D65C28C145955EACD2871A686FBB5777D801A4949543A7746954BD4A9AB54686FF1A83E946C291FB7FD0E5ABF6AA414057875C4E97D23147CC4B163615255
311
5A8A1271A495AE0C5F6C78B5F84BA62E0919C94368B45848C8E3A59761930DBB0D323E93A4237A1D647CB49721EB3C53795EFB000BADABA7B42A4BD02F33E12BC68E120B91D4006C2DF4DD28E9F77E199CA3F169F366D2BC198F9241C29A3E2138B41CFDB8D69570886CC70FAE0AB1943C1799443B4D6533FF8A5DFB571727
311
54C68C0D27555D6696ADA44965E960F5368BAA4C8D2CE09955FF485454A852157501EE268CAE15204C756DD51A44426915E23948010EBADE970AD1F59623A85344156FF1AE85D1C85C4374D55AB90D178EF733B94CD8D1C0A3BB14D0BB860A8C2B5A7983CD2FDFC3E8525716E22AADED06AF771E2B66FAB2D487B80D8FCAB9
311
15546579219DD0542E79AB277E57CB470D3F673158B4FE40B81C10955D0923CB74D3CDF7E8F97D73E9CF59A0AE01E1FFDE8946A40E361AAE60577BA6E219F4CECF623EA1D548066AE720DD50CD1DE29B5EDF9349A09F7D32614433A3041A81AEF7A57C3F04B28B05DC85720804C7E4EA1A4832DDF027E9BBE23D154E1A8EC5
311
2450E9A190FC100A4E6B57D58E572B91020977C20F8923F2BDC4C5814A8E13D342A47FE722953CADF5EBEC34210976E925427A71CF8FF9452B2DBAB352E75C695D171C7EAAC4B92A8C03FD58BA731062332F0402BECA215BC3A3B5626115A94EFD2CC19D2C605715AE36921AE4F379FFC5CAA51762F70D210F015D8E00824C
311
73E06858C9958661921762D5211177B883AF8586D10352021793ED93D6C8718D4A191A46D878151D42F75A115DD4C58A8B02A60898ABBA6CC6BDB32F3B7F31F0E3A0E608FBE7618F3AD01C9F06FD7EBF5B8304C130B2BC8733303CFB01E99C1470738D490917909470D14ACA0462FC4A32683F6E591715AF60FC079D71F6A7
311
F61B170B05D31CBB4D716003295F6FA4232698BE0676755A51ACB4847904150F3EC794CDE9C58773063B478799F2EC1C4CBF89E2095004B85FC110B24C59D7A0825F23BC1BF1CCAEB62F7DBC70795446D1DB8D56061395D2DB68052EA72C3CC0F760A8996B5315ECD63DC2F7DB0D7DEB056E24A5D1089A6C9930D06D595A19
311
F8F2B4DC884CD560AB4BEF455C775E037439AAC0D2422BD126F9F075AB680D3F7F244C7B0E5808B848416712D5E57009B447A8275A96197B52EEB11362CA59DB3A8CEE3C932BF74816A04F483B8C1AF8615095CCE7EBDEC0B6C1AE50F4C3650956BA94A5177B0B8910C2186FBADF456C5A883F017113E4DBB5344665920176
311
80EB37A96F85D85BF9819029937CE9BF6436DC12BF843D7A002C411100E024CAA628CAE624FA9D723E38FB0DB698FF22E9345A2F11D6C1086C533F45D19F3B0245150F2D1AFCEB1F7ADEA506890D532BEC15386B93397C17F806387A48B5F6875EC0B5F6741A8E6FB6FF1F66BDE742230DD66AD7C4385BFBAD21FB36A65EB4
311
BD6652F95DD69FB9080F0811CE5A8F6E600787B324015FD7470ECBF6C186B5780C146DAB96F608BDFDF8153F6EA7F377841B567DD8F21F46AE957C7A87755A89BBEF413786A7637F7E174E542F4EFE05504B0304140006080800077164430A3355BE74010000170400004500000039393534424135312D413636392D343543
311
352D394533342D4144414133334445394232452F536368656D61732F52656E6465724D6174657269616C536368656D612E786D6CAD93DF6AC23014C6EF7D8A90075895B1BB54D00EA430D968A7B725B6C73690269244C5B75FFED955866C0C7B9593F3E577724EBE9285D660CABA839ECE27C87F6493BFA213E5292E4034A0
311
D6D480629407159E4F486215837A4935047926FB5E8A91CCA5065D2E0CB4A0106B521C345B509A4981D1E1B8E3AC4EF19E720D1829A08D14FC9262A38E363EB9BBCC7CE10819A09BE2CD03F3FEC0A10761A8B1C4B55BF0825EFE86F6644BFA85FABE2A1FCAFB507062707E287305C2BE55FD4F66691413AD1FA83E5353773F
311
38FE29FCBC82761859D64956833F5A7B1B54654715349537180E068919ED331871BA03EBB2D286B6ACA546032244026E4BF9F186A9AD149A489BDE10ECB673E6E8E0F56EF771CCDAFBE03C2E4C64CE06663ECADD01932454BB16224B293950319EC22713A632B26DF9D5C8FB60F2D8BCCBDBCE4912CF0EAC4C72197E963835
311
A7AC6AB7EBEF5AA478FAF43C7BF1C16A1C2CC7C122C5DF3D3904CA3CC2B7E456A12049FC3B85FF723EF902504B010214000A0000080000077164433DEE336E79000000790000001B00000000000000000000000000000000006175746F6465736B2D64657369676E2D7061636B6167652E786D6C504B010214001400060808
311
0007716443FAA28935A7000000350100001300000000000000000000000000B20000005B436F6E74656E745F54797065735D2E786D6C504B0102140014000608080007716443D29932E1F80000009701000008000000000000000000000000008A010000636F72652E786D6C504B010214001400060808000771644397A4D5
311
957D0000009D0000000700000000000000000000000000A8020000636E782E786D6C504B010214001400060808000771644302C4F1032B0100001E0200002D000000000000000000000000004A03000039393534424135312D413636392D343543352D394533342D4144414133334445394232452F636F72652E786D6C504B
311
01021400140006080800077164436A77868595000000F50000002C00000000000000000000000000C004000039393534424135312D413636392D343543352D394533342D4144414133334445394232452F636E782E786D6C504B01021400140006080800077164433A8F64AFFC000000A00100003700000000000000000000
311
0000009F05000039393534424135312D413636392D343543352D394533342D4144414133334445394232452F4173736574446174612F636F72652E786D6C504B010214001400060808000771644360AABAB676010000860500003600000000000000000000000000F006000039393534424135312D413636392D343543352D
311
394533342D4144414133334445394232452F4173736574446174612F636E782E786D6C504B0102140014000608080007716443B020D3C284000000200100004F00000000000000000000000000BA08000039393534424135312D413636392D343543352D394533342D4144414133334445394232452F417373657444617461
311
2F446566696E6974696F6E4974657261746F7250726F706572746965732E62696E504B0102140014000608080007716443B6A803D3F2000000300200004500000000000000000000000000AB09000039393534424135312D413636392D343543352D394533342D4144414133334445394232452F4173736574446174612F49
311
6E7374616E636550726F706572746965732E62696E504B0102140014000608080007716443AF3EE70951000000570000004700000000000000000000000000000B000039393534424135312D413636392D343543352D394533342D4144414133334445394232452F4173736574446174612F41737365745461626C654F6643
311
6F6E74656E74732E62696E504B0102140014000608080007716443F865834058000000680000004500000000000000000000000000B60B000039393534424135312D413636392D343543352D394533342D4144414133334445394232452F4173736574446174612F53747265616D56657273696F6E5461626C652E696E6650
311
4B0102140014000608080007716443442C901BFB0000009E0100003500000000000000000000000000710C000039393534424135312D413636392D343543352D394533342D4144414133334445394232452F536368656D61732F636F72652E786D6C504B01021400140006080800077164434B2476EB27010000D303000034
311
00000000000000000000000000BF0D000039393534424135312D413636392D343543352D394533342D4144414133334445394232452F536368656D61732F636E782E786D6C504B01021400140006080800077164432F7B2A8D8D0100005E0600003D00000000000000000000000000380F000039393534424135312D413636
311
392D343543352D394533342D4144414133334445394232452F536368656D61732F436F6D6D6F6E536368656D612E786D6C504B01021400140006080800077164437229482E27050000001600003E000000000000000000000000002011000039393534424135312D413636392D343543352D394533342D4144414133334445
311
394232452F536368656D61732F47656E65726963536368656D612E786D6C504B01021400140006080800077164430A3355BE74010000170400004500000000000000000000000000A316000039393534424135312D413636392D343543352D394533342D4144414133334445394232452F536368656D61732F52656E646572
311
4D6174657269616C536368656D612E786D6C504B050600000000110011005A0600007A1800000000
310
504B03040A0000080000077164433DEE336E79000000790000001B0000006175746F6465736B2D64657369676E2D7061636B6167652E786D6C3C3F786D6C2076657273696F6E3D22312E302220656E636F64696E673D227574662D3822203F3E3C666F726D6174733E3C666F726D61743E687474703A2F2F736368656D612E
310
6175746F6465736B2E636F6D2F64657369676E2D7061636B6167652F323030393C2F666F726D61743E3C2F666F726D6174733E504B030414000608080007716443D486FD9CA0000000F4000000130000005B436F6E74656E745F54797065735D2E786D6C7D8EC10E82300C865F65E91D8A1E8C310C0EEA1BF002731658846E
310
D98AC1B77784ABF1D8FE5FBFBF75BBCE937A534CCEB38643598122B6FEE978D0B0485F9C41B54DDD7D022595594E1A469170414C76A4D9A4D207E29CF43ECE46F218070CC6BECC4078ACAA135ACF422C856C0E68EA1BF5669944DDD7BCDE7B1F8E415D77AECB980613C2E4AC91FC167A2B244592486606FC29C8FD7F045B9A
310
EF7053A7E60B504B0304140006080800077164438D683779EA0000007C01000008000000636F72652E786D6C8D90D16EC3200C457F05F975220592754944A8B6AE7FB01F40E066A80D4401A67DFE489B4ADBDB9E6C5DDF635B571EBEA72BF9C225BAE007E0150382DE04EBFC38404E67DA023928B984907ED980783DE100AB
310
0C4A8E4BC8F32699E013FA54541F2C6EA28E111310732DCD00D17CE2A42B9D5371C44B356B73D12356FCD115386767C9FD88B3659F3B3B5C403D0B5EBFECDF05154D7DA48D686BDA1D39A3A7FDAB78EB9868597792BB155632B9E971DF2CA8135A5082F19A724E59F3C19B9EB53D6F9E18EF1993BBD5FE07CAB3FD27949D4F
310
B5D8DEBD6311142F8FDC064AEED62C4AB90555EA9A9BFA01504B03041400060808000771644355019EA25F0000007C00000007000000636E782E786D6C4DCB3B0E80201045D1AD90E915ED2CF8AC45050C11660C8261F98AB1B07AC9C97D42D718D865D3E909258CFD00CCE24AC6E326A164D74DC0B4128928FF326038472B
310
A13128B1252AC747C6BAB984FC68F0B87FE8960A5C09FE86CFB69FBA01504B0304140006080800077164431718A34566010000020300000C0000006662782F636F72652E786D6C8D525B6E833010BC8AE5DF0AFC80A624328EDA3437E8051C70280AD8C8D828C7EFF28868AA28AA908C35B3B33B3B20F6D7B64183767D6D4D
310
8E594C31D2A6B0656DAA1C077F8E328CF652386BFDAF328C8C6A758E47184B51391BBA052AACF1DA78408D2DF502AABED71EA3A2814B8EFBE25BB72A56C143457F893B555C54A56316030D7552F4DE8101340F194F2CCFA7AB20332E450875B9B07509D3EA73AD1D96AF9C256F9B4F1EF134394429CF92687B60343A6EDEF9
310
C796F28C6E8F828C62297CDDDEDC154E2BAF4B2C396549C45844D32F96EE68B663E90B653B4A0519CBEF44A12BFF290AB5F1095FECCEB21E4B064626E2CFB6109147BD1AC00F91828C21C26B4AF83E68080442F6EAD4DCF6B80034E8C25B970253DAB052836A8286A9144D8F20330B9DA706B0D9C33EFC499FE73DE0032A53
310
8135E5E17A0A7E9C2EE6A94B149D76D1E0AFC858D7AA6635375B5CCF75D04379611BEBFEA326CBAA6409938C7FAFFC01504B030414000608080007716443C016DCB27E0000009D0000000B0000006662782F636E782E786D6C4DCCD10A83201886E15B91FFDC6AD5A4400DCDBA8F581632D3613A76F9ABD1C18E3E78F87869
310
F7D92C7AEBB01BEF18DCB20290760F3F1BB7324871C10DA08ED3E07DFCBB0172D3A6199C0C9CAEC1A7D745B35EA664E3A1D6B8E785B29142543DC1FD402A5C4B3562795704B765592831B4B55023E49CE6BFD2B167987F01504B030414000608080007716443ED75FACA2D01000015020000310000006662782F4238424141
310
3343362D434536332D344244462D423544362D3932323044414539344144462F636F72652E786D6C8D515B6EC32010BC8AC557AACA36186A391126B2E3E404BD8003244589C1E251E5F885DA91DABFFCB068766676B44BF78FE99E7D4BEB94D12D40050499D4DC08A5AF2D08FE923720DB336A8DF17F6820D3E3245B9060C0
310
E8D59A30AF1037DA4BED23AA8D902B383A273DC8F83D7E5AE0F8979CC6620C3E32DCAD98477E1BAFB240456C471EA3CEDB18205B86A417B0BEE9BB0E1FEAFC70AC714EFAE194F71F439D6FAB0A0EDD714BBAE144CB45C868084AAC7225621C7551D2BE6A92C48C7A353DE3732B472F0560154438472887E413911D6C7688BC
310
43B483909689FE4F1466F1A22828ED71B5C65D640E3044CBA5C1A830E17C7F86918FD9589FA5791B27F91B60B0809060D8E06D43CB851B37104D6BB29A3A6F6CDCF0E6768E74BC3AD784D1321D2996DF0BC69A0ECA7E00504B030414000608080007716443AB86F96B5501000033030000300000006662782F423842414133
310
43362D434536332D344244462D423544362D3932323044414539344144462F636E782E786D6CBD93CD6EC32010845F0571ADFC436245568489D4439FA0875E316C521A0C16E0AA79FB2E094973C9A152D50BB2668799D527CC775F93259F10A2F16EA0AC6E2901A7BC36EE30D025EDAB9E929DE0C1FB7467A3C4C909069A65
310
2AF821F8652E9286BD5C6C42D51A772C6280E897A020A29C6F12EB95B41800AE5A50846904AD41939B11BFF610701514C71349EF405E9EDF881F3F40A5C89B9C2278933B04CF6769BA3351A2AC8C71A051BDC3246BB924AF211E6B2D93AC597DED7AB0D34F12C917AE954B3024970F349F54948D6AE4C81B1C0A1E53407AC5
310
944E335021E7D91A2513426ECEC68B47F0C5B8B4E98AD720F880EEF56AD3F718769E099ECC04C5A102C8049A8A55CBD6156355DBBDB26EDBF65BD63DB56CDBB6BCC976C147EF6DB9843110FC4C9477095CA282F1268F1FE12B3EA24D40D63E9C7E01120194D60B9D5BC65FF2619B75D7FD239FE6FCBE1157C0BF407C03504B
310
0304140006080800077164436A8E06984E0700004F1C0000340000006662782F42384241413343362D434536332D344244462D423544362D3932323044414539344144462F6F626A656374732E786D6CED595B739B4618FD2B0C7D691F8484243B7607D3B1A5C8A3499D64E249A60F9E6156B0C25B73D12C604BFDF53D7B01
310
01120E6ADCB73C4848B07BBEFB653F9C3FB671643C539EB134B9326D6B641A34F1D38025E19559E4EBC18569FCE13A3C4DF3DA32D348484CAF4C71DB749D90A7C546DF0AE89A1451DEBABBB8F9CBC87C9A50D3F02392655766E63FD29858A4C8D380664F5640726285EBAD655B6A611336E464F3D802DD104E931C9CE27E02
310
1443316537FF8ECCA1EB0CC573D711DF7AD5B8D7AA49F7AAA194BAC9254BB29C24FE014B2D98712F9626F674FE7E7C7639389B4E2783E9F9D81EDC2C6EE603FBDD64343B9FCD2EAFDF5F82BD559A465AA6806E6812C07E3BD3B59DA1785289AE35708C6B3F4D12EA4B45425552AC3620A31948D5D4376AFEB58544B5C752C2
310
DAFF8978AE59A8DD6E19A163554F453470218826574A5C5EEBF2A5ABBF2178D6C7297946855367398775B57A38A2C27447CE50DD759DD5DE162C33629253CE4864446CC5098751B0542C711DB541C388E0E080328404D272EA71D3B71099DF0F9D635CAE8B28129161BA32B03C841FCD33C919FB87F23DF775CD802758B860
310
497EA1B9CC771B6ABA97CE50DE741D71998CF543A548631D91108E0231D5D396A03311FACBB9E97E58ACB6F7221D1C27BEE1E986F25C389DB0A3E40B8EACAF424B9AACDDCB72620384514AD53BF74AF902CD7F44F6D8B302BB71B69D6EA77A6DCE4992AD531EC336C6C8188CF035326CF92D7ED77E39C36A73D37A5DFA4498
310
0A555DFCB83E9B32485D69FE6BEA749D67387CCA27FAD1BD4F22F8F31D4BA020E1244694E21652FB7AB535DD251227123D7691C8B52132D87DC64F67A861F65629C34B475D028D6A1AE33E4682DAA447828D0E3BDDA27A70E6EFCD5417B14BBD676FE2AED7F3FB0FF7055F139FDEE9989ED3354B588EAA799CA186CE1B12A1
310
DAF99C6DC456D3D54255A9C2DAA335363DD1DD4BCA0368E7D048F77523C59ABF0C26128612D60A4BCD893F1D047CEC0B5391A39CEF5080E4A2C0D7F0EF58E6D32822094D8B926E95128577576942371AA63B5176998C5B7ECFE93313AD08226DBFA2A1896FAA57B9FD2AF24887305F971FE1B526EA3D2EAF78F46D0FC5642F
310
24F71FBF8F752FD70D6E902B021A68ED545A58ED0B839F4629F7563B4FE5CCA3C8DF1A818774AA2C2750108B3282CBE4142A19BC80ADD745860C7DC47EDF96B3BA8F8CAC897D66D4BF5B613D45DE4616205C47708B86C76212526F4D822E72756A157626213BA0395D47908B3DB37CE791DC1B05343C453527815FBE297A18
310
A559C6129AA1F21D557E5D1B230B294959B3645958B5A568967931CD49748A06044C8772650193DDB28F26E4FB3C56DEFB9AC5EAA0FF93477082AE344D3C86A676DB4317B67536EEC53BBCADC4966244059A117FE7BD50163EE63D285521591A515D5B66F471B829722FDD101F6EDD03F6205684515BA02BE23F894AE4F945
310
F4560E92D168EDB1282A620F1F96E00CD327B4FB69A106AE725F4E63B477242F781F22E767A3033AAAFB68A7C01AA1358BD07B7B31D97468BD911065676354CAD7E81DC1B42AE28D47E2B4487A398A35697BA4866F9B55C0F6E457349D68404B600DE83AE8D6AB525BE66CB87AE4E160983F7668A2919D4A4889D40D283235
310
E25266BE9D97917813A903E241BD6D5632BB0ACFD709701DF86F4B204E7B15AC694B0965675BEF37A15591ED0BCEB419F3C7225E25841D8FC84639BF2379F670ABCAF643A8AED626094BB20045575421A3D1A97ACDA326EC06BF55E05F9716A63C1DF04B61BB982639111DE99DF8117D21C7CB443725B56F29FA82DEB43EDD
310
DE9F280F76F446FF2C5A49FA722205BD6B267AB40352A523545771C8419309B7D25E30F979D4A9CF477E1E7570AC46FE57672004B5CC7ADA57847F9E70D4D1B1FC83279E9BDD9F6427663EBA0595D66ACCAD7CE1FA271D4FAABA299A95B7389EC8C14A855A55B7A32D161271592C7A7789652654805D1CFFE76EA2AB3A2B72
310
DAFAA14ACDDE69DD847DD00935CEC6F2489C1CD4E046DA9E5C4F278BF9FC7CB0585C2C06D3F9F5627039C668797A3D198FE6B3F9FBD1EC5DA520ED1E55C29325D045C78094878BFE2BD2A0160BA3E42C8D58806942608434C5290633851E337F1ED34C762840D658817E93D063F7B31ACEE6641551BDDB7F24986A47190A00
310
7454F879F3BEF10BE6A962A4796562D2653DE14B3B9A69A0005F99CF6200E9D3CC5A613626A69012BC15C3D00F4942D1FBA84DD5FF6A97D04DA344544BFA940A2D97CA1F5A00F4881B8CEC1A1312C99B7E7E9AE0253B06C9F17355E4E8E3942CFB1B9530920CECAE84D293BE88254F9AF416D1F8BA58B625D73434D26BBCFF
310
AA1328D4414E782887F4823FCDD2F5FCF310C34163F9C9D84445085BF6471A700A672E445F042F825768CC0D11CDF4ECF787CF3CC57BA9D85830B880F1EBF6E2FCB787591AC769A26E3D5CE30018E0ED9671FF887755C1035A3F2ADE08640FE3913D79909378FD72C05B918C5A24C89E70C319169C558A6E981F7E795035B4
310
2586C2142D0F5DCE0D9D17D1D62AA083C1B47A33672086C43B20113132B04B695F1DC60FE552B0CA314677FF05504B030414000608000007716443000000000000000000000000350000006662782F42384241413343362D434536332D344244462D423544362D3932323044414539344144462F76657274696365732E6269
310
6E504B030414000608080007716443F270F1330600000004000000360000006662782F42384241413343362D434536332D344244462D423544362D3932323044414539344144462F747269616E676C65732E62696E636660600000504B030414000608000007716443000000000000000000000000370000006662782F4238
310
4241413343362D434536332D344244462D423544362D3932323044414539344144462F617474726962757465732E62696E504B030414000608080007716443B28BD8DE8F00000041010000360000006662782F42384241413343362D434536332D344244462D423544362D3932323044414539344144462F6469726563746F
310
72792E786D6C858F410EC2201045AF4266AF15DDB800BA74E7C21B903225242D6328188F2FA5C4183471359997F9FF81E89FF3C41E1816475E02DF1F80A11FC8386F25A438EECEC07A250251FC3803E6F58C12560C4AD840E95E91C151A72936F496F35732D860FE635F62C8F2DA16B505C545B74125BAA2FA9E05D7CC053D
310
063734D5A7665FD55B6B8D15D5F1BFEAFD8490FFA45E504B030414000608080007716443E5826A48FC000000A00100003B0000006662782F42384241413343362D434536332D344244462D423544362D3932323044414539344144462F7265736F75726365732F636F72652E786D6C8D504B6E833010BD0A9A6D65B00D4D01
310
19476D9A1BF4029699102BC146FE543D7E4DA052BBEB6666F43E9AA7278E5FF3BDF8441F8CB303B092428156BBD1D86980142FA485E22885772EFE924161D58C03AC3048317997961DD2CE46B431A3D68DB8832A048C50E87B3E0608FA8AB32A558A59116EE5A2F44D4D58B232D3592745883E0728B627EB04E931B8E43506
310
516DAC14299971D79831FF3417831EE43367F5CBE19D11DED427D2F0B626DD8951723EBCF2B78EF296766751AD6629A2997F326A8F2AE20892535613C6086D3E58D3D3B667CD13653DA5A25AE57F4C6919FF694AC6C69AEF71375B00C97290072145B5F695D7A3CCBCD76EE537504B010214000A0000080000077164433DEE
310
336E79000000790000001B00000000000000000000000000000000006175746F6465736B2D64657369676E2D7061636B6167652E786D6C504B0102140014000608080007716443D486FD9CA0000000F40000001300000000000000000000000000B20000005B436F6E74656E745F54797065735D2E786D6C504B0102140014
310
0006080800077164438D683779EA0000007C010000080000000000000000000000000083010000636F72652E786D6C504B010214001400060808000771644355019EA25F0000007C000000070000000000000000000000000093020000636E782E786D6C504B01021400140006080800077164431718A34566010000020300
310
000C00000000000000000000000000170300006662782F636F72652E786D6C504B0102140014000608080007716443C016DCB27E0000009D0000000B00000000000000000000000000A70400006662782F636E782E786D6C504B0102140014000608080007716443ED75FACA2D010000150200003100000000000000000000
310
0000004E0500006662782F42384241413343362D434536332D344244462D423544362D3932323044414539344144462F636F72652E786D6C504B0102140014000608080007716443AB86F96B55010000330300003000000000000000000000000000CA0600006662782F42384241413343362D434536332D344244462D4235
310
44362D3932323044414539344144462F636E782E786D6C504B01021400140006080800077164436A8E06984E0700004F1C000034000000000000000000000000006D0800006662782F42384241413343362D434536332D344244462D423544362D3932323044414539344144462F6F626A656374732E786D6C504B01021400
310
1400060800000771644300000000000000000000000035000000000000000000000000000D1000006662782F42384241413343362D434536332D344244462D423544362D3932323044414539344144462F76657274696365732E62696E504B0102140014000608080007716443F270F1330600000004000000360000000000
310
0000000000000000601000006662782F42384241413343362D434536332D344244462D423544362D3932323044414539344144462F747269616E676C65732E62696E504B01021400140006080000077164430000000000000000000000003700000000000000000000000000BA1000006662782F42384241413343362D4345
310
36332D344244462D423544362D3932323044414539344144462F617474726962757465732E62696E504B0102140014000608080007716443B28BD8DE8F0000004101000036000000000000000000000000000F1100006662782F42384241413343362D434536332D344244462D423544362D3932323044414539344144462F
310
6469726563746F72792E786D6C504B0102140014000608080007716443E5826A48FC000000A00100003B00000000000000000000000000F21100006662782F42384241413343362D434536332D344244462D423544362D3932323044414539344144462F7265736F75726365732F636F72652E786D6C504B0506000000000E
310
000E0080040000471300000000
  0
XRECORD
  5
17
102
{ACAD_REACTORS
330
12
102
}
330
12
100
AcDbXrecord
280
     1
270
     1
271
     1
  0
XRECORD
  5
16
102
{ACAD_REACTORS
330
12
102
}
330
12
100
AcDbXrecord
280
     1
270
     1
271
     1
  0
XRECORD
  5
18
102
{ACAD_REACTORS
330
12
102
}
330
12
100
AcDbXrecord
280
     1
270
     1
271
     1
  0
XRECORD
  5
15
102
{ACAD_REACTORS
330
12
102
}
330
12
100
AcDbXrecord
280
     1
270
     1
271
     1
  0
XRECORD
  5
A46
102
{ACAD_REACTORS
330
22
102
}
330
22
100
AcDbXrecord
280
     1
102
MATERIAL
148
0.0
149
0.0
149
0.0
 93
        0
 94
      127
282
     0
 72
     0
 77
     0
171
     0
175
     0
179
     0
273
     0
  0
XRECORD
  5
24
102
{ACAD_REACTORS
330
22
102
}
330
22
100
AcDbXrecord
280
     1
270
     1
271
     1
  0
XRECORD
  5
23
102
{ACAD_REACTORS
330
22
102
}
330
22
100
AcDbXrecord
280
     1
270
     1
271
     1
  0
XRECORD
  5
27
102
{ACAD_REACTORS
330
22
102
}
330
22
100
AcDbXrecord
280
     1
270
     1
271
     1
  0
XRECORD
  5
26
102
{ACAD_REACTORS
330
22
102
}
330
22
100
AcDbXrecord
280
     1
270
     1
271
     1
  0
XRECORD
  5
28
102
{ACAD_REACTORS
330
22
102
}
330
22
100
AcDbXrecord
280
     1
270
     1
271
     1
  0
XRECORD
  5
25
102
{ACAD_REACTORS
330
22
102
}
330
22
100
AcDbXrecord
280
     1
270
     1
271
     1
  0
XRECORD
  5
A79
102
{ACAD_REACTORS
330
A78
102
}
330
A78
100
AcDbXrecord
280
     1
102
ACAD_ROUNDTRIP_2012_MLEADER_STYLE
298
     1
  0
CELLSTYLEMAP
  5
A1E
102
{ACAD_REACTORS
330
84E
102
}
330
84E
100
AcDbCellStyleMap
 90
        3
300
CELLSTYLE
  1
TABLEFORMAT_BEGIN
 90
        5
170
     1
 91
        0
 92
    32768
 62
   257
 93
        1
300
CONTENTFORMAT
  1
CONTENTFORMAT_BEGIN
 90
        0
 91
        0
 92
      512
 93
        0
300

 40
0.0
140
1.0
 94
        5
 62
     0
340
55
144
0.25
309
CONTENTFORMAT_END
171
     0
 94
        0
309
TABLEFORMAT_END
  1
CELLSTYLE_BEGIN
 90
        1
 91
        1
300
_TITLE
309
CELLSTYLE_END
300
CELLSTYLE
  1
TABLEFORMAT_BEGIN
 90
        5
170
     1
 91
        0
 92
        0
 62
   257
 93
        1
300
CONTENTFORMAT
  1
CONTENTFORMAT_BEGIN
 90
        0
 91
        0
 92
      512
 93
        0
300

 40
0.0
140
1.0
 94
        5
 62
     0
340
55
144
0.18
309
CONTENTFORMAT_END
171
     0
 94
        0
309
TABLEFORMAT_END
  1
CELLSTYLE_BEGIN
 90
        2
 91
        1
300
_HEADER
309
CELLSTYLE_END
300
CELLSTYLE
  1
TABLEFORMAT_BEGIN
 90
        5
170
     1
 91
        0
 92
        0
 62
   257
 93
        1
300
CONTENTFORMAT
  1
CONTENTFORMAT_BEGIN
 90
        0
 91
        0
 92
      512
 93
        0
300

 40
0.0
140
1.0
 94
        2
 62
     0
340
55
144
0.18
309
CONTENTFORMAT_END
171
     0
 94
        0
309
TABLEFORMAT_END
  1
CELLSTYLE_BEGIN
 90
        3
 91
        2
300
_DATA
309
CELLSTYLE_END
  0
XRECORD
  5
A77
102
{ACAD_REACTORS
330
84E
102
}
330
84E
100
AcDbXrecord
280
     1
102
ACAD_ROUNDTRIP_PRE2007_TABLESTYLE
 90
      512
 91
        0
  1

 92
      512
 93
        0
  2

 94
      512
 95
        0
  3

  0
XRECORD
  5
A52
102
{ACAD_REACTORS
330
A51
102
}
330
A51
100
AcDbXrecord
280
     1
102
RTVSPost2010Prop28
280
     1
102
RTVSPost2010PropOp28
 70
     1
102
RTVSPost2010Prop29
280
     1
102
RTVSPost2010PropOp29
 70
     1
102
RTVSPost2010Prop30
280
     0
102
RTVSPost2010PropOp30
 70
     1
102
RTVSPost2010Prop31
280
     0
102
RTVSPost2010PropOp31
 70
     1
102
RTVSPost2010Prop32
280
     0
102
RTVSPost2010PropOp32
 70
     1
102
RTVSPost2010Prop33
280
     0
102
RTVSPost2010PropOp33
 70
     1
102
RTVSPost2010Prop34
280
     0
102
RTVSPost2010PropOp34
 70
     1
102
RTVSPost2010Prop35
280
     0
102
RTVSPost2010PropOp35
 70
     1
102
RTVSPost2010Prop36
280
     0
102
RTVSPost2010PropOp36
 70
     1
102
RTVSPost2010Prop37
 90
       50
102
RTVSPost2010PropOp37
 70
     1
102
RTVSPost2010Prop38
140
0.0
102
RTVSPost2010PropOp38
 70
     1
102
RTVSPost2010Prop39
140
1.0
102
RTVSPost2010PropOp39
 70
     1
102
RTVSPost2010Prop40
 90
        0
102
RTVSPost2010PropOp40
 70
     1
102
RTVSPost2010Prop41ColorIndex
 90
       18
102
RTVSPost2010Prop41ColorRGB
 90
        0
102
RTVSPost2010PropOp41
 70
     1
102
RTVSPost2010Prop42
 90
       50
102
RTVSPost2010PropOp42
 70
     1
102
RTVSPost2010Prop43
 90
        3
102
RTVSPost2010PropOp43
 70
     1
102
RTVSPost2010Prop44ColorIndex
 90
        5
102
RTVSPost2010Prop44ColorRGB
 90
      255
102
RTVSPost2010PropOp44
 70
     1
102
RTVSPost2010Prop45
280
     0
102
RTVSPost2010PropOp45
 70
     1
102
RTVSPost2010Prop46
 90
       50
102
RTVSPost2010PropOp46
 70
     1
102
RTVSPost2010Prop47
 90
       50
102
RTVSPost2010PropOp47
 70
     1
102
RTVSPost2010Prop48
 90
       50
102
RTVSPost2010PropOp48
 70
     1
102
RTVSPost2010Prop49
280
     0
102
RTVSPost2010PropOp49
 70
     1
102
RTVSPost2010Prop50
 90
       50
102
RTVSPost2010PropOp50
 70
     1
102
RTVSPost2010Prop51ColorIndex
 90
      256
102
RTVSPost2010Prop51ColorRGB
 90
-16777216
102
RTVSPost2010PropOp51
 70
     0
102
RTVSPost2010Prop52
140
1.0
102
RTVSPost2010PropOp52
 70
     0
102
RTVSPost2010Prop53
 90
        2
102
RTVSPost2010PropOp53
 70
     1
102
RTVSPost2010Prop54
  1
strokes_ogs.tif
102
RTVSPost2010PropOp54
 70
     1
102
RTVSPost2010Prop55
280
     0
102
RTVSPost2010PropOp55
 70
     1
102
RTVSPost2010Prop56
140
1.0
102
RTVSPost2010PropOp56
 70
     1
102
RTVSPost2010Prop57
140
1.0
102
RTVSPost2010PropOp57
 70
     1
102
RTVSPropertyOp0
 70
     1
102
RTVSPropertyOp1
 70
     1
102
RTVSPropertyOp2
 70
     1
102
RTVSPropertyOp3
 70
     1
102
RTVSPropertyOp4
 70
     1
102
RTVSPropertyOp5
 70
     1
102
RTVSPropertyOp6
 70
     1
102
RTVSPropertyOp7
 70
     1
102
RTVSPropertyOp8
 70
     1
102
RTVSPropertyOp9
 70
     1
102
RTVSPropertyOp10
 70
     1
102
RTVSPropertyOp11
 70
     1
102
RTVSPropertyOp12
 70
     1
102
RTVSPropertyOp13
 70
     1
102
RTVSPropertyOp14
 70
     1
102
RTVSPropertyOp15
 70
     1
102
RTVSPropertyOp16
 70
     1
102
RTVSPropertyOp17
 70
     1
102
RTVSPropertyOp18
 70
     1
102
RTVSPropertyOp19
 70
     1
102
RTVSPropertyOp20
 70
     1
102
RTVSPropertyOp21
 70
     1
102
RTVSPropertyOp22
 70
     1
102
RTVSPropertyOp23
 70
     1
102
RTVSPropertyOp24
 70
     1
102
RTVSPropertyOp25
 70
     1
102
RTVSPropertyOp26
 70
     1
102
RTVSPropertyOp27
 70
     1
102
RTVSPropertyOp28
 70
     1
102
RTVSPropertyOp29
 70
     1
102
RTVSPropertyOp30
 70
     1
102
RTVSPropertyOp31
 70
     1
102
RTVSPropertyOp32
 70
     1
102
RTVSPropertyOp33
 70
     1
102
RTVSPropertyOp34
 70
     1
102
RTVSPropertyOp35
 70
     1
102
RTVSPropertyOp36
 70
     1
102
RTVSPropertyOp37
 70
     1
102
RTVSPropertyOp38
 70
     1
102
RTVSPropertyOp39
 70
     1
102
RTVSPropertyOp40
 70
     1
102
RTVSPropertyOp41
 70
     1
102
RTVSPropertyOp42
 70
     1
102
RTVSPropertyOp43
 70
     1
102
RTVSPropertyOp44
 70
     1
102
RTVSPropertyOp45
 70
     1
102
RTVSPropertyOp46
 70
     1
102
RTVSPropertyOp47
 70
     1
102
RTVSPropertyOp48
 70
     1
102
RTVSPropertyOp49
 70
     1
102
RTVSPropertyOp50
 70
     1
102
RTVSPropertyOp51
 70
     0
102
RTVSPropertyOp52
 70
     0
102
RTVSPropertyOp53
 70
     1
102
RTVSPropertyOp54
 70
     1
102
RTVSPropertyOp55
 70
     1
102
RTVSPropertyOp56
 70
     1
102
RTVSPropertyOp57
 70
     1
102
RTVSPropertyOp58
 70
     1
102
RTVSPropertyOp59
 70
     1
102
RTVSPropertyOp60
 70
     1
102
RTVSPropertyOp61
 70
     1
102
RTVSPropertyOp62
 70
     1
  0
XRECORD
  5
A50
102
{ACAD_REACTORS
330
A4F
102
}
330
A4F
100
AcDbXrecord
280
     1
102
RTVSPost2010Prop28
280
     0
102
RTVSPost2010PropOp28
 70
     1
102
RTVSPost2010Prop29
280
     1
102
RTVSPost2010PropOp29
 70
     1
102
RTVSPost2010Prop30
280
     1
102
RTVSPost2010PropOp30
 70
     1
102
RTVSPost2010Prop31
280
     0
102
RTVSPost2010PropOp31
 70
     1
102
RTVSPost2010Prop32
280
     0
102
RTVSPost2010PropOp32
 70
     1
102
RTVSPost2010Prop33
280
     0
102
RTVSPost2010PropOp33
 70
     1
102
RTVSPost2010Prop34
280
     0
102
RTVSPost2010PropOp34
 70
     1
102
RTVSPost2010Prop35
280
     0
102
RTVSPost2010PropOp35
 70
     1
102
RTVSPost2010Prop36
280
     0
102
RTVSPost2010PropOp36
 70
     1
102
RTVSPost2010Prop37
 90
       50
102
RTVSPost2010PropOp37
 70
     1
102
RTVSPost2010Prop38
140
0.0
102
RTVSPost2010PropOp38
 70
     1
102
RTVSPost2010Prop39
140
1.0
102
RTVSPost2010PropOp39
 70
     1
102
RTVSPost2010Prop40
 90
        0
102
RTVSPost2010PropOp40
 70
     1
102
RTVSPost2010Prop41ColorIndex
 90
       18
102
RTVSPost2010Prop41ColorRGB
 90
        0
102
RTVSPost2010PropOp41
 70
     1
102
RTVSPost2010Prop42
 90
       50
102
RTVSPost2010PropOp42
 70
     1
102
RTVSPost2010Prop43
 90
        3
102
RTVSPost2010PropOp43
 70
     1
102
RTVSPost2010Prop44ColorIndex
 90
        5
102
RTVSPost2010Prop44ColorRGB
 90
      255
102
RTVSPost2010PropOp44
 70
     1
102
RTVSPost2010Prop45
280
     0
102
RTVSPost2010PropOp45
 70
     1
102
RTVSPost2010Prop46
 90
       50
102
RTVSPost2010PropOp46
 70
     1
102
RTVSPost2010Prop47
 90
       50
102
RTVSPost2010PropOp47
 70
     1
102
RTVSPost2010Prop48
 90
       50
102
RTVSPost2010PropOp48
 70
     1
102
RTVSPost2010Prop49
280
     0
102
RTVSPost2010PropOp49
 70
     1
102
RTVSPost2010Prop50
 90
       50
102
RTVSPost2010PropOp50
 70
     1
102
RTVSPost2010Prop51ColorIndex
 90
      256
102
RTVSPost2010Prop51ColorRGB
 90
-16777216
102
RTVSPost2010PropOp51
 70
     0
102
RTVSPost2010Prop52
140
1.0
102
RTVSPost2010PropOp52
 70
     0
102
RTVSPost2010Prop53
 90
        2
102
RTVSPost2010PropOp53
 70
     1
102
RTVSPost2010Prop54
  1
strokes_ogs.tif
102
RTVSPost2010PropOp54
 70
     1
102
RTVSPost2010Prop55
280
     0
102
RTVSPost2010PropOp55
 70
     1
102
RTVSPost2010Prop56
140
1.0
102
RTVSPost2010PropOp56
 70
     1
102
RTVSPost2010Prop57
140
1.0
102
RTVSPost2010PropOp57
 70
     1
102
RTVSPropertyOp0
 70
     1
102
RTVSPropertyOp1
 70
     1
102
RTVSPropertyOp2
 70
     1
102
RTVSPropertyOp3
 70
     1
102
RTVSPropertyOp4
 70
     1
102
RTVSPropertyOp5
 70
     1
102
RTVSPropertyOp6
 70
     1
102
RTVSPropertyOp7
 70
     1
102
RTVSPropertyOp8
 70
     1
102
RTVSPropertyOp9
 70
     1
102
RTVSPropertyOp10
 70
     1
102
RTVSPropertyOp11
 70
     1
102
RTVSPropertyOp12
 70
     1
102
RTVSPropertyOp13
 70
     1
102
RTVSPropertyOp14
 70
     1
102
RTVSPropertyOp15
 70
     1
102
RTVSPropertyOp16
 70
     1
102
RTVSPropertyOp17
 70
     1
102
RTVSPropertyOp18
 70
     1
102
RTVSPropertyOp19
 70
     1
102
RTVSPropertyOp20
 70
     1
102
RTVSPropertyOp21
 70
     1
102
RTVSPropertyOp22
 70
     1
102
RTVSPropertyOp23
 70
     1
102
RTVSPropertyOp24
 70
     1
102
RTVSPropertyOp25
 70
     1
102
RTVSPropertyOp26
 70
     1
102
RTVSPropertyOp27
 70
     1
102
RTVSPropertyOp28
 70
     1
102
RTVSPropertyOp29
 70
     1
102
RTVSPropertyOp30
 70
     1
102
RTVSPropertyOp31
 70
     1
102
RTVSPropertyOp32
 70
     1
102
RTVSPropertyOp33
 70
     1
102
RTVSPropertyOp34
 70
     1
102
RTVSPropertyOp35
 70
     1
102
RTVSPropertyOp36
 70
     1
102
RTVSPropertyOp37
 70
     1
102
RTVSPropertyOp38
 70
     1
102
RTVSPropertyOp39
 70
     1
102
RTVSPropertyOp40
 70
     1
102
RTVSPropertyOp41
 70
     1
102
RTVSPropertyOp42
 70
     1
102
RTVSPropertyOp43
 70
     1
102
RTVSPropertyOp44
 70
     1
102
RTVSPropertyOp45
 70
     1
102
RTVSPropertyOp46
 70
     1
102
RTVSPropertyOp47
 70
     1
102
RTVSPropertyOp48
 70
     1
102
RTVSPropertyOp49
 70
     1
102
RTVSPropertyOp50
 70
     1
102
RTVSPropertyOp51
 70
     0
102
RTVSPropertyOp52
 70
     0
102
RTVSPropertyOp53
 70
     1
102
RTVSPropertyOp54
 70
     1
102
RTVSPropertyOp55
 70
     1
102
RTVSPropertyOp56
 70
     1
102
RTVSPropertyOp57
 70
     1
102
RTVSPropertyOp58
 70
     1
102
RTVSPropertyOp59
 70
     1
102
RTVSPropertyOp60
 70
     1
102
RTVSPropertyOp61
 70
     1
102
RTVSPropertyOp62
 70
     1
  0
XRECORD
  5
A5E
102
{ACAD_REACTORS
330
A5D
102
}
330
A5D
100
AcDbXrecord
280
     1
102
RTVSPost2010Prop28
280
     0
102
RTVSPost2010PropOp28
 70
     1
102
RTVSPost2010Prop29
280
     1
102
RTVSPost2010PropOp29
 70
     1
102
RTVSPost2010Prop30
280
     1
102
RTVSPost2010PropOp30
 70
     1
102
RTVSPost2010Prop31
280
     0
102
RTVSPost2010PropOp31
 70
     1
102
RTVSPost2010Prop32
280
     0
102
RTVSPost2010PropOp32
 70
     1
102
RTVSPost2010Prop33
280
     0
102
RTVSPost2010PropOp33
 70
     1
102
RTVSPost2010Prop34
280
     0
102
RTVSPost2010PropOp34
 70
     1
102
RTVSPost2010Prop35
280
     0
102
RTVSPost2010PropOp35
 70
     1
102
RTVSPost2010Prop36
280
     0
102
RTVSPost2010PropOp36
 70
     1
102
RTVSPost2010Prop37
 90
       50
102
RTVSPost2010PropOp37
 70
     1
102
RTVSPost2010Prop38
140
0.0
102
RTVSPost2010PropOp38
 70
     1
102
RTVSPost2010Prop39
140
1.0
102
RTVSPost2010PropOp39
 70
     1
102
RTVSPost2010Prop40
 90
        0
102
RTVSPost2010PropOp40
 70
     1
102
RTVSPost2010Prop41ColorIndex
 90
       18
102
RTVSPost2010Prop41ColorRGB
 90
        0
102
RTVSPost2010PropOp41
 70
     1
102
RTVSPost2010Prop42
 90
       50
102
RTVSPost2010PropOp42
 70
     1
102
RTVSPost2010Prop43
 90
        3
102
RTVSPost2010PropOp43
 70
     1
102
RTVSPost2010Prop44ColorIndex
 90
        5
102
RTVSPost2010Prop44ColorRGB
 90
      255
102
RTVSPost2010PropOp44
 70
     1
102
RTVSPost2010Prop45
280
     0
102
RTVSPost2010PropOp45
 70
     1
102
RTVSPost2010Prop46
 90
       50
102
RTVSPost2010PropOp46
 70
     1
102
RTVSPost2010Prop47
 90
       50
102
RTVSPost2010PropOp47
 70
     1
102
RTVSPost2010Prop48
 90
       50
102
RTVSPost2010PropOp48
 70
     1
102
RTVSPost2010Prop49
280
     0
102
RTVSPost2010PropOp49
 70
     1
102
RTVSPost2010Prop50
 90
       50
102
RTVSPost2010PropOp50
 70
     1
102
RTVSPost2010Prop51ColorIndex
 90
      256
102
RTVSPost2010Prop51ColorRGB
 90
-16777216
102
RTVSPost2010PropOp51
 70
     0
102
RTVSPost2010Prop52
140
1.0
102
RTVSPost2010PropOp52
 70
     0
102
RTVSPost2010Prop53
 90
        2
102
RTVSPost2010PropOp53
 70
     1
102
RTVSPost2010Prop54
  1
strokes_ogs.tif
102
RTVSPost2010PropOp54
 70
     1
102
RTVSPost2010Prop55
280
     0
102
RTVSPost2010PropOp55
 70
     1
102
RTVSPost2010Prop56
140
1.0
102
RTVSPost2010PropOp56
 70
     1
102
RTVSPost2010Prop57
140
1.0
102
RTVSPost2010PropOp57
 70
     1
102
RTVSPropertyOp0
 70
     1
102
RTVSPropertyOp1
 70
     1
102
RTVSPropertyOp2
 70
     1
102
RTVSPropertyOp3
 70
     1
102
RTVSPropertyOp4
 70
     1
102
RTVSPropertyOp5
 70
     1
102
RTVSPropertyOp6
 70
     1
102
RTVSPropertyOp7
 70
     1
102
RTVSPropertyOp8
 70
     1
102
RTVSPropertyOp9
 70
     1
102
RTVSPropertyOp10
 70
     1
102
RTVSPropertyOp11
 70
     1
102
RTVSPropertyOp12
 70
     1
102
RTVSPropertyOp13
 70
     1
102
RTVSPropertyOp14
 70
     1
102
RTVSPropertyOp15
 70
     1
102
RTVSPropertyOp16
 70
     1
102
RTVSPropertyOp17
 70
     1
102
RTVSPropertyOp18
 70
     1
102
RTVSPropertyOp19
 70
     1
102
RTVSPropertyOp20
 70
     1
102
RTVSPropertyOp21
 70
     1
102
RTVSPropertyOp22
 70
     1
102
RTVSPropertyOp23
 70
     1
102
RTVSPropertyOp24
 70
     1
102
RTVSPropertyOp25
 70
     1
102
RTVSPropertyOp26
 70
     1
102
RTVSPropertyOp27
 70
     1
102
RTVSPropertyOp28
 70
     1
102
RTVSPropertyOp29
 70
     1
102
RTVSPropertyOp30
 70
     1
102
RTVSPropertyOp31
 70
     1
102
RTVSPropertyOp32
 70
     1
102
RTVSPropertyOp33
 70
     1
102
RTVSPropertyOp34
 70
     1
102
RTVSPropertyOp35
 70
     1
102
RTVSPropertyOp36
 70
     1
102
RTVSPropertyOp37
 70
     1
102
RTVSPropertyOp38
 70
     1
102
RTVSPropertyOp39
 70
     1
102
RTVSPropertyOp40
 70
     1
102
RTVSPropertyOp41
 70
     1
102
RTVSPropertyOp42
 70
     1
102
RTVSPropertyOp43
 70
     1
102
RTVSPropertyOp44
 70
     1
102
RTVSPropertyOp45
 70
     1
102
RTVSPropertyOp46
 70
     1
102
RTVSPropertyOp47
 70
     1
102
RTVSPropertyOp48
 70
     1
102
RTVSPropertyOp49
 70
     1
102
RTVSPropertyOp50
 70
     1
102
RTVSPropertyOp51
 70
     0
102
RTVSPropertyOp52
 70
     0
102
RTVSPropertyOp53
 70
     1
102
RTVSPropertyOp54
 70
     1
102
RTVSPropertyOp55
 70
     1
102
RTVSPropertyOp56
 70
     1
102
RTVSPropertyOp57
 70
     1
102
RTVSPropertyOp58
 70
     1
102
RTVSPropertyOp59
 70
     1
102
RTVSPropertyOp60
 70
     1
102
RTVSPropertyOp61
 70
     1
102
RTVSPropertyOp62
 70
     1
  0
XRECORD
  5
A66
102
{ACAD_REACTORS
330
A65
102
}
330
A65
100
AcDbXrecord
280
     1
102
RTVSPost2010Prop28
280
     0
102
RTVSPost2010PropOp28
 70
     1
102
RTVSPost2010Prop29
280
     1
102
RTVSPost2010PropOp29
 70
     1
102
RTVSPost2010Prop30
280
     1
102
RTVSPost2010PropOp30
 70
     1
102
RTVSPost2010Prop31
280
     0
102
RTVSPost2010PropOp31
 70
     1
102
RTVSPost2010Prop32
280
     0
102
RTVSPost2010PropOp32
 70
     1
102
RTVSPost2010Prop33
280
     0
102
RTVSPost2010PropOp33
 70
     1
102
RTVSPost2010Prop34
280
     0
102
RTVSPost2010PropOp34
 70
     1
102
RTVSPost2010Prop35
280
     0
102
RTVSPost2010PropOp35
 70
     1
102
RTVSPost2010Prop36
280
     0
102
RTVSPost2010PropOp36
 70
     1
102
RTVSPost2010Prop37
 90
       50
102
RTVSPost2010PropOp37
 70
     1
102
RTVSPost2010Prop38
140
0.0
102
RTVSPost2010PropOp38
 70
     1
102
RTVSPost2010Prop39
140
1.0
102
RTVSPost2010PropOp39
 70
     1
102
RTVSPost2010Prop40
 90
        0
102
RTVSPost2010PropOp40
 70
     1
102
RTVSPost2010Prop41ColorIndex
 90
       18
102
RTVSPost2010Prop41ColorRGB
 90
        0
102
RTVSPost2010PropOp41
 70
     1
102
RTVSPost2010Prop42
 90
       50
102
RTVSPost2010PropOp42
 70
     1
102
RTVSPost2010Prop43
 90
        3
102
RTVSPost2010PropOp43
 70
     1
102
RTVSPost2010Prop44ColorIndex
 90
        5
102
RTVSPost2010Prop44ColorRGB
 90
      255
102
RTVSPost2010PropOp44
 70
     1
102
RTVSPost2010Prop45
280
     0
102
RTVSPost2010PropOp45
 70
     1
102
RTVSPost2010Prop46
 90
       50
102
RTVSPost2010PropOp46
 70
     1
102
RTVSPost2010Prop47
 90
       50
102
RTVSPost2010PropOp47
 70
     1
102
RTVSPost2010Prop48
 90
       50
102
RTVSPost2010PropOp48
 70
     1
102
RTVSPost2010Prop49
280
     0
102
RTVSPost2010PropOp49
 70
     1
102
RTVSPost2010Prop50
 90
       50
102
RTVSPost2010PropOp50
 70
     1
102
RTVSPost2010Prop51ColorIndex
 90
      256
102
RTVSPost2010Prop51ColorRGB
 90
-16777216
102
RTVSPost2010PropOp51
 70
     0
102
RTVSPost2010Prop52
140
1.0
102
RTVSPost2010PropOp52
 70
     0
102
RTVSPost2010Prop53
 90
        2
102
RTVSPost2010PropOp53
 70
     1
102
RTVSPost2010Prop54
  1
strokes_ogs.tif
102
RTVSPost2010PropOp54
 70
     1
102
RTVSPost2010Prop55
280
     0
102
RTVSPost2010PropOp55
 70
     1
102
RTVSPost2010Prop56
140
1.0
102
RTVSPost2010PropOp56
 70
     1
102
RTVSPost2010Prop57
140
1.0
102
RTVSPost2010PropOp57
 70
     1
102
RTVSPropertyOp0
 70
     1
102
RTVSPropertyOp1
 70
     1
102
RTVSPropertyOp2
 70
     1
102
RTVSPropertyOp3
 70
     1
102
RTVSPropertyOp4
 70
     1
102
RTVSPropertyOp5
 70
     1
102
RTVSPropertyOp6
 70
     1
102
RTVSPropertyOp7
 70
     1
102
RTVSPropertyOp8
 70
     1
102
RTVSPropertyOp9
 70
     1
102
RTVSPropertyOp10
 70
     1
102
RTVSPropertyOp11
 70
     1
102
RTVSPropertyOp12
 70
     1
102
RTVSPropertyOp13
 70
     1
102
RTVSPropertyOp14
 70
     1
102
RTVSPropertyOp15
 70
     1
102
RTVSPropertyOp16
 70
     1
102
RTVSPropertyOp17
 70
     1
102
RTVSPropertyOp18
 70
     1
102
RTVSPropertyOp19
 70
     1
102
RTVSPropertyOp20
 70
     1
102
RTVSPropertyOp21
 70
     1
102
RTVSPropertyOp22
 70
     1
102
RTVSPropertyOp23
 70
     1
102
RTVSPropertyOp24
 70
     1
102
RTVSPropertyOp25
 70
     1
102
RTVSPropertyOp26
 70
     1
102
RTVSPropertyOp27
 70
     1
102
RTVSPropertyOp28
 70
     1
102
RTVSPropertyOp29
 70
     1
102
RTVSPropertyOp30
 70
     1
102
RTVSPropertyOp31
 70
     1
102
RTVSPropertyOp32
 70
     1
102
RTVSPropertyOp33
 70
     1
102
RTVSPropertyOp34
 70
     1
102
RTVSPropertyOp35
 70
     1
102
RTVSPropertyOp36
 70
     1
102
RTVSPropertyOp37
 70
     1
102
RTVSPropertyOp38
 70
     1
102
RTVSPropertyOp39
 70
     1
102
RTVSPropertyOp40
 70
     1
102
RTVSPropertyOp41
 70
     1
102
RTVSPropertyOp42
 70
     1
102
RTVSPropertyOp43
 70
     1
102
RTVSPropertyOp44
 70
     1
102
RTVSPropertyOp45
 70
     1
102
RTVSPropertyOp46
 70
     1
102
RTVSPropertyOp47
 70
     1
102
RTVSPropertyOp48
 70
     1
102
RTVSPropertyOp49
 70
     1
102
RTVSPropertyOp50
 70
     1
102
RTVSPropertyOp51
 70
     0
102
RTVSPropertyOp52
 70
     0
102
RTVSPropertyOp53
 70
     1
102
RTVSPropertyOp54
 70
     1
102
RTVSPropertyOp55
 70
     1
102
RTVSPropertyOp56
 70
     1
102
RTVSPropertyOp57
 70
     1
102
RTVSPropertyOp58
 70
     1
102
RTVSPropertyOp59
 70
     1
102
RTVSPropertyOp60
 70
     1
102
RTVSPropertyOp61
 70
     1
102
RTVSPropertyOp62
 70
     1
  0
XRECORD
  5
A58
102
{ACAD_REACTORS
330
A57
102
}
330
A57
100
AcDbXrecord
280
     1
102
RTVSPost2010Prop28
280
     0
102
RTVSPost2010PropOp28
 70
     1
102
RTVSPost2010Prop29
280
     1
102
RTVSPost2010PropOp29
 70
     1
102
RTVSPost2010Prop30
280
     1
102
RTVSPost2010PropOp30
 70
     1
102
RTVSPost2010Prop31
280
     0
102
RTVSPost2010PropOp31
 70
     1
102
RTVSPost2010Prop32
280
     0
102
RTVSPost2010PropOp32
 70
     1
102
RTVSPost2010Prop33
280
     0
102
RTVSPost2010PropOp33
 70
     1
102
RTVSPost2010Prop34
280
     0
102
RTVSPost2010PropOp34
 70
     1
102
RTVSPost2010Prop35
280
     0
102
RTVSPost2010PropOp35
 70
     1
102
RTVSPost2010Prop36
280
     0
102
RTVSPost2010PropOp36
 70
     1
102
RTVSPost2010Prop37
 90
       50
102
RTVSPost2010PropOp37
 70
     1
102
RTVSPost2010Prop38
140
0.0
102
RTVSPost2010PropOp38
 70
     1
102
RTVSPost2010Prop39
140
1.0
102
RTVSPost2010PropOp39
 70
     1
102
RTVSPost2010Prop40
 90
        0
102
RTVSPost2010PropOp40
 70
     1
102
RTVSPost2010Prop41ColorIndex
 90
       18
102
RTVSPost2010Prop41ColorRGB
 90
        0
102
RTVSPost2010PropOp41
 70
     1
102
RTVSPost2010Prop42
 90
       50
102
RTVSPost2010PropOp42
 70
     1
102
RTVSPost2010Prop43
 90
        3
102
RTVSPost2010PropOp43
 70
     1
102
RTVSPost2010Prop44ColorIndex
 90
        5
102
RTVSPost2010Prop44ColorRGB
 90
      255
102
RTVSPost2010PropOp44
 70
     1
102
RTVSPost2010Prop45
280
     0
102
RTVSPost2010PropOp45
 70
     1
102
RTVSPost2010Prop46
 90
       50
102
RTVSPost2010PropOp46
 70
     1
102
RTVSPost2010Prop47
 90
       50
102
RTVSPost2010PropOp47
 70
     1
102
RTVSPost2010Prop48
 90
       50
102
RTVSPost2010PropOp48
 70
     1
102
RTVSPost2010Prop49
280
     0
102
RTVSPost2010PropOp49
 70
     1
102
RTVSPost2010Prop50
 90
       50
102
RTVSPost2010PropOp50
 70
     1
102
RTVSPost2010Prop51ColorIndex
 90
      256
102
RTVSPost2010Prop51ColorRGB
 90
-16777216
102
RTVSPost2010PropOp51
 70
     0
102
RTVSPost2010Prop52
140
1.0
102
RTVSPost2010PropOp52
 70
     0
102
RTVSPost2010Prop53
 90
        2
102
RTVSPost2010PropOp53
 70
     1
102
RTVSPost2010Prop54
  1
strokes_ogs.tif
102
RTVSPost2010PropOp54
 70
     1
102
RTVSPost2010Prop55
280
     0
102
RTVSPost2010PropOp55
 70
     1
102
RTVSPost2010Prop56
140
1.0
102
RTVSPost2010PropOp56
 70
     1
102
RTVSPost2010Prop57
140
1.0
102
RTVSPost2010PropOp57
 70
     1
102
RTVSPropertyOp0
 70
     1
102
RTVSPropertyOp1
 70
     1
102
RTVSPropertyOp2
 70
     1
102
RTVSPropertyOp3
 70
     1
102
RTVSPropertyOp4
 70
     1
102
RTVSPropertyOp5
 70
     1
102
RTVSPropertyOp6
 70
     1
102
RTVSPropertyOp7
 70
     1
102
RTVSPropertyOp8
 70
     1
102
RTVSPropertyOp9
 70
     1
102
RTVSPropertyOp10
 70
     1
102
RTVSPropertyOp11
 70
     1
102
RTVSPropertyOp12
 70
     1
102
RTVSPropertyOp13
 70
     1
102
RTVSPropertyOp14
 70
     1
102
RTVSPropertyOp15
 70
     1
102
RTVSPropertyOp16
 70
     1
102
RTVSPropertyOp17
 70
     1
102
RTVSPropertyOp18
 70
     1
102
RTVSPropertyOp19
 70
     1
102
RTVSPropertyOp20
 70
     1
102
RTVSPropertyOp21
 70
     1
102
RTVSPropertyOp22
 70
     1
102
RTVSPropertyOp23
 70
     1
102
RTVSPropertyOp24
 70
     1
102
RTVSPropertyOp25
 70
     1
102
RTVSPropertyOp26
 70
     1
102
RTVSPropertyOp27
 70
     1
102
RTVSPropertyOp28
 70
     1
102
RTVSPropertyOp29
 70
     1
102
RTVSPropertyOp30
 70
     1
102
RTVSPropertyOp31
 70
     1
102
RTVSPropertyOp32
 70
     1
102
RTVSPropertyOp33
 70
     1
102
RTVSPropertyOp34
 70
     1
102
RTVSPropertyOp35
 70
     1
102
RTVSPropertyOp36
 70
     1
102
RTVSPropertyOp37
 70
     1
102
RTVSPropertyOp38
 70
     1
102
RTVSPropertyOp39
 70
     1
102
RTVSPropertyOp40
 70
     1
102
RTVSPropertyOp41
 70
     1
102
RTVSPropertyOp42
 70
     1
102
RTVSPropertyOp43
 70
     1
102
RTVSPropertyOp44
 70
     1
102
RTVSPropertyOp45
 70
     1
102
RTVSPropertyOp46
 70
     1
102
RTVSPropertyOp47
 70
     1
102
RTVSPropertyOp48
 70
     1
102
RTVSPropertyOp49
 70
     1
102
RTVSPropertyOp50
 70
     1
102
RTVSPropertyOp51
 70
     0
102
RTVSPropertyOp52
 70
     0
102
RTVSPropertyOp53
 70
     1
102
RTVSPropertyOp54
 70
     1
102
RTVSPropertyOp55
 70
     1
102
RTVSPropertyOp56
 70
     1
102
RTVSPropertyOp57
 70
     1
102
RTVSPropertyOp58
 70
     1
102
RTVSPropertyOp59
 70
     1
102
RTVSPropertyOp60
 70
     1
102
RTVSPropertyOp61
 70
     1
102
RTVSPropertyOp62
 70
     1
  0
XRECORD
  5
A5C
102
{ACAD_REACTORS
330
A5B
102
}
330
A5B
100
AcDbXrecord
280
     1
102
RTVSPost2010Prop28
280
     0
102
RTVSPost2010PropOp28
 70
     1
102
RTVSPost2010Prop29
280
     1
102
RTVSPost2010PropOp29
 70
     1
102
RTVSPost2010Prop30
280
     1
102
RTVSPost2010PropOp30
 70
     1
102
RTVSPost2010Prop31
280
     0
102
RTVSPost2010PropOp31
 70
     1
102
RTVSPost2010Prop32
280
     0
102
RTVSPost2010PropOp32
 70
     1
102
RTVSPost2010Prop33
280
     0
102
RTVSPost2010PropOp33
 70
     1
102
RTVSPost2010Prop34
280
     0
102
RTVSPost2010PropOp34
 70
     1
102
RTVSPost2010Prop35
280
     0
102
RTVSPost2010PropOp35
 70
     1
102
RTVSPost2010Prop36
280
     0
102
RTVSPost2010PropOp36
 70
     1
102
RTVSPost2010Prop37
 90
       50
102
RTVSPost2010PropOp37
 70
     1
102
RTVSPost2010Prop38
140
0.0
102
RTVSPost2010PropOp38
 70
     1
102
RTVSPost2010Prop39
140
1.0
102
RTVSPost2010PropOp39
 70
     1
102
RTVSPost2010Prop40
 90
        0
102
RTVSPost2010PropOp40
 70
     1
102
RTVSPost2010Prop41ColorIndex
 90
       18
102
RTVSPost2010Prop41ColorRGB
 90
        0
102
RTVSPost2010PropOp41
 70
     1
102
RTVSPost2010Prop42
 90
       50
102
RTVSPost2010PropOp42
 70
     1
102
RTVSPost2010Prop43
 90
        3
102
RTVSPost2010PropOp43
 70
     1
102
RTVSPost2010Prop44ColorIndex
 90
        5
102
RTVSPost2010Prop44ColorRGB
 90
      255
102
RTVSPost2010PropOp44
 70
     1
102
RTVSPost2010Prop45
280
     0
102
RTVSPost2010PropOp45
 70
     1
102
RTVSPost2010Prop46
 90
       50
102
RTVSPost2010PropOp46
 70
     1
102
RTVSPost2010Prop47
 90
       50
102
RTVSPost2010PropOp47
 70
     1
102
RTVSPost2010Prop48
 90
       50
102
RTVSPost2010PropOp48
 70
     1
102
RTVSPost2010Prop49
280
     0
102
RTVSPost2010PropOp49
 70
     1
102
RTVSPost2010Prop50
 90
       50
102
RTVSPost2010PropOp50
 70
     1
102
RTVSPost2010Prop51ColorIndex
 90
      256
102
RTVSPost2010Prop51ColorRGB
 90
-16777216
102
RTVSPost2010PropOp51
 70
     0
102
RTVSPost2010Prop52
140
1.0
102
RTVSPost2010PropOp52
 70
     0
102
RTVSPost2010Prop53
 90
        2
102
RTVSPost2010PropOp53
 70
     1
102
RTVSPost2010Prop54
  1
strokes_ogs.tif
102
RTVSPost2010PropOp54
 70
     1
102
RTVSPost2010Prop55
280
     0
102
RTVSPost2010PropOp55
 70
     1
102
RTVSPost2010Prop56
140
1.0
102
RTVSPost2010PropOp56
 70
     1
102
RTVSPost2010Prop57
140
1.0
102
RTVSPost2010PropOp57
 70
     1
102
RTVSPropertyOp0
 70
     1
102
RTVSPropertyOp1
 70
     1
102
RTVSPropertyOp2
 70
     1
102
RTVSPropertyOp3
 70
     1
102
RTVSPropertyOp4
 70
     1
102
RTVSPropertyOp5
 70
     1
102
RTVSPropertyOp6
 70
     1
102
RTVSPropertyOp7
 70
     1
102
RTVSPropertyOp8
 70
     1
102
RTVSPropertyOp9
 70
     1
102
RTVSPropertyOp10
 70
     1
102
RTVSPropertyOp11
 70
     1
102
RTVSPropertyOp12
 70
     1
102
RTVSPropertyOp13
 70
     1
102
RTVSPropertyOp14
 70
     1
102
RTVSPropertyOp15
 70
     1
102
RTVSPropertyOp16
 70
     1
102
RTVSPropertyOp17
 70
     1
102
RTVSPropertyOp18
 70
     1
102
RTVSPropertyOp19
 70
     1
102
RTVSPropertyOp20
 70
     1
102
RTVSPropertyOp21
 70
     1
102
RTVSPropertyOp22
 70
     1
102
RTVSPropertyOp23
 70
     1
102
RTVSPropertyOp24
 70
     1
102
RTVSPropertyOp25
 70
     1
102
RTVSPropertyOp26
 70
     1
102
RTVSPropertyOp27
 70
     1
102
RTVSPropertyOp28
 70
     1
102
RTVSPropertyOp29
 70
     1
102
RTVSPropertyOp30
 70
     1
102
RTVSPropertyOp31
 70
     1
102
RTVSPropertyOp32
 70
     1
102
RTVSPropertyOp33
 70
     1
102
RTVSPropertyOp34
 70
     1
102
RTVSPropertyOp35
 70
     1
102
RTVSPropertyOp36
 70
     1
102
RTVSPropertyOp37
 70
     1
102
RTVSPropertyOp38
 70
     1
102
RTVSPropertyOp39
 70
     1
102
RTVSPropertyOp40
 70
     1
102
RTVSPropertyOp41
 70
     1
102
RTVSPropertyOp42
 70
     1
102
RTVSPropertyOp43
 70
     1
102
RTVSPropertyOp44
 70
     1
102
RTVSPropertyOp45
 70
     1
102
RTVSPropertyOp46
 70
     1
102
RTVSPropertyOp47
 70
     1
102
RTVSPropertyOp48
 70
     1
102
RTVSPropertyOp49
 70
     1
102
RTVSPropertyOp50
 70
     1
102
RTVSPropertyOp51
 70
     0
102
RTVSPropertyOp52
 70
     0
102
RTVSPropertyOp53
 70
     1
102
RTVSPropertyOp54
 70
     1
102
RTVSPropertyOp55
 70
     1
102
RTVSPropertyOp56
 70
     1
102
RTVSPropertyOp57
 70
     1
102
RTVSPropertyOp58
 70
     1
102
RTVSPropertyOp59
 70
     1
102
RTVSPropertyOp60
 70
     1
102
RTVSPropertyOp61
 70
     1
102
RTVSPropertyOp62
 70
     1
  0
XRECORD
  5
A76
102
{ACAD_REACTORS
330
A75
102
}
330
A75
100
AcDbXrecord
280
     1
102
RTVSPost2010Prop28
280
     0
102
RTVSPost2010PropOp28
 70
     0
102
RTVSPost2010Prop29
280
     1
102
RTVSPost2010PropOp29
 70
     0
102
RTVSPost2010Prop30
280
     1
102
RTVSPost2010PropOp30
 70
     0
102
RTVSPost2010Prop31
280
     0
102
RTVSPost2010PropOp31
 70
     0
102
RTVSPost2010Prop32
280
     0
102
RTVSPost2010PropOp32
 70
     0
102
RTVSPost2010Prop33
280
     0
102
RTVSPost2010PropOp33
 70
     0
102
RTVSPost2010Prop34
280
     0
102
RTVSPost2010PropOp34
 70
     0
102
RTVSPost2010Prop35
280
     0
102
RTVSPost2010PropOp35
 70
     0
102
RTVSPost2010Prop36
280
     0
102
RTVSPost2010PropOp36
 70
     0
102
RTVSPost2010Prop37
 90
       50
102
RTVSPost2010PropOp37
 70
     0
102
RTVSPost2010Prop38
140
0.0
102
RTVSPost2010PropOp38
 70
     0
102
RTVSPost2010Prop39
140
1.0
102
RTVSPost2010PropOp39
 70
     0
102
RTVSPost2010Prop40
 90
        0
102
RTVSPost2010PropOp40
 70
     0
102
RTVSPost2010Prop41ColorIndex
 90
       18
102
RTVSPost2010Prop41ColorRGB
 90
        0
102
RTVSPost2010PropOp41
 70
     0
102
RTVSPost2010Prop42
 90
       50
102
RTVSPost2010PropOp42
 70
     0
102
RTVSPost2010Prop43
 90
        3
102
RTVSPost2010PropOp43
 70
     0
102
RTVSPost2010Prop44ColorIndex
 90
        5
102
RTVSPost2010Prop44ColorRGB
 90
      255
102
RTVSPost2010PropOp44
 70
     0
102
RTVSPost2010Prop45
280
     0
102
RTVSPost2010PropOp45
 70
     0
102
RTVSPost2010Prop46
 90
       50
102
RTVSPost2010PropOp46
 70
     0
102
RTVSPost2010Prop47
 90
       50
102
RTVSPost2010PropOp47
 70
     0
102
RTVSPost2010Prop48
 90
       50
102
RTVSPost2010PropOp48
 70
     0
102
RTVSPost2010Prop49
280
     0
102
RTVSPost2010PropOp49
 70
     0
102
RTVSPost2010Prop50
 90
       50
102
RTVSPost2010PropOp50
 70
     0
102
RTVSPost2010Prop51ColorIndex
 90
      256
102
RTVSPost2010Prop51ColorRGB
 90
-16777216
102
RTVSPost2010PropOp51
 70
     0
102
RTVSPost2010Prop52
140
1.0
102
RTVSPost2010PropOp52
 70
     0
102
RTVSPost2010Prop53
 90
        2
102
RTVSPost2010PropOp53
 70
     0
102
RTVSPost2010Prop54
  1
strokes_ogs.tif
102
RTVSPost2010PropOp54
 70
     0
102
RTVSPost2010Prop55
280
     0
102
RTVSPost2010PropOp55
 70
     0
102
RTVSPost2010Prop56
140
1.0
102
RTVSPost2010PropOp56
 70
     0
102
RTVSPost2010Prop57
140
1.0
102
RTVSPost2010PropOp57
 70
     0
102
RTVSPropertyOp0
 70
     0
102
RTVSPropertyOp1
 70
     0
102
RTVSPropertyOp2
 70
     0
102
RTVSPropertyOp3
 70
     0
102
RTVSPropertyOp4
 70
     0
102
RTVSPropertyOp5
 70
     0
102
RTVSPropertyOp6
 70
     0
102
RTVSPropertyOp7
 70
     0
102
RTVSPropertyOp8
 70
     0
102
RTVSPropertyOp9
 70
     0
102
RTVSPropertyOp10
 70
     0
102
RTVSPropertyOp11
 70
     0
102
RTVSPropertyOp12
 70
     0
102
RTVSPropertyOp13
 70
     0
102
RTVSPropertyOp14
 70
     2
102
RTVSPropertyOp15
 70
     0
102
RTVSPropertyOp16
 70
     0
102
RTVSPropertyOp17
 70
     0
102
RTVSPropertyOp18
 70
     0
102
RTVSPropertyOp19
 70
     0
102
RTVSPropertyOp20
 70
     0
102
RTVSPropertyOp21
 70
     0
102
RTVSPropertyOp22
 70
     0
102
RTVSPropertyOp23
 70
     0
102
RTVSPropertyOp24
 70
     0
102
RTVSPropertyOp25
 70
     0
102
RTVSPropertyOp26
 70
     0
102
RTVSPropertyOp27
 70
     0
102
RTVSPropertyOp28
 70
     0
102
RTVSPropertyOp29
 70
     0
102
RTVSPropertyOp30
 70
     0
102
RTVSPropertyOp31
 70
     0
102
RTVSPropertyOp32
 70
     0
102
RTVSPropertyOp33
 70
     0
102
RTVSPropertyOp34
 70
     0
102
RTVSPropertyOp35
 70
     0
102
RTVSPropertyOp36
 70
     0
102
RTVSPropertyOp37
 70
     0
102
RTVSPropertyOp38
 70
     0
102
RTVSPropertyOp39
 70
     0
102
RTVSPropertyOp40
 70
     0
102
RTVSPropertyOp41
 70
     0
102
RTVSPropertyOp42
 70
     0
102
RTVSPropertyOp43
 70
     0
102
RTVSPropertyOp44
 70
     0
102
RTVSPropertyOp45
 70
     0
102
RTVSPropertyOp46
 70
     0
102
RTVSPropertyOp47
 70
     0
102
RTVSPropertyOp48
 70
     0
102
RTVSPropertyOp49
 70
     0
102
RTVSPropertyOp50
 70
     0
102
RTVSPropertyOp51
 70
     0
102
RTVSPropertyOp52
 70
     0
102
RTVSPropertyOp53
 70
     0
102
RTVSPropertyOp54
 70
     0
102
RTVSPropertyOp55
 70
     0
102
RTVSPropertyOp56
 70
     0
102
RTVSPropertyOp57
 70
     0
102
RTVSPropertyOp58
 70
     0
102
RTVSPropertyOp59
 70
     0
102
RTVSPropertyOp60
 70
     0
102
RTVSPropertyOp61
 70
     0
102
RTVSPropertyOp62
 70
     0
  0
XRECORD
  5
A64
102
{ACAD_REACTORS
330
A63
102
}
330
A63
100
AcDbXrecord
280
     1
102
RTVSPost2010Prop28
280
     0
102
RTVSPost2010PropOp28
 70
     1
102
RTVSPost2010Prop29
280
     1
102
RTVSPost2010PropOp29
 70
     1
102
RTVSPost2010Prop30
280
     1
102
RTVSPost2010PropOp30
 70
     1
102
RTVSPost2010Prop31
280
     0
102
RTVSPost2010PropOp31
 70
     1
102
RTVSPost2010Prop32
280
     0
102
RTVSPost2010PropOp32
 70
     1
102
RTVSPost2010Prop33
280
     0
102
RTVSPost2010PropOp33
 70
     1
102
RTVSPost2010Prop34
280
     0
102
RTVSPost2010PropOp34
 70
     1
102
RTVSPost2010Prop35
280
     0
102
RTVSPost2010PropOp35
 70
     1
102
RTVSPost2010Prop36
280
     0
102
RTVSPost2010PropOp36
 70
     1
102
RTVSPost2010Prop37
 90
       50
102
RTVSPost2010PropOp37
 70
     1
102
RTVSPost2010Prop38
140
0.0
102
RTVSPost2010PropOp38
 70
     1
102
RTVSPost2010Prop39
140
1.0
102
RTVSPost2010PropOp39
 70
     1
102
RTVSPost2010Prop40
 90
        0
102
RTVSPost2010PropOp40
 70
     1
102
RTVSPost2010Prop41ColorIndex
 90
       18
102
RTVSPost2010Prop41ColorRGB
 90
        0
102
RTVSPost2010PropOp41
 70
     1
102
RTVSPost2010Prop42
 90
       50
102
RTVSPost2010PropOp42
 70
     1
102
RTVSPost2010Prop43
 90
        3
102
RTVSPost2010PropOp43
 70
     1
102
RTVSPost2010Prop44ColorIndex
 90
        5
102
RTVSPost2010Prop44ColorRGB
 90
      255
102
RTVSPost2010PropOp44
 70
     1
102
RTVSPost2010Prop45
280
     0
102
RTVSPost2010PropOp45
 70
     1
102
RTVSPost2010Prop46
 90
       50
102
RTVSPost2010PropOp46
 70
     1
102
RTVSPost2010Prop47
 90
       50
102
RTVSPost2010PropOp47
 70
     1
102
RTVSPost2010Prop48
 90
       50
102
RTVSPost2010PropOp48
 70
     1
102
RTVSPost2010Prop49
280
     0
102
RTVSPost2010PropOp49
 70
     1
102
RTVSPost2010Prop50
 90
       50
102
RTVSPost2010PropOp50
 70
     1
102
RTVSPost2010Prop51ColorIndex
 90
      256
102
RTVSPost2010Prop51ColorRGB
 90
-16777216
102
RTVSPost2010PropOp51
 70
     0
102
RTVSPost2010Prop52
140
1.0
102
RTVSPost2010PropOp52
 70
     0
102
RTVSPost2010Prop53
 90
        2
102
RTVSPost2010PropOp53
 70
     1
102
RTVSPost2010Prop54
  1
strokes_ogs.tif
102
RTVSPost2010PropOp54
 70
     1
102
RTVSPost2010Prop55
280
     0
102
RTVSPost2010PropOp55
 70
     1
102
RTVSPost2010Prop56
140
1.0
102
RTVSPost2010PropOp56
 70
     1
102
RTVSPost2010Prop57
140
1.0
102
RTVSPost2010PropOp57
 70
     1
102
RTVSPropertyOp0
 70
     1
102
RTVSPropertyOp1
 70
     1
102
RTVSPropertyOp2
 70
     1
102
RTVSPropertyOp3
 70
     1
102
RTVSPropertyOp4
 70
     1
102
RTVSPropertyOp5
 70
     1
102
RTVSPropertyOp6
 70
     1
102
RTVSPropertyOp7
 70
     1
102
RTVSPropertyOp8
 70
     1
102
RTVSPropertyOp9
 70
     1
102
RTVSPropertyOp10
 70
     1
102
RTVSPropertyOp11
 70
     1
102
RTVSPropertyOp12
 70
     1
102
RTVSPropertyOp13
 70
     1
102
RTVSPropertyOp14
 70
     1
102
RTVSPropertyOp15
 70
     1
102
RTVSPropertyOp16
 70
     1
102
RTVSPropertyOp17
 70
     1
102
RTVSPropertyOp18
 70
     1
102
RTVSPropertyOp19
 70
     1
102
RTVSPropertyOp20
 70
     1
102
RTVSPropertyOp21
 70
     1
102
RTVSPropertyOp22
 70
     1
102
RTVSPropertyOp23
 70
     1
102
RTVSPropertyOp24
 70
     1
102
RTVSPropertyOp25
 70
     1
102
RTVSPropertyOp26
 70
     1
102
RTVSPropertyOp27
 70
     1
102
RTVSPropertyOp28
 70
     1
102
RTVSPropertyOp29
 70
     1
102
RTVSPropertyOp30
 70
     1
102
RTVSPropertyOp31
 70
     1
102
RTVSPropertyOp32
 70
     1
102
RTVSPropertyOp33
 70
     1
102
RTVSPropertyOp34
 70
     1
102
RTVSPropertyOp35
 70
     1
102
RTVSPropertyOp36
 70
     1
102
RTVSPropertyOp37
 70
     1
102
RTVSPropertyOp38
 70
     1
102
RTVSPropertyOp39
 70
     1
102
RTVSPropertyOp40
 70
     1
102
RTVSPropertyOp41
 70
     1
102
RTVSPropertyOp42
 70
     1
102
RTVSPropertyOp43
 70
     1
102
RTVSPropertyOp44
 70
     1
102
RTVSPropertyOp45
 70
     1
102
RTVSPropertyOp46
 70
     1
102
RTVSPropertyOp47
 70
     1
102
RTVSPropertyOp48
 70
     1
102
RTVSPropertyOp49
 70
     1
102
RTVSPropertyOp50
 70
     1
102
RTVSPropertyOp51
 70
     0
102
RTVSPropertyOp52
 70
     0
102
RTVSPropertyOp53
 70
     1
102
RTVSPropertyOp54
 70
     1
102
RTVSPropertyOp55
 70
     1
102
RTVSPropertyOp56
 70
     1
102
RTVSPropertyOp57
 70
     1
102
RTVSPropertyOp58
 70
     1
102
RTVSPropertyOp59
 70
     1
102
RTVSPropertyOp60
 70
     1
102
RTVSPropertyOp61
 70
     1
102
RTVSPropertyOp62
 70
     1
  0
XRECORD
  5
A48
102
{ACAD_REACTORS
330
A47
102
}
330
A47
100
AcDbXrecord
280
     1
102
RTVSPost2010Prop28
280
     0
102
RTVSPost2010PropOp28
 70
     1
102
RTVSPost2010Prop29
280
     1
102
RTVSPost2010PropOp29
 70
     1
102
RTVSPost2010Prop30
280
     1
102
RTVSPost2010PropOp30
 70
     1
102
RTVSPost2010Prop31
280
     0
102
RTVSPost2010PropOp31
 70
     1
102
RTVSPost2010Prop32
280
     0
102
RTVSPost2010PropOp32
 70
     1
102
RTVSPost2010Prop33
280
     0
102
RTVSPost2010PropOp33
 70
     1
102
RTVSPost2010Prop34
280
     0
102
RTVSPost2010PropOp34
 70
     1
102
RTVSPost2010Prop35
280
     0
102
RTVSPost2010PropOp35
 70
     1
102
RTVSPost2010Prop36
280
     0
102
RTVSPost2010PropOp36
 70
     1
102
RTVSPost2010Prop37
 90
       50
102
RTVSPost2010PropOp37
 70
     1
102
RTVSPost2010Prop38
140
0.0
102
RTVSPost2010PropOp38
 70
     1
102
RTVSPost2010Prop39
140
1.0
102
RTVSPost2010PropOp39
 70
     1
102
RTVSPost2010Prop40
 90
        0
102
RTVSPost2010PropOp40
 70
     1
102
RTVSPost2010Prop41ColorIndex
 90
       18
102
RTVSPost2010Prop41ColorRGB
 90
        0
102
RTVSPost2010PropOp41
 70
     1
102
RTVSPost2010Prop42
 90
       50
102
RTVSPost2010PropOp42
 70
     1
102
RTVSPost2010Prop43
 90
        3
102
RTVSPost2010PropOp43
 70
     1
102
RTVSPost2010Prop44ColorIndex
 90
        5
102
RTVSPost2010Prop44ColorRGB
 90
      255
102
RTVSPost2010PropOp44
 70
     1
102
RTVSPost2010Prop45
280
     0
102
RTVSPost2010PropOp45
 70
     1
102
RTVSPost2010Prop46
 90
       50
102
RTVSPost2010PropOp46
 70
     1
102
RTVSPost2010Prop47
 90
       50
102
RTVSPost2010PropOp47
 70
     1
102
RTVSPost2010Prop48
 90
       50
102
RTVSPost2010PropOp48
 70
     1
102
RTVSPost2010Prop49
280
     0
102
RTVSPost2010PropOp49
 70
     1
102
RTVSPost2010Prop50
 90
       50
102
RTVSPost2010PropOp50
 70
     1
102
RTVSPost2010Prop51ColorIndex
 90
      256
102
RTVSPost2010Prop51ColorRGB
 90
-16777216
102
RTVSPost2010PropOp51
 70
     0
102
RTVSPost2010Prop52
140
1.0
102
RTVSPost2010PropOp52
 70
     0
102
RTVSPost2010Prop53
 90
        2
102
RTVSPost2010PropOp53
 70
     1
102
RTVSPost2010Prop54
  1
strokes_ogs.tif
102
RTVSPost2010PropOp54
 70
     1
102
RTVSPost2010Prop55
280
     0
102
RTVSPost2010PropOp55
 70
     1
102
RTVSPost2010Prop56
140
1.0
102
RTVSPost2010PropOp56
 70
     1
102
RTVSPost2010Prop57
140
1.0
102
RTVSPost2010PropOp57
 70
     1
102
RTVSPropertyOp0
 70
     1
102
RTVSPropertyOp1
 70
     1
102
RTVSPropertyOp2
 70
     1
102
RTVSPropertyOp3
 70
     1
102
RTVSPropertyOp4
 70
     1
102
RTVSPropertyOp5
 70
     1
102
RTVSPropertyOp6
 70
     1
102
RTVSPropertyOp7
 70
     1
102
RTVSPropertyOp8
 70
     1
102
RTVSPropertyOp9
 70
     1
102
RTVSPropertyOp10
 70
     1
102
RTVSPropertyOp11
 70
     1
102
RTVSPropertyOp12
 70
     1
102
RTVSPropertyOp13
 70
     1
102
RTVSPropertyOp14
 70
     1
102
RTVSPropertyOp15
 70
     1
102
RTVSPropertyOp16
 70
     1
102
RTVSPropertyOp17
 70
     1
102
RTVSPropertyOp18
 70
     1
102
RTVSPropertyOp19
 70
     1
102
RTVSPropertyOp20
 70
     1
102
RTVSPropertyOp21
 70
     1
102
RTVSPropertyOp22
 70
     1
102
RTVSPropertyOp23
 70
     1
102
RTVSPropertyOp24
 70
     1
102
RTVSPropertyOp25
 70
     1
102
RTVSPropertyOp26
 70
     1
102
RTVSPropertyOp27
 70
     1
102
RTVSPropertyOp28
 70
     1
102
RTVSPropertyOp29
 70
     1
102
RTVSPropertyOp30
 70
     1
102
RTVSPropertyOp31
 70
     1
102
RTVSPropertyOp32
 70
     1
102
RTVSPropertyOp33
 70
     1
102
RTVSPropertyOp34
 70
     1
102
RTVSPropertyOp35
 70
     1
102
RTVSPropertyOp36
 70
     1
102
RTVSPropertyOp37
 70
     1
102
RTVSPropertyOp38
 70
     1
102
RTVSPropertyOp39
 70
     1
102
RTVSPropertyOp40
 70
     1
102
RTVSPropertyOp41
 70
     1
102
RTVSPropertyOp42
 70
     1
102
RTVSPropertyOp43
 70
     1
102
RTVSPropertyOp44
 70
     1
102
RTVSPropertyOp45
 70
     1
102
RTVSPropertyOp46
 70
     1
102
RTVSPropertyOp47
 70
     1
102
RTVSPropertyOp48
 70
     1
102
RTVSPropertyOp49
 70
     1
102
RTVSPropertyOp50
 70
     1
102
RTVSPropertyOp51
 70
     0
102
RTVSPropertyOp52
 70
     0
102
RTVSPropertyOp53
 70
     1
102
RTVSPropertyOp54
 70
     1
102
RTVSPropertyOp55
 70
     1
102
RTVSPropertyOp56
 70
     1
102
RTVSPropertyOp57
 70
     1
102
RTVSPropertyOp58
 70
     1
102
RTVSPropertyOp59
 70
     1
102
RTVSPropertyOp60
 70
     1
102
RTVSPropertyOp61
 70
     1
102
RTVSPropertyOp62
 70
     1
  0
XRECORD
  5
A4A
102
{ACAD_REACTORS
330
A49
102
}
330
A49
100
AcDbXrecord
280
     1
102
RTVSPost2010Prop28
280
     0
102
RTVSPost2010PropOp28
 70
     1
102
RTVSPost2010Prop29
280
     1
102
RTVSPost2010PropOp29
 70
     1
102
RTVSPost2010Prop30
280
     1
102
RTVSPost2010PropOp30
 70
     1
102
RTVSPost2010Prop31
280
     0
102
RTVSPost2010PropOp31
 70
     1
102
RTVSPost2010Prop32
280
     0
102
RTVSPost2010PropOp32
 70
     1
102
RTVSPost2010Prop33
280
     0
102
RTVSPost2010PropOp33
 70
     1
102
RTVSPost2010Prop34
280
     0
102
RTVSPost2010PropOp34
 70
     1
102
RTVSPost2010Prop35
280
     0
102
RTVSPost2010PropOp35
 70
     1
102
RTVSPost2010Prop36
280
     0
102
RTVSPost2010PropOp36
 70
     1
102
RTVSPost2010Prop37
 90
       50
102
RTVSPost2010PropOp37
 70
     1
102
RTVSPost2010Prop38
140
0.0
102
RTVSPost2010PropOp38
 70
     1
102
RTVSPost2010Prop39
140
1.0
102
RTVSPost2010PropOp39
 70
     1
102
RTVSPost2010Prop40
 90
        0
102
RTVSPost2010PropOp40
 70
     1
102
RTVSPost2010Prop41ColorIndex
 90
       18
102
RTVSPost2010Prop41ColorRGB
 90
        0
102
RTVSPost2010PropOp41
 70
     1
102
RTVSPost2010Prop42
 90
       50
102
RTVSPost2010PropOp42
 70
     1
102
RTVSPost2010Prop43
 90
        3
102
RTVSPost2010PropOp43
 70
     1
102
RTVSPost2010Prop44ColorIndex
 90
        5
102
RTVSPost2010Prop44ColorRGB
 90
      255
102
RTVSPost2010PropOp44
 70
     1
102
RTVSPost2010Prop45
280
     0
102
RTVSPost2010PropOp45
 70
     1
102
RTVSPost2010Prop46
 90
       50
102
RTVSPost2010PropOp46
 70
     1
102
RTVSPost2010Prop47
 90
       50
102
RTVSPost2010PropOp47
 70
     1
102
RTVSPost2010Prop48
 90
       50
102
RTVSPost2010PropOp48
 70
     1
102
RTVSPost2010Prop49
280
     0
102
RTVSPost2010PropOp49
 70
     1
102
RTVSPost2010Prop50
 90
       50
102
RTVSPost2010PropOp50
 70
     1
102
RTVSPost2010Prop51ColorIndex
 90
      256
102
RTVSPost2010Prop51ColorRGB
 90
-16777216
102
RTVSPost2010PropOp51
 70
     0
102
RTVSPost2010Prop52
140
1.0
102
RTVSPost2010PropOp52
 70
     0
102
RTVSPost2010Prop53
 90
        2
102
RTVSPost2010PropOp53
 70
     1
102
RTVSPost2010Prop54
  1
strokes_ogs.tif
102
RTVSPost2010PropOp54
 70
     1
102
RTVSPost2010Prop55
280
     0
102
RTVSPost2010PropOp55
 70
     1
102
RTVSPost2010Prop56
140
1.0
102
RTVSPost2010PropOp56
 70
     1
102
RTVSPost2010Prop57
140
1.0
102
RTVSPost2010PropOp57
 70
     1
102
RTVSPropertyOp0
 70
     1
102
RTVSPropertyOp1
 70
     1
102
RTVSPropertyOp2
 70
     1
102
RTVSPropertyOp3
 70
     1
102
RTVSPropertyOp4
 70
     1
102
RTVSPropertyOp5
 70
     1
102
RTVSPropertyOp6
 70
     1
102
RTVSPropertyOp7
 70
     1
102
RTVSPropertyOp8
 70
     1
102
RTVSPropertyOp9
 70
     1
102
RTVSPropertyOp10
 70
     1
102
RTVSPropertyOp11
 70
     1
102
RTVSPropertyOp12
 70
     1
102
RTVSPropertyOp13
 70
     1
102
RTVSPropertyOp14
 70
     1
102
RTVSPropertyOp15
 70
     1
102
RTVSPropertyOp16
 70
     1
102
RTVSPropertyOp17
 70
     1
102
RTVSPropertyOp18
 70
     1
102
RTVSPropertyOp19
 70
     1
102
RTVSPropertyOp20
 70
     1
102
RTVSPropertyOp21
 70
     1
102
RTVSPropertyOp22
 70
     1
102
RTVSPropertyOp23
 70
     1
102
RTVSPropertyOp24
 70
     1
102
RTVSPropertyOp25
 70
     1
102
RTVSPropertyOp26
 70
     1
102
RTVSPropertyOp27
 70
     1
102
RTVSPropertyOp28
 70
     1
102
RTVSPropertyOp29
 70
     1
102
RTVSPropertyOp30
 70
     1
102
RTVSPropertyOp31
 70
     1
102
RTVSPropertyOp32
 70
     1
102
RTVSPropertyOp33
 70
     1
102
RTVSPropertyOp34
 70
     1
102
RTVSPropertyOp35
 70
     1
102
RTVSPropertyOp36
 70
     1
102
RTVSPropertyOp37
 70
     1
102
RTVSPropertyOp38
 70
     1
102
RTVSPropertyOp39
 70
     1
102
RTVSPropertyOp40
 70
     1
102
RTVSPropertyOp41
 70
     1
102
RTVSPropertyOp42
 70
     1
102
RTVSPropertyOp43
 70
     1
102
RTVSPropertyOp44
 70
     1
102
RTVSPropertyOp45
 70
     1
102
RTVSPropertyOp46
 70
     1
102
RTVSPropertyOp47
 70
     1
102
RTVSPropertyOp48
 70
     1
102
RTVSPropertyOp49
 70
     1
102
RTVSPropertyOp50
 70
     1
102
RTVSPropertyOp51
 70
     0
102
RTVSPropertyOp52
 70
     0
102
RTVSPropertyOp53
 70
     1
102
RTVSPropertyOp54
 70
     1
102
RTVSPropertyOp55
 70
     1
102
RTVSPropertyOp56
 70
     1
102
RTVSPropertyOp57
 70
     1
102
RTVSPropertyOp58
 70
     1
102
RTVSPropertyOp59
 70
     1
102
RTVSPropertyOp60
 70
     1
102
RTVSPropertyOp61
 70
     1
102
RTVSPropertyOp62
 70
     1
  0
XRECORD
  5
A4C
102
{ACAD_REACTORS
330
A4B
102
}
330
A4B
100
AcDbXrecord
280
     1
102
RTVSPost2010Prop28
280
     0
102
RTVSPost2010PropOp28
 70
     1
102
RTVSPost2010Prop29
280
     1
102
RTVSPost2010PropOp29
 70
     1
102
RTVSPost2010Prop30
280
     1
102
RTVSPost2010PropOp30
 70
     1
102
RTVSPost2010Prop31
280
     0
102
RTVSPost2010PropOp31
 70
     1
102
RTVSPost2010Prop32
280
     0
102
RTVSPost2010PropOp32
 70
     1
102
RTVSPost2010Prop33
280
     0
102
RTVSPost2010PropOp33
 70
     1
102
RTVSPost2010Prop34
280
     0
102
RTVSPost2010PropOp34
 70
     1
102
RTVSPost2010Prop35
280
     0
102
RTVSPost2010PropOp35
 70
     1
102
RTVSPost2010Prop36
280
     0
102
RTVSPost2010PropOp36
 70
     1
102
RTVSPost2010Prop37
 90
       50
102
RTVSPost2010PropOp37
 70
     1
102
RTVSPost2010Prop38
140
0.0
102
RTVSPost2010PropOp38
 70
     1
102
RTVSPost2010Prop39
140
1.0
102
RTVSPost2010PropOp39
 70
     1
102
RTVSPost2010Prop40
 90
        0
102
RTVSPost2010PropOp40
 70
     1
102
RTVSPost2010Prop41ColorIndex
 90
       18
102
RTVSPost2010Prop41ColorRGB
 90
        0
102
RTVSPost2010PropOp41
 70
     1
102
RTVSPost2010Prop42
 90
       50
102
RTVSPost2010PropOp42
 70
     1
102
RTVSPost2010Prop43
 90
        3
102
RTVSPost2010PropOp43
 70
     1
102
RTVSPost2010Prop44ColorIndex
 90
        5
102
RTVSPost2010Prop44ColorRGB
 90
      255
102
RTVSPost2010PropOp44
 70
     1
102
RTVSPost2010Prop45
280
     0
102
RTVSPost2010PropOp45
 70
     1
102
RTVSPost2010Prop46
 90
       50
102
RTVSPost2010PropOp46
 70
     1
102
RTVSPost2010Prop47
 90
       50
102
RTVSPost2010PropOp47
 70
     1
102
RTVSPost2010Prop48
 90
       50
102
RTVSPost2010PropOp48
 70
     1
102
RTVSPost2010Prop49
280
     0
102
RTVSPost2010PropOp49
 70
     1
102
RTVSPost2010Prop50
 90
       50
102
RTVSPost2010PropOp50
 70
     1
102
RTVSPost2010Prop51ColorIndex
 90
      256
102
RTVSPost2010Prop51ColorRGB
 90
-16777216
102
RTVSPost2010PropOp51
 70
     0
102
RTVSPost2010Prop52
140
1.0
102
RTVSPost2010PropOp52
 70
     0
102
RTVSPost2010Prop53
 90
        2
102
RTVSPost2010PropOp53
 70
     1
102
RTVSPost2010Prop54
  1
strokes_ogs.tif
102
RTVSPost2010PropOp54
 70
     1
102
RTVSPost2010Prop55
280
     0
102
RTVSPost2010PropOp55
 70
     1
102
RTVSPost2010Prop56
140
1.0
102
RTVSPost2010PropOp56
 70
     1
102
RTVSPost2010Prop57
140
1.0
102
RTVSPost2010PropOp57
 70
     1
102
RTVSPropertyOp0
 70
     1
102
RTVSPropertyOp1
 70
     1
102
RTVSPropertyOp2
 70
     1
102
RTVSPropertyOp3
 70
     1
102
RTVSPropertyOp4
 70
     1
102
RTVSPropertyOp5
 70
     1
102
RTVSPropertyOp6
 70
     1
102
RTVSPropertyOp7
 70
     1
102
RTVSPropertyOp8
 70
     1
102
RTVSPropertyOp9
 70
     1
102
RTVSPropertyOp10
 70
     1
102
RTVSPropertyOp11
 70
     1
102
RTVSPropertyOp12
 70
     1
102
RTVSPropertyOp13
 70
     1
102
RTVSPropertyOp14
 70
     1
102
RTVSPropertyOp15
 70
     1
102
RTVSPropertyOp16
 70
     1
102
RTVSPropertyOp17
 70
     1
102
RTVSPropertyOp18
 70
     1
102
RTVSPropertyOp19
 70
     1
102
RTVSPropertyOp20
 70
     1
102
RTVSPropertyOp21
 70
     1
102
RTVSPropertyOp22
 70
     1
102
RTVSPropertyOp23
 70
     1
102
RTVSPropertyOp24
 70
     1
102
RTVSPropertyOp25
 70
     1
102
RTVSPropertyOp26
 70
     1
102
RTVSPropertyOp27
 70
     1
102
RTVSPropertyOp28
 70
     1
102
RTVSPropertyOp29
 70
     1
102
RTVSPropertyOp30
 70
     1
102
RTVSPropertyOp31
 70
     1
102
RTVSPropertyOp32
 70
     1
102
RTVSPropertyOp33
 70
     1
102
RTVSPropertyOp34
 70
     1
102
RTVSPropertyOp35
 70
     1
102
RTVSPropertyOp36
 70
     1
102
RTVSPropertyOp37
 70
     1
102
RTVSPropertyOp38
 70
     1
102
RTVSPropertyOp39
 70
     1
102
RTVSPropertyOp40
 70
     1
102
RTVSPropertyOp41
 70
     1
102
RTVSPropertyOp42
 70
     1
102
RTVSPropertyOp43
 70
     1
102
RTVSPropertyOp44
 70
     1
102
RTVSPropertyOp45
 70
     1
102
RTVSPropertyOp46
 70
     1
102
RTVSPropertyOp47
 70
     1
102
RTVSPropertyOp48
 70
     1
102
RTVSPropertyOp49
 70
     1
102
RTVSPropertyOp50
 70
     1
102
RTVSPropertyOp51
 70
     0
102
RTVSPropertyOp52
 70
     0
102
RTVSPropertyOp53
 70
     1
102
RTVSPropertyOp54
 70
     1
102
RTVSPropertyOp55
 70
     1
102
RTVSPropertyOp56
 70
     1
102
RTVSPropertyOp57
 70
     1
102
RTVSPropertyOp58
 70
     1
102
RTVSPropertyOp59
 70
     1
102
RTVSPropertyOp60
 70
     1
102
RTVSPropertyOp61
 70
     1
102
RTVSPropertyOp62
 70
     1
  0
XRECORD
  5
A4E
102
{ACAD_REACTORS
330
A4D
102
}
330
A4D
100
AcDbXrecord
280
     1
102
RTVSPost2010Prop28
280
     0
102
RTVSPost2010PropOp28
 70
     1
102
RTVSPost2010Prop29
280
     1
102
RTVSPost2010PropOp29
 70
     1
102
RTVSPost2010Prop30
280
     1
102
RTVSPost2010PropOp30
 70
     1
102
RTVSPost2010Prop31
280
     0
102
RTVSPost2010PropOp31
 70
     1
102
RTVSPost2010Prop32
280
     0
102
RTVSPost2010PropOp32
 70
     1
102
RTVSPost2010Prop33
280
     0
102
RTVSPost2010PropOp33
 70
     1
102
RTVSPost2010Prop34
280
     0
102
RTVSPost2010PropOp34
 70
     1
102
RTVSPost2010Prop35
280
     0
102
RTVSPost2010PropOp35
 70
     1
102
RTVSPost2010Prop36
280
     0
102
RTVSPost2010PropOp36
 70
     1
102
RTVSPost2010Prop37
 90
       50
102
RTVSPost2010PropOp37
 70
     1
102
RTVSPost2010Prop38
140
0.0
102
RTVSPost2010PropOp38
 70
     1
102
RTVSPost2010Prop39
140
1.0
102
RTVSPost2010PropOp39
 70
     1
102
RTVSPost2010Prop40
 90
        0
102
RTVSPost2010PropOp40
 70
     1
102
RTVSPost2010Prop41ColorIndex
 90
       18
102
RTVSPost2010Prop41ColorRGB
 90
        0
102
RTVSPost2010PropOp41
 70
     1
102
RTVSPost2010Prop42
 90
       50
102
RTVSPost2010PropOp42
 70
     1
102
RTVSPost2010Prop43
 90
        3
102
RTVSPost2010PropOp43
 70
     1
102
RTVSPost2010Prop44ColorIndex
 90
        5
102
RTVSPost2010Prop44ColorRGB
 90
      255
102
RTVSPost2010PropOp44
 70
     1
102
RTVSPost2010Prop45
280
     0
102
RTVSPost2010PropOp45
 70
     1
102
RTVSPost2010Prop46
 90
       50
102
RTVSPost2010PropOp46
 70
     1
102
RTVSPost2010Prop47
 90
       50
102
RTVSPost2010PropOp47
 70
     1
102
RTVSPost2010Prop48
 90
       50
102
RTVSPost2010PropOp48
 70
     1
102
RTVSPost2010Prop49
280
     0
102
RTVSPost2010PropOp49
 70
     1
102
RTVSPost2010Prop50
 90
       50
102
RTVSPost2010PropOp50
 70
     1
102
RTVSPost2010Prop51ColorIndex
 90
      256
102
RTVSPost2010Prop51ColorRGB
 90
-16777216
102
RTVSPost2010PropOp51
 70
     0
102
RTVSPost2010Prop52
140
1.0
102
RTVSPost2010PropOp52
 70
     0
102
RTVSPost2010Prop53
 90
        2
102
RTVSPost2010PropOp53
 70
     1
102
RTVSPost2010Prop54
  1
strokes_ogs.tif
102
RTVSPost2010PropOp54
 70
     1
102
RTVSPost2010Prop55
280
     0
102
RTVSPost2010PropOp55
 70
     1
102
RTVSPost2010Prop56
140
1.0
102
RTVSPost2010PropOp56
 70
     1
102
RTVSPost2010Prop57
140
1.0
102
RTVSPost2010PropOp57
 70
     1
102
RTVSPropertyOp0
 70
     1
102
RTVSPropertyOp1
 70
     1
102
RTVSPropertyOp2
 70
     1
102
RTVSPropertyOp3
 70
     1
102
RTVSPropertyOp4
 70
     1
102
RTVSPropertyOp5
 70
     1
102
RTVSPropertyOp6
 70
     1
102
RTVSPropertyOp7
 70
     1
102
RTVSPropertyOp8
 70
     1
102
RTVSPropertyOp9
 70
     1
102
RTVSPropertyOp10
 70
     1
102
RTVSPropertyOp11
 70
     1
102
RTVSPropertyOp12
 70
     1
102
RTVSPropertyOp13
 70
     1
102
RTVSPropertyOp14
 70
     1
102
RTVSPropertyOp15
 70
     1
102
RTVSPropertyOp16
 70
     1
102
RTVSPropertyOp17
 70
     1
102
RTVSPropertyOp18
 70
     1
102
RTVSPropertyOp19
 70
     1
102
RTVSPropertyOp20
 70
     1
102
RTVSPropertyOp21
 70
     1
102
RTVSPropertyOp22
 70
     1
102
RTVSPropertyOp23
 70
     1
102
RTVSPropertyOp24
 70
     1
102
RTVSPropertyOp25
 70
     1
102
RTVSPropertyOp26
 70
     1
102
RTVSPropertyOp27
 70
     1
102
RTVSPropertyOp28
 70
     1
102
RTVSPropertyOp29
 70
     1
102
RTVSPropertyOp30
 70
     1
102
RTVSPropertyOp31
 70
     1
102
RTVSPropertyOp32
 70
     1
102
RTVSPropertyOp33
 70
     1
102
RTVSPropertyOp34
 70
     1
102
RTVSPropertyOp35
 70
     1
102
RTVSPropertyOp36
 70
     1
102
RTVSPropertyOp37
 70
     1
102
RTVSPropertyOp38
 70
     1
102
RTVSPropertyOp39
 70
     1
102
RTVSPropertyOp40
 70
     1
102
RTVSPropertyOp41
 70
     1
102
RTVSPropertyOp42
 70
     1
102
RTVSPropertyOp43
 70
     1
102
RTVSPropertyOp44
 70
     1
102
RTVSPropertyOp45
 70
     1
102
RTVSPropertyOp46
 70
     1
102
RTVSPropertyOp47
 70
     1
102
RTVSPropertyOp48
 70
     1
102
RTVSPropertyOp49
 70
     1
102
RTVSPropertyOp50
 70
     1
102
RTVSPropertyOp51
 70
     0
102
RTVSPropertyOp52
 70
     0
102
RTVSPropertyOp53
 70
     1
102
RTVSPropertyOp54
 70
     1
102
RTVSPropertyOp55
 70
     1
102
RTVSPropertyOp56
 70
     1
102
RTVSPropertyOp57
 70
     1
102
RTVSPropertyOp58
 70
     1
102
RTVSPropertyOp59
 70
     1
102
RTVSPropertyOp60
 70
     1
102
RTVSPropertyOp61
 70
     1
102
RTVSPropertyOp62
 70
     1
  0
XRECORD
  5
A56
102
{ACAD_REACTORS
330
A55
102
}
330
A55
100
AcDbXrecord
280
     1
102
RTVSPost2010Prop28
280
     0
102
RTVSPost2010PropOp28
 70
     1
102
RTVSPost2010Prop29
280
     1
102
RTVSPost2010PropOp29
 70
     1
102
RTVSPost2010Prop30
280
     1
102
RTVSPost2010PropOp30
 70
     1
102
RTVSPost2010Prop31
280
     0
102
RTVSPost2010PropOp31
 70
     1
102
RTVSPost2010Prop32
280
     0
102
RTVSPost2010PropOp32
 70
     1
102
RTVSPost2010Prop33
280
     0
102
RTVSPost2010PropOp33
 70
     1
102
RTVSPost2010Prop34
280
     0
102
RTVSPost2010PropOp34
 70
     1
102
RTVSPost2010Prop35
280
     0
102
RTVSPost2010PropOp35
 70
     1
102
RTVSPost2010Prop36
280
     0
102
RTVSPost2010PropOp36
 70
     1
102
RTVSPost2010Prop37
 90
       50
102
RTVSPost2010PropOp37
 70
     1
102
RTVSPost2010Prop38
140
0.0
102
RTVSPost2010PropOp38
 70
     1
102
RTVSPost2010Prop39
140
1.0
102
RTVSPost2010PropOp39
 70
     1
102
RTVSPost2010Prop40
 90
        0
102
RTVSPost2010PropOp40
 70
     1
102
RTVSPost2010Prop41ColorIndex
 90
       18
102
RTVSPost2010Prop41ColorRGB
 90
        0
102
RTVSPost2010PropOp41
 70
     1
102
RTVSPost2010Prop42
 90
       50
102
RTVSPost2010PropOp42
 70
     1
102
RTVSPost2010Prop43
 90
        3
102
RTVSPost2010PropOp43
 70
     1
102
RTVSPost2010Prop44ColorIndex
 90
        5
102
RTVSPost2010Prop44ColorRGB
 90
      255
102
RTVSPost2010PropOp44
 70
     1
102
RTVSPost2010Prop45
280
     0
102
RTVSPost2010PropOp45
 70
     1
102
RTVSPost2010Prop46
 90
       50
102
RTVSPost2010PropOp46
 70
     1
102
RTVSPost2010Prop47
 90
       50
102
RTVSPost2010PropOp47
 70
     1
102
RTVSPost2010Prop48
 90
       50
102
RTVSPost2010PropOp48
 70
     1
102
RTVSPost2010Prop49
280
     0
102
RTVSPost2010PropOp49
 70
     1
102
RTVSPost2010Prop50
 90
       50
102
RTVSPost2010PropOp50
 70
     1
102
RTVSPost2010Prop51ColorIndex
 90
      256
102
RTVSPost2010Prop51ColorRGB
 90
-16777216
102
RTVSPost2010PropOp51
 70
     0
102
RTVSPost2010Prop52
140
1.0
102
RTVSPost2010PropOp52
 70
     0
102
RTVSPost2010Prop53
 90
        2
102
RTVSPost2010PropOp53
 70
     1
102
RTVSPost2010Prop54
  1
strokes_ogs.tif
102
RTVSPost2010PropOp54
 70
     1
102
RTVSPost2010Prop55
280
     0
102
RTVSPost2010PropOp55
 70
     1
102
RTVSPost2010Prop56
140
1.0
102
RTVSPost2010PropOp56
 70
     1
102
RTVSPost2010Prop57
140
1.0
102
RTVSPost2010PropOp57
 70
     1
102
RTVSPropertyOp0
 70
     1
102
RTVSPropertyOp1
 70
     1
102
RTVSPropertyOp2
 70
     1
102
RTVSPropertyOp3
 70
     1
102
RTVSPropertyOp4
 70
     1
102
RTVSPropertyOp5
 70
     1
102
RTVSPropertyOp6
 70
     1
102
RTVSPropertyOp7
 70
     1
102
RTVSPropertyOp8
 70
     1
102
RTVSPropertyOp9
 70
     1
102
RTVSPropertyOp10
 70
     1
102
RTVSPropertyOp11
 70
     1
102
RTVSPropertyOp12
 70
     1
102
RTVSPropertyOp13
 70
     1
102
RTVSPropertyOp14
 70
     1
102
RTVSPropertyOp15
 70
     1
102
RTVSPropertyOp16
 70
     1
102
RTVSPropertyOp17
 70
     1
102
RTVSPropertyOp18
 70
     1
102
RTVSPropertyOp19
 70
     1
102
RTVSPropertyOp20
 70
     1
102
RTVSPropertyOp21
 70
     1
102
RTVSPropertyOp22
 70
     1
102
RTVSPropertyOp23
 70
     1
102
RTVSPropertyOp24
 70
     1
102
RTVSPropertyOp25
 70
     1
102
RTVSPropertyOp26
 70
     1
102
RTVSPropertyOp27
 70
     1
102
RTVSPropertyOp28
 70
     1
102
RTVSPropertyOp29
 70
     1
102
RTVSPropertyOp30
 70
     1
102
RTVSPropertyOp31
 70
     1
102
RTVSPropertyOp32
 70
     1
102
RTVSPropertyOp33
 70
     1
102
RTVSPropertyOp34
 70
     1
102
RTVSPropertyOp35
 70
     1
102
RTVSPropertyOp36
 70
     1
102
RTVSPropertyOp37
 70
     1
102
RTVSPropertyOp38
 70
     1
102
RTVSPropertyOp39
 70
     1
102
RTVSPropertyOp40
 70
     1
102
RTVSPropertyOp41
 70
     1
102
RTVSPropertyOp42
 70
     1
102
RTVSPropertyOp43
 70
     1
102
RTVSPropertyOp44
 70
     1
102
RTVSPropertyOp45
 70
     1
102
RTVSPropertyOp46
 70
     1
102
RTVSPropertyOp47
 70
     1
102
RTVSPropertyOp48
 70
     1
102
RTVSPropertyOp49
 70
     1
102
RTVSPropertyOp50
 70
     1
102
RTVSPropertyOp51
 70
     0
102
RTVSPropertyOp52
 70
     0
102
RTVSPropertyOp53
 70
     1
102
RTVSPropertyOp54
 70
     1
102
RTVSPropertyOp55
 70
     1
102
RTVSPropertyOp56
 70
     1
102
RTVSPropertyOp57
 70
     1
102
RTVSPropertyOp58
 70
     1
102
RTVSPropertyOp59
 70
     1
102
RTVSPropertyOp60
 70
     1
102
RTVSPropertyOp61
 70
     1
102
RTVSPropertyOp62
 70
     1
  0
XRECORD
  5
A72
102
{ACAD_REACTORS
330
A71
102
}
330
A71
100
AcDbXrecord
280
     1
102
RTVSPost2010Prop28
280
     0
102
RTVSPost2010PropOp28
 70
     0
102
RTVSPost2010Prop29
280
     1
102
RTVSPost2010PropOp29
 70
     0
102
RTVSPost2010Prop30
280
     1
102
RTVSPost2010PropOp30
 70
     0
102
RTVSPost2010Prop31
280
     0
102
RTVSPost2010PropOp31
 70
     0
102
RTVSPost2010Prop32
280
     0
102
RTVSPost2010PropOp32
 70
     0
102
RTVSPost2010Prop33
280
     0
102
RTVSPost2010PropOp33
 70
     0
102
RTVSPost2010Prop34
280
     0
102
RTVSPost2010PropOp34
 70
     0
102
RTVSPost2010Prop35
280
     0
102
RTVSPost2010PropOp35
 70
     0
102
RTVSPost2010Prop36
280
     0
102
RTVSPost2010PropOp36
 70
     0
102
RTVSPost2010Prop37
 90
       50
102
RTVSPost2010PropOp37
 70
     0
102
RTVSPost2010Prop38
140
0.0
102
RTVSPost2010PropOp38
 70
     0
102
RTVSPost2010Prop39
140
1.0
102
RTVSPost2010PropOp39
 70
     0
102
RTVSPost2010Prop40
 90
        0
102
RTVSPost2010PropOp40
 70
     0
102
RTVSPost2010Prop41ColorIndex
 90
       18
102
RTVSPost2010Prop41ColorRGB
 90
        0
102
RTVSPost2010PropOp41
 70
     0
102
RTVSPost2010Prop42
 90
       50
102
RTVSPost2010PropOp42
 70
     0
102
RTVSPost2010Prop43
 90
        3
102
RTVSPost2010PropOp43
 70
     0
102
RTVSPost2010Prop44ColorIndex
 90
        5
102
RTVSPost2010Prop44ColorRGB
 90
      255
102
RTVSPost2010PropOp44
 70
     0
102
RTVSPost2010Prop45
280
     0
102
RTVSPost2010PropOp45
 70
     0
102
RTVSPost2010Prop46
 90
       50
102
RTVSPost2010PropOp46
 70
     0
102
RTVSPost2010Prop47
 90
       50
102
RTVSPost2010PropOp47
 70
     0
102
RTVSPost2010Prop48
 90
       50
102
RTVSPost2010PropOp48
 70
     0
102
RTVSPost2010Prop49
280
     0
102
RTVSPost2010PropOp49
 70
     0
102
RTVSPost2010Prop50
 90
       50
102
RTVSPost2010PropOp50
 70
     0
102
RTVSPost2010Prop51ColorIndex
 90
      256
102
RTVSPost2010Prop51ColorRGB
 90
-16777216
102
RTVSPost2010PropOp51
 70
     0
102
RTVSPost2010Prop52
140
1.0
102
RTVSPost2010PropOp52
 70
     0
102
RTVSPost2010Prop53
 90
        2
102
RTVSPost2010PropOp53
 70
     0
102
RTVSPost2010Prop54
  1
strokes_ogs.tif
102
RTVSPost2010PropOp54
 70
     0
102
RTVSPost2010Prop55
280
     0
102
RTVSPost2010PropOp55
 70
     0
102
RTVSPost2010Prop56
140
1.0
102
RTVSPost2010PropOp56
 70
     0
102
RTVSPost2010Prop57
140
1.0
102
RTVSPost2010PropOp57
 70
     0
102
RTVSPropertyOp0
 70
     0
102
RTVSPropertyOp1
 70
     0
102
RTVSPropertyOp2
 70
     0
102
RTVSPropertyOp3
 70
     0
102
RTVSPropertyOp4
 70
     0
102
RTVSPropertyOp5
 70
     0
102
RTVSPropertyOp6
 70
     0
102
RTVSPropertyOp7
 70
     0
102
RTVSPropertyOp8
 70
     0
102
RTVSPropertyOp9
 70
     0
102
RTVSPropertyOp10
 70
     0
102
RTVSPropertyOp11
 70
     0
102
RTVSPropertyOp12
 70
     0
102
RTVSPropertyOp13
 70
     0
102
RTVSPropertyOp14
 70
     2
102
RTVSPropertyOp15
 70
     0
102
RTVSPropertyOp16
 70
     0
102
RTVSPropertyOp17
 70
     0
102
RTVSPropertyOp18
 70
     0
102
RTVSPropertyOp19
 70
     0
102
RTVSPropertyOp20
 70
     0
102
RTVSPropertyOp21
 70
     0
102
RTVSPropertyOp22
 70
     0
102
RTVSPropertyOp23
 70
     0
102
RTVSPropertyOp24
 70
     0
102
RTVSPropertyOp25
 70
     0
102
RTVSPropertyOp26
 70
     0
102
RTVSPropertyOp27
 70
     0
102
RTVSPropertyOp28
 70
     0
102
RTVSPropertyOp29
 70
     0
102
RTVSPropertyOp30
 70
     0
102
RTVSPropertyOp31
 70
     0
102
RTVSPropertyOp32
 70
     0
102
RTVSPropertyOp33
 70
     0
102
RTVSPropertyOp34
 70
     0
102
RTVSPropertyOp35
 70
     0
102
RTVSPropertyOp36
 70
     0
102
RTVSPropertyOp37
 70
     0
102
RTVSPropertyOp38
 70
     0
102
RTVSPropertyOp39
 70
     0
102
RTVSPropertyOp40
 70
     0
102
RTVSPropertyOp41
 70
     0
102
RTVSPropertyOp42
 70
     0
102
RTVSPropertyOp43
 70
     0
102
RTVSPropertyOp44
 70
     0
102
RTVSPropertyOp45
 70
     0
102
RTVSPropertyOp46
 70
     0
102
RTVSPropertyOp47
 70
     0
102
RTVSPropertyOp48
 70
     0
102
RTVSPropertyOp49
 70
     0
102
RTVSPropertyOp50
 70
     0
102
RTVSPropertyOp51
 70
     0
102
RTVSPropertyOp52
 70
     0
102
RTVSPropertyOp53
 70
     0
102
RTVSPropertyOp54
 70
     0
102
RTVSPropertyOp55
 70
     0
102
RTVSPropertyOp56
 70
     0
102
RTVSPropertyOp57
 70
     0
102
RTVSPropertyOp58
 70
     0
102
RTVSPropertyOp59
 70
     0
102
RTVSPropertyOp60
 70
     0
102
RTVSPropertyOp61
 70
     0
102
RTVSPropertyOp62
 70
     0
  0
XRECORD
  5
A62
102
{ACAD_REACTORS
330
A61
102
}
330
A61
100
AcDbXrecord
280
     1
102
RTVSPost2010Prop28
280
     0
102
RTVSPost2010PropOp28
 70
     1
102
RTVSPost2010Prop29
280
     1
102
RTVSPost2010PropOp29
 70
     1
102
RTVSPost2010Prop30
280
     1
102
RTVSPost2010PropOp30
 70
     1
102
RTVSPost2010Prop31
280
     0
102
RTVSPost2010PropOp31
 70
     1
102
RTVSPost2010Prop32
280
     0
102
RTVSPost2010PropOp32
 70
     1
102
RTVSPost2010Prop33
280
     0
102
RTVSPost2010PropOp33
 70
     1
102
RTVSPost2010Prop34
280
     0
102
RTVSPost2010PropOp34
 70
     1
102
RTVSPost2010Prop35
280
     0
102
RTVSPost2010PropOp35
 70
     1
102
RTVSPost2010Prop36
280
     0
102
RTVSPost2010PropOp36
 70
     1
102
RTVSPost2010Prop37
 90
       50
102
RTVSPost2010PropOp37
 70
     1
102
RTVSPost2010Prop38
140
0.0
102
RTVSPost2010PropOp38
 70
     1
102
RTVSPost2010Prop39
140
1.0
102
RTVSPost2010PropOp39
 70
     1
102
RTVSPost2010Prop40
 90
        0
102
RTVSPost2010PropOp40
 70
     1
102
RTVSPost2010Prop41ColorIndex
 90
       18
102
RTVSPost2010Prop41ColorRGB
 90
        0
102
RTVSPost2010PropOp41
 70
     1
102
RTVSPost2010Prop42
 90
       50
102
RTVSPost2010PropOp42
 70
     1
102
RTVSPost2010Prop43
 90
        3
102
RTVSPost2010PropOp43
 70
     1
102
RTVSPost2010Prop44ColorIndex
 90
        5
102
RTVSPost2010Prop44ColorRGB
 90
      255
102
RTVSPost2010PropOp44
 70
     1
102
RTVSPost2010Prop45
280
     0
102
RTVSPost2010PropOp45
 70
     1
102
RTVSPost2010Prop46
 90
       50
102
RTVSPost2010PropOp46
 70
     1
102
RTVSPost2010Prop47
 90
       50
102
RTVSPost2010PropOp47
 70
     1
102
RTVSPost2010Prop48
 90
       50
102
RTVSPost2010PropOp48
 70
     1
102
RTVSPost2010Prop49
280
     0
102
RTVSPost2010PropOp49
 70
     1
102
RTVSPost2010Prop50
 90
       50
102
RTVSPost2010PropOp50
 70
     1
102
RTVSPost2010Prop51ColorIndex
 90
      256
102
RTVSPost2010Prop51ColorRGB
 90
-16777216
102
RTVSPost2010PropOp51
 70
     0
102
RTVSPost2010Prop52
140
1.0
102
RTVSPost2010PropOp52
 70
     0
102
RTVSPost2010Prop53
 90
        2
102
RTVSPost2010PropOp53
 70
     1
102
RTVSPost2010Prop54
  1
strokes_ogs.tif
102
RTVSPost2010PropOp54
 70
     1
102
RTVSPost2010Prop55
280
     0
102
RTVSPost2010PropOp55
 70
     1
102
RTVSPost2010Prop56
140
1.0
102
RTVSPost2010PropOp56
 70
     1
102
RTVSPost2010Prop57
140
1.0
102
RTVSPost2010PropOp57
 70
     1
102
RTVSPropertyOp0
 70
     1
102
RTVSPropertyOp1
 70
     1
102
RTVSPropertyOp2
 70
     1
102
RTVSPropertyOp3
 70
     1
102
RTVSPropertyOp4
 70
     1
102
RTVSPropertyOp5
 70
     1
102
RTVSPropertyOp6
 70
     1
102
RTVSPropertyOp7
 70
     1
102
RTVSPropertyOp8
 70
     1
102
RTVSPropertyOp9
 70
     1
102
RTVSPropertyOp10
 70
     1
102
RTVSPropertyOp11
 70
     1
102
RTVSPropertyOp12
 70
     1
102
RTVSPropertyOp13
 70
     1
102
RTVSPropertyOp14
 70
     1
102
RTVSPropertyOp15
 70
     1
102
RTVSPropertyOp16
 70
     1
102
RTVSPropertyOp17
 70
     1
102
RTVSPropertyOp18
 70
     1
102
RTVSPropertyOp19
 70
     1
102
RTVSPropertyOp20
 70
     1
102
RTVSPropertyOp21
 70
     1
102
RTVSPropertyOp22
 70
     1
102
RTVSPropertyOp23
 70
     1
102
RTVSPropertyOp24
 70
     1
102
RTVSPropertyOp25
 70
     1
102
RTVSPropertyOp26
 70
     1
102
RTVSPropertyOp27
 70
     1
102
RTVSPropertyOp28
 70
     1
102
RTVSPropertyOp29
 70
     1
102
RTVSPropertyOp30
 70
     1
102
RTVSPropertyOp31
 70
     1
102
RTVSPropertyOp32
 70
     1
102
RTVSPropertyOp33
 70
     1
102
RTVSPropertyOp34
 70
     1
102
RTVSPropertyOp35
 70
     1
102
RTVSPropertyOp36
 70
     1
102
RTVSPropertyOp37
 70
     1
102
RTVSPropertyOp38
 70
     1
102
RTVSPropertyOp39
 70
     1
102
RTVSPropertyOp40
 70
     1
102
RTVSPropertyOp41
 70
     1
102
RTVSPropertyOp42
 70
     1
102
RTVSPropertyOp43
 70
     1
102
RTVSPropertyOp44
 70
     1
102
RTVSPropertyOp45
 70
     1
102
RTVSPropertyOp46
 70
     1
102
RTVSPropertyOp47
 70
     1
102
RTVSPropertyOp48
 70
     1
102
RTVSPropertyOp49
 70
     1
102
RTVSPropertyOp50
 70
     1
102
RTVSPropertyOp51
 70
     0
102
RTVSPropertyOp52
 70
     0
102
RTVSPropertyOp53
 70
     1
102
RTVSPropertyOp54
 70
     1
102
RTVSPropertyOp55
 70
     1
102
RTVSPropertyOp56
 70
     1
102
RTVSPropertyOp57
 70
     1
102
RTVSPropertyOp58
 70
     1
102
RTVSPropertyOp59
 70
     1
102
RTVSPropertyOp60
 70
     1
102
RTVSPropertyOp61
 70
     1
102
RTVSPropertyOp62
 70
     1
  0
XRECORD
  5
A74
102
{ACAD_REACTORS
330
A73
102
}
330
A73
100
AcDbXrecord
280
     1
102
RTVSPost2010Prop28
280
     0
102
RTVSPost2010PropOp28
 70
     0
102
RTVSPost2010Prop29
280
     1
102
RTVSPost2010PropOp29
 70
     0
102
RTVSPost2010Prop30
280
     1
102
RTVSPost2010PropOp30
 70
     0
102
RTVSPost2010Prop31
280
     0
102
RTVSPost2010PropOp31
 70
     0
102
RTVSPost2010Prop32
280
     0
102
RTVSPost2010PropOp32
 70
     0
102
RTVSPost2010Prop33
280
     0
102
RTVSPost2010PropOp33
 70
     0
102
RTVSPost2010Prop34
280
     0
102
RTVSPost2010PropOp34
 70
     0
102
RTVSPost2010Prop35
280
     0
102
RTVSPost2010PropOp35
 70
     0
102
RTVSPost2010Prop36
280
     0
102
RTVSPost2010PropOp36
 70
     0
102
RTVSPost2010Prop37
 90
       50
102
RTVSPost2010PropOp37
 70
     0
102
RTVSPost2010Prop38
140
0.0
102
RTVSPost2010PropOp38
 70
     0
102
RTVSPost2010Prop39
140
1.0
102
RTVSPost2010PropOp39
 70
     0
102
RTVSPost2010Prop40
 90
        0
102
RTVSPost2010PropOp40
 70
     0
102
RTVSPost2010Prop41ColorIndex
 90
       18
102
RTVSPost2010Prop41ColorRGB
 90
        0
102
RTVSPost2010PropOp41
 70
     0
102
RTVSPost2010Prop42
 90
       50
102
RTVSPost2010PropOp42
 70
     0
102
RTVSPost2010Prop43
 90
        3
102
RTVSPost2010PropOp43
 70
     0
102
RTVSPost2010Prop44ColorIndex
 90
        5
102
RTVSPost2010Prop44ColorRGB
 90
      255
102
RTVSPost2010PropOp44
 70
     0
102
RTVSPost2010Prop45
280
     0
102
RTVSPost2010PropOp45
 70
     0
102
RTVSPost2010Prop46
 90
       50
102
RTVSPost2010PropOp46
 70
     0
102
RTVSPost2010Prop47
 90
       50
102
RTVSPost2010PropOp47
 70
     0
102
RTVSPost2010Prop48
 90
       50
102
RTVSPost2010PropOp48
 70
     0
102
RTVSPost2010Prop49
280
     0
102
RTVSPost2010PropOp49
 70
     0
102
RTVSPost2010Prop50
 90
       50
102
RTVSPost2010PropOp50
 70
     0
102
RTVSPost2010Prop51ColorIndex
 90
      256
102
RTVSPost2010Prop51ColorRGB
 90
-16777216
102
RTVSPost2010PropOp51
 70
     0
102
RTVSPost2010Prop52
140
1.0
102
RTVSPost2010PropOp52
 70
     0
102
RTVSPost2010Prop53
 90
        2
102
RTVSPost2010PropOp53
 70
     0
102
RTVSPost2010Prop54
  1
strokes_ogs.tif
102
RTVSPost2010PropOp54
 70
     0
102
RTVSPost2010Prop55
280
     0
102
RTVSPost2010PropOp55
 70
     0
102
RTVSPost2010Prop56
140
1.0
102
RTVSPost2010PropOp56
 70
     0
102
RTVSPost2010Prop57
140
1.0
102
RTVSPost2010PropOp57
 70
     0
102
RTVSPropertyOp0
 70
     0
102
RTVSPropertyOp1
 70
     0
102
RTVSPropertyOp2
 70
     0
102
RTVSPropertyOp3
 70
     0
102
RTVSPropertyOp4
 70
     0
102
RTVSPropertyOp5
 70
     0
102
RTVSPropertyOp6
 70
     0
102
RTVSPropertyOp7
 70
     0
102
RTVSPropertyOp8
 70
     0
102
RTVSPropertyOp9
 70
     0
102
RTVSPropertyOp10
 70
     0
102
RTVSPropertyOp11
 70
     0
102
RTVSPropertyOp12
 70
     0
102
RTVSPropertyOp13
 70
     0
102
RTVSPropertyOp14
 70
     2
102
RTVSPropertyOp15
 70
     0
102
RTVSPropertyOp16
 70
     0
102
RTVSPropertyOp17
 70
     0
102
RTVSPropertyOp18
 70
     0
102
RTVSPropertyOp19
 70
     0
102
RTVSPropertyOp20
 70
     0
102
RTVSPropertyOp21
 70
     0
102
RTVSPropertyOp22
 70
     0
102
RTVSPropertyOp23
 70
     0
102
RTVSPropertyOp24
 70
     0
102
RTVSPropertyOp25
 70
     0
102
RTVSPropertyOp26
 70
     0
102
RTVSPropertyOp27
 70
     0
102
RTVSPropertyOp28
 70
     0
102
RTVSPropertyOp29
 70
     0
102
RTVSPropertyOp30
 70
     0
102
RTVSPropertyOp31
 70
     0
102
RTVSPropertyOp32
 70
     0
102
RTVSPropertyOp33
 70
     0
102
RTVSPropertyOp34
 70
     0
102
RTVSPropertyOp35
 70
     0
102
RTVSPropertyOp36
 70
     0
102
RTVSPropertyOp37
 70
     0
102
RTVSPropertyOp38
 70
     0
102
RTVSPropertyOp39
 70
     0
102
RTVSPropertyOp40
 70
     0
102
RTVSPropertyOp41
 70
     0
102
RTVSPropertyOp42
 70
     0
102
RTVSPropertyOp43
 70
     0
102
RTVSPropertyOp44
 70
     0
102
RTVSPropertyOp45
 70
     0
102
RTVSPropertyOp46
 70
     0
102
RTVSPropertyOp47
 70
     0
102
RTVSPropertyOp48
 70
     0
102
RTVSPropertyOp49
 70
     0
102
RTVSPropertyOp50
 70
     0
102
RTVSPropertyOp51
 70
     0
102
RTVSPropertyOp52
 70
     0
102
RTVSPropertyOp53
 70
     0
102
RTVSPropertyOp54
 70
     0
102
RTVSPropertyOp55
 70
     0
102
RTVSPropertyOp56
 70
     0
102
RTVSPropertyOp57
 70
     0
102
RTVSPropertyOp58
 70
     0
102
RTVSPropertyOp59
 70
     0
102
RTVSPropertyOp60
 70
     0
102
RTVSPropertyOp61
 70
     0
102
RTVSPropertyOp62
 70
     0
  0
XRECORD
  5
A5A
102
{ACAD_REACTORS
330
A59
102
}
330
A59
100
AcDbXrecord
280
     1
102
RTVSPost2010Prop28
280
     0
102
RTVSPost2010PropOp28
 70
     1
102
RTVSPost2010Prop29
280
     1
102
RTVSPost2010PropOp29
 70
     1
102
RTVSPost2010Prop30
280
     1
102
RTVSPost2010PropOp30
 70
     1
102
RTVSPost2010Prop31
280
     0
102
RTVSPost2010PropOp31
 70
     1
102
RTVSPost2010Prop32
280
     0
102
RTVSPost2010PropOp32
 70
     1
102
RTVSPost2010Prop33
280
     0
102
RTVSPost2010PropOp33
 70
     1
102
RTVSPost2010Prop34
280
     0
102
RTVSPost2010PropOp34
 70
     1
102
RTVSPost2010Prop35
280
     0
102
RTVSPost2010PropOp35
 70
     1
102
RTVSPost2010Prop36
280
     0
102
RTVSPost2010PropOp36
 70
     1
102
RTVSPost2010Prop37
 90
       50
102
RTVSPost2010PropOp37
 70
     1
102
RTVSPost2010Prop38
140
0.0
102
RTVSPost2010PropOp38
 70
     1
102
RTVSPost2010Prop39
140
1.0
102
RTVSPost2010PropOp39
 70
     1
102
RTVSPost2010Prop40
 90
        0
102
RTVSPost2010PropOp40
 70
     1
102
RTVSPost2010Prop41ColorIndex
 90
       18
102
RTVSPost2010Prop41ColorRGB
 90
        0
102
RTVSPost2010PropOp41
 70
     1
102
RTVSPost2010Prop42
 90
       50
102
RTVSPost2010PropOp42
 70
     1
102
RTVSPost2010Prop43
 90
        3
102
RTVSPost2010PropOp43
 70
     1
102
RTVSPost2010Prop44ColorIndex
 90
        5
102
RTVSPost2010Prop44ColorRGB
 90
      255
102
RTVSPost2010PropOp44
 70
     1
102
RTVSPost2010Prop45
280
     0
102
RTVSPost2010PropOp45
 70
     1
102
RTVSPost2010Prop46
 90
       50
102
RTVSPost2010PropOp46
 70
     1
102
RTVSPost2010Prop47
 90
       50
102
RTVSPost2010PropOp47
 70
     1
102
RTVSPost2010Prop48
 90
       50
102
RTVSPost2010PropOp48
 70
     1
102
RTVSPost2010Prop49
280
     0
102
RTVSPost2010PropOp49
 70
     1
102
RTVSPost2010Prop50
 90
       50
102
RTVSPost2010PropOp50
 70
     1
102
RTVSPost2010Prop51ColorIndex
 90
      256
102
RTVSPost2010Prop51ColorRGB
 90
-16777216
102
RTVSPost2010PropOp51
 70
     0
102
RTVSPost2010Prop52
140
1.0
102
RTVSPost2010PropOp52
 70
     0
102
RTVSPost2010Prop53
 90
        2
102
RTVSPost2010PropOp53
 70
     1
102
RTVSPost2010Prop54
  1
strokes_ogs.tif
102
RTVSPost2010PropOp54
 70
     1
102
RTVSPost2010Prop55
280
     0
102
RTVSPost2010PropOp55
 70
     1
102
RTVSPost2010Prop56
140
1.0
102
RTVSPost2010PropOp56
 70
     1
102
RTVSPost2010Prop57
140
1.0
102
RTVSPost2010PropOp57
 70
     1
102
RTVSPropertyOp0
 70
     1
102
RTVSPropertyOp1
 70
     1
102
RTVSPropertyOp2
 70
     1
102
RTVSPropertyOp3
 70
     1
102
RTVSPropertyOp4
 70
     1
102
RTVSPropertyOp5
 70
     1
102
RTVSPropertyOp6
 70
     1
102
RTVSPropertyOp7
 70
     1
102
RTVSPropertyOp8
 70
     1
102
RTVSPropertyOp9
 70
     1
102
RTVSPropertyOp10
 70
     1
102
RTVSPropertyOp11
 70
     1
102
RTVSPropertyOp12
 70
     1
102
RTVSPropertyOp13
 70
     1
102
RTVSPropertyOp14
 70
     1
102
RTVSPropertyOp15
 70
     1
102
RTVSPropertyOp16
 70
     1
102
RTVSPropertyOp17
 70
     1
102
RTVSPropertyOp18
 70
     1
102
RTVSPropertyOp19
 70
     1
102
RTVSPropertyOp20
 70
     1
102
RTVSPropertyOp21
 70
     1
102
RTVSPropertyOp22
 70
     1
102
RTVSPropertyOp23
 70
     1
102
RTVSPropertyOp24
 70
     1
102
RTVSPropertyOp25
 70
     1
102
RTVSPropertyOp26
 70
     1
102
RTVSPropertyOp27
 70
     1
102
RTVSPropertyOp28
 70
     1
102
RTVSPropertyOp29
 70
     1
102
RTVSPropertyOp30
 70
     1
102
RTVSPropertyOp31
 70
     1
102
RTVSPropertyOp32
 70
     1
102
RTVSPropertyOp33
 70
     1
102
RTVSPropertyOp34
 70
     1
102
RTVSPropertyOp35
 70
     1
102
RTVSPropertyOp36
 70
     1
102
RTVSPropertyOp37
 70
     1
102
RTVSPropertyOp38
 70
     1
102
RTVSPropertyOp39
 70
     1
102
RTVSPropertyOp40
 70
     1
102
RTVSPropertyOp41
 70
     1
102
RTVSPropertyOp42
 70
     1
102
RTVSPropertyOp43
 70
     1
102
RTVSPropertyOp44
 70
     1
102
RTVSPropertyOp45
 70
     1
102
RTVSPropertyOp46
 70
     1
102
RTVSPropertyOp47
 70
     1
102
RTVSPropertyOp48
 70
     1
102
RTVSPropertyOp49
 70
     1
102
RTVSPropertyOp50
 70
     1
102
RTVSPropertyOp51
 70
     0
102
RTVSPropertyOp52
 70
     0
102
RTVSPropertyOp53
 70
     1
102
RTVSPropertyOp54
 70
     1
102
RTVSPropertyOp55
 70
     1
102
RTVSPropertyOp56
 70
     1
102
RTVSPropertyOp57
 70
     1
102
RTVSPropertyOp58
 70
     1
102
RTVSPropertyOp59
 70
     1
102
RTVSPropertyOp60
 70
     1
102
RTVSPropertyOp61
 70
     1
102
RTVSPropertyOp62
 70
     1
  0
XRECORD
  5
A70
102
{ACAD_REACTORS
330
A6F
102
}
330
A6F
100
AcDbXrecord
280
     1
102
RTVSPost2010Prop28
280
     0
102
RTVSPost2010PropOp28
 70
     1
102
RTVSPost2010Prop29
280
     1
102
RTVSPost2010PropOp29
 70
     1
102
RTVSPost2010Prop30
280
     1
102
RTVSPost2010PropOp30
 70
     1
102
RTVSPost2010Prop31
280
     0
102
RTVSPost2010PropOp31
 70
     1
102
RTVSPost2010Prop32
280
     0
102
RTVSPost2010PropOp32
 70
     1
102
RTVSPost2010Prop33
280
     0
102
RTVSPost2010PropOp33
 70
     1
102
RTVSPost2010Prop34
280
     0
102
RTVSPost2010PropOp34
 70
     1
102
RTVSPost2010Prop35
280
     0
102
RTVSPost2010PropOp35
 70
     1
102
RTVSPost2010Prop36
280
     0
102
RTVSPost2010PropOp36
 70
     1
102
RTVSPost2010Prop37
 90
       50
102
RTVSPost2010PropOp37
 70
     1
102
RTVSPost2010Prop38
140
0.0
102
RTVSPost2010PropOp38
 70
     1
102
RTVSPost2010Prop39
140
1.0
102
RTVSPost2010PropOp39
 70
     1
102
RTVSPost2010Prop40
 90
        0
102
RTVSPost2010PropOp40
 70
     1
102
RTVSPost2010Prop41ColorIndex
 90
       18
102
RTVSPost2010Prop41ColorRGB
 90
        0
102
RTVSPost2010PropOp41
 70
     1
102
RTVSPost2010Prop42
 90
       50
102
RTVSPost2010PropOp42
 70
     1
102
RTVSPost2010Prop43
 90
        3
102
RTVSPost2010PropOp43
 70
     1
102
RTVSPost2010Prop44ColorIndex
 90
        5
102
RTVSPost2010Prop44ColorRGB
 90
      255
102
RTVSPost2010PropOp44
 70
     1
102
RTVSPost2010Prop45
280
     0
102
RTVSPost2010PropOp45
 70
     1
102
RTVSPost2010Prop46
 90
       50
102
RTVSPost2010PropOp46
 70
     1
102
RTVSPost2010Prop47
 90
       50
102
RTVSPost2010PropOp47
 70
     1
102
RTVSPost2010Prop48
 90
       50
102
RTVSPost2010PropOp48
 70
     1
102
RTVSPost2010Prop49
280
     0
102
RTVSPost2010PropOp49
 70
     1
102
RTVSPost2010Prop50
 90
       50
102
RTVSPost2010PropOp50
 70
     1
102
RTVSPost2010Prop51ColorIndex
 90
      256
102
RTVSPost2010Prop51ColorRGB
 90
-16777216
102
RTVSPost2010PropOp51
 70
     0
102
RTVSPost2010Prop52
140
1.0
102
RTVSPost2010PropOp52
 70
     0
102
RTVSPost2010Prop53
 90
        2
102
RTVSPost2010PropOp53
 70
     1
102
RTVSPost2010Prop54
  1
strokes_ogs.tif
102
RTVSPost2010PropOp54
 70
     1
102
RTVSPost2010Prop55
280
     0
102
RTVSPost2010PropOp55
 70
     1
102
RTVSPost2010Prop56
140
1.0
102
RTVSPost2010PropOp56
 70
     1
102
RTVSPost2010Prop57
140
1.0
102
RTVSPost2010PropOp57
 70
     1
102
RTVSPropertyOp0
 70
     1
102
RTVSPropertyOp1
 70
     1
102
RTVSPropertyOp2
 70
     1
102
RTVSPropertyOp3
 70
     1
102
RTVSPropertyOp4
 70
     1
102
RTVSPropertyOp5
 70
     1
102
RTVSPropertyOp6
 70
     1
102
RTVSPropertyOp7
 70
     1
102
RTVSPropertyOp8
 70
     1
102
RTVSPropertyOp9
 70
     1
102
RTVSPropertyOp10
 70
     1
102
RTVSPropertyOp11
 70
     1
102
RTVSPropertyOp12
 70
     1
102
RTVSPropertyOp13
 70
     1
102
RTVSPropertyOp14
 70
     1
102
RTVSPropertyOp15
 70
     1
102
RTVSPropertyOp16
 70
     1
102
RTVSPropertyOp17
 70
     1
102
RTVSPropertyOp18
 70
     1
102
RTVSPropertyOp19
 70
     1
102
RTVSPropertyOp20
 70
     1
102
RTVSPropertyOp21
 70
     1
102
RTVSPropertyOp22
 70
     1
102
RTVSPropertyOp23
 70
     1
102
RTVSPropertyOp24
 70
     1
102
RTVSPropertyOp25
 70
     1
102
RTVSPropertyOp26
 70
     1
102
RTVSPropertyOp27
 70
     1
102
RTVSPropertyOp28
 70
     1
102
RTVSPropertyOp29
 70
     1
102
RTVSPropertyOp30
 70
     1
102
RTVSPropertyOp31
 70
     1
102
RTVSPropertyOp32
 70
     1
102
RTVSPropertyOp33
 70
     1
102
RTVSPropertyOp34
 70
     1
102
RTVSPropertyOp35
 70
     1
102
RTVSPropertyOp36
 70
     1
102
RTVSPropertyOp37
 70
     1
102
RTVSPropertyOp38
 70
     1
102
RTVSPropertyOp39
 70
     1
102
RTVSPropertyOp40
 70
     1
102
RTVSPropertyOp41
 70
     1
102
RTVSPropertyOp42
 70
     1
102
RTVSPropertyOp43
 70
     1
102
RTVSPropertyOp44
 70
     1
102
RTVSPropertyOp45
 70
     1
102
RTVSPropertyOp46
 70
     1
102
RTVSPropertyOp47
 70
     1
102
RTVSPropertyOp48
 70
     1
102
RTVSPropertyOp49
 70
     1
102
RTVSPropertyOp50
 70
     1
102
RTVSPropertyOp51
 70
     0
102
RTVSPropertyOp52
 70
     0
102
RTVSPropertyOp53
 70
     1
102
RTVSPropertyOp54
 70
     1
102
RTVSPropertyOp55
 70
     1
102
RTVSPropertyOp56
 70
     1
102
RTVSPropertyOp57
 70
     1
102
RTVSPropertyOp58
 70
     1
102
RTVSPropertyOp59
 70
     1
102
RTVSPropertyOp60
 70
     1
102
RTVSPropertyOp61
 70
     1
102
RTVSPropertyOp62
 70
     1
  0
XRECORD
  5
A6E
102
{ACAD_REACTORS
330
A6D
102
}
330
A6D
100
AcDbXrecord
280
     1
102
RTVSPost2010Prop28
280
     0
102
RTVSPost2010PropOp28
 70
     1
102
RTVSPost2010Prop29
280
     1
102
RTVSPost2010PropOp29
 70
     1
102
RTVSPost2010Prop30
280
     1
102
RTVSPost2010PropOp30
 70
     1
102
RTVSPost2010Prop31
280
     0
102
RTVSPost2010PropOp31
 70
     1
102
RTVSPost2010Prop32
280
     0
102
RTVSPost2010PropOp32
 70
     1
102
RTVSPost2010Prop33
280
     0
102
RTVSPost2010PropOp33
 70
     1
102
RTVSPost2010Prop34
280
     0
102
RTVSPost2010PropOp34
 70
     1
102
RTVSPost2010Prop35
280
     0
102
RTVSPost2010PropOp35
 70
     1
102
RTVSPost2010Prop36
280
     0
102
RTVSPost2010PropOp36
 70
     1
102
RTVSPost2010Prop37
 90
       50
102
RTVSPost2010PropOp37
 70
     1
102
RTVSPost2010Prop38
140
0.0
102
RTVSPost2010PropOp38
 70
     1
102
RTVSPost2010Prop39
140
1.0
102
RTVSPost2010PropOp39
 70
     1
102
RTVSPost2010Prop40
 90
        0
102
RTVSPost2010PropOp40
 70
     1
102
RTVSPost2010Prop41ColorIndex
 90
       18
102
RTVSPost2010Prop41ColorRGB
 90
        0
102
RTVSPost2010PropOp41
 70
     1
102
RTVSPost2010Prop42
 90
       50
102
RTVSPost2010PropOp42
 70
     1
102
RTVSPost2010Prop43
 90
        3
102
RTVSPost2010PropOp43
 70
     1
102
RTVSPost2010Prop44ColorIndex
 90
        5
102
RTVSPost2010Prop44ColorRGB
 90
      255
102
RTVSPost2010PropOp44
 70
     1
102
RTVSPost2010Prop45
280
     0
102
RTVSPost2010PropOp45
 70
     1
102
RTVSPost2010Prop46
 90
       50
102
RTVSPost2010PropOp46
 70
     1
102
RTVSPost2010Prop47
 90
       50
102
RTVSPost2010PropOp47
 70
     1
102
RTVSPost2010Prop48
 90
       50
102
RTVSPost2010PropOp48
 70
     1
102
RTVSPost2010Prop49
280
     0
102
RTVSPost2010PropOp49
 70
     1
102
RTVSPost2010Prop50
 90
       50
102
RTVSPost2010PropOp50
 70
     1
102
RTVSPost2010Prop51ColorIndex
 90
      256
102
RTVSPost2010Prop51ColorRGB
 90
-16777216
102
RTVSPost2010PropOp51
 70
     0
102
RTVSPost2010Prop52
140
1.0
102
RTVSPost2010PropOp52
 70
     0
102
RTVSPost2010Prop53
 90
        2
102
RTVSPost2010PropOp53
 70
     1
102
RTVSPost2010Prop54
  1
strokes_ogs.tif
102
RTVSPost2010PropOp54
 70
     1
102
RTVSPost2010Prop55
280
     0
102
RTVSPost2010PropOp55
 70
     1
102
RTVSPost2010Prop56
140
1.0
102
RTVSPost2010PropOp56
 70
     1
102
RTVSPost2010Prop57
140
1.0
102
RTVSPost2010PropOp57
 70
     1
102
RTVSPropertyOp0
 70
     1
102
RTVSPropertyOp1
 70
     1
102
RTVSPropertyOp2
 70
     1
102
RTVSPropertyOp3
 70
     1
102
RTVSPropertyOp4
 70
     1
102
RTVSPropertyOp5
 70
     1
102
RTVSPropertyOp6
 70
     1
102
RTVSPropertyOp7
 70
     1
102
RTVSPropertyOp8
 70
     1
102
RTVSPropertyOp9
 70
     1
102
RTVSPropertyOp10
 70
     1
102
RTVSPropertyOp11
 70
     1
102
RTVSPropertyOp12
 70
     1
102
RTVSPropertyOp13
 70
     1
102
RTVSPropertyOp14
 70
     1
102
RTVSPropertyOp15
 70
     1
102
RTVSPropertyOp16
 70
     1
102
RTVSPropertyOp17
 70
     1
102
RTVSPropertyOp18
 70
     1
102
RTVSPropertyOp19
 70
     1
102
RTVSPropertyOp20
 70
     1
102
RTVSPropertyOp21
 70
     1
102
RTVSPropertyOp22
 70
     1
102
RTVSPropertyOp23
 70
     1
102
RTVSPropertyOp24
 70
     1
102
RTVSPropertyOp25
 70
     1
102
RTVSPropertyOp26
 70
     1
102
RTVSPropertyOp27
 70
     1
102
RTVSPropertyOp28
 70
     1
102
RTVSPropertyOp29
 70
     1
102
RTVSPropertyOp30
 70
     1
102
RTVSPropertyOp31
 70
     1
102
RTVSPropertyOp32
 70
     1
102
RTVSPropertyOp33
 70
     1
102
RTVSPropertyOp34
 70
     1
102
RTVSPropertyOp35
 70
     1
102
RTVSPropertyOp36
 70
     1
102
RTVSPropertyOp37
 70
     1
102
RTVSPropertyOp38
 70
     1
102
RTVSPropertyOp39
 70
     1
102
RTVSPropertyOp40
 70
     1
102
RTVSPropertyOp41
 70
     1
102
RTVSPropertyOp42
 70
     1
102
RTVSPropertyOp43
 70
     1
102
RTVSPropertyOp44
 70
     1
102
RTVSPropertyOp45
 70
     1
102
RTVSPropertyOp46
 70
     1
102
RTVSPropertyOp47
 70
     1
102
RTVSPropertyOp48
 70
     1
102
RTVSPropertyOp49
 70
     1
102
RTVSPropertyOp50
 70
     1
102
RTVSPropertyOp51
 70
     0
102
RTVSPropertyOp52
 70
     0
102
RTVSPropertyOp53
 70
     1
102
RTVSPropertyOp54
 70
     1
102
RTVSPropertyOp55
 70
     1
102
RTVSPropertyOp56
 70
     1
102
RTVSPropertyOp57
 70
     1
102
RTVSPropertyOp58
 70
     1
102
RTVSPropertyOp59
 70
     1
102
RTVSPropertyOp60
 70
     1
102
RTVSPropertyOp61
 70
     1
102
RTVSPropertyOp62
 70
     1
  0
XRECORD
  5
A68
102
{ACAD_REACTORS
330
A67
102
}
330
A67
100
AcDbXrecord
280
     1
102
RTVSPost2010Prop28
280
     0
102
RTVSPost2010PropOp28
 70
     1
102
RTVSPost2010Prop29
280
     1
102
RTVSPost2010PropOp29
 70
     1
102
RTVSPost2010Prop30
280
     1
102
RTVSPost2010PropOp30
 70
     1
102
RTVSPost2010Prop31
280
     0
102
RTVSPost2010PropOp31
 70
     1
102
RTVSPost2010Prop32
280
     0
102
RTVSPost2010PropOp32
 70
     1
102
RTVSPost2010Prop33
280
     0
102
RTVSPost2010PropOp33
 70
     1
102
RTVSPost2010Prop34
280
     0
102
RTVSPost2010PropOp34
 70
     1
102
RTVSPost2010Prop35
280
     0
102
RTVSPost2010PropOp35
 70
     1
102
RTVSPost2010Prop36
280
     0
102
RTVSPost2010PropOp36
 70
     1
102
RTVSPost2010Prop37
 90
       50
102
RTVSPost2010PropOp37
 70
     1
102
RTVSPost2010Prop38
140
0.0
102
RTVSPost2010PropOp38
 70
     1
102
RTVSPost2010Prop39
140
1.0
102
RTVSPost2010PropOp39
 70
     1
102
RTVSPost2010Prop40
 90
        0
102
RTVSPost2010PropOp40
 70
     1
102
RTVSPost2010Prop41ColorIndex
 90
       18
102
RTVSPost2010Prop41ColorRGB
 90
        0
102
RTVSPost2010PropOp41
 70
     1
102
RTVSPost2010Prop42
 90
       50
102
RTVSPost2010PropOp42
 70
     1
102
RTVSPost2010Prop43
 90
        3
102
RTVSPost2010PropOp43
 70
     1
102
RTVSPost2010Prop44ColorIndex
 90
        5
102
RTVSPost2010Prop44ColorRGB
 90
      255
102
RTVSPost2010PropOp44
 70
     1
102
RTVSPost2010Prop45
280
     0
102
RTVSPost2010PropOp45
 70
     1
102
RTVSPost2010Prop46
 90
       50
102
RTVSPost2010PropOp46
 70
     1
102
RTVSPost2010Prop47
 90
       50
102
RTVSPost2010PropOp47
 70
     1
102
RTVSPost2010Prop48
 90
       50
102
RTVSPost2010PropOp48
 70
     1
102
RTVSPost2010Prop49
280
     0
102
RTVSPost2010PropOp49
 70
     1
102
RTVSPost2010Prop50
 90
       50
102
RTVSPost2010PropOp50
 70
     1
102
RTVSPost2010Prop51ColorIndex
 90
      256
102
RTVSPost2010Prop51ColorRGB
 90
-16777216
102
RTVSPost2010PropOp51
 70
     0
102
RTVSPost2010Prop52
140
1.0
102
RTVSPost2010PropOp52
 70
     0
102
RTVSPost2010Prop53
 90
        2
102
RTVSPost2010PropOp53
 70
     1
102
RTVSPost2010Prop54
  1
strokes_ogs.tif
102
RTVSPost2010PropOp54
 70
     1
102
RTVSPost2010Prop55
280
     0
102
RTVSPost2010PropOp55
 70
     1
102
RTVSPost2010Prop56
140
1.0
102
RTVSPost2010PropOp56
 70
     1
102
RTVSPost2010Prop57
140
1.0
102
RTVSPost2010PropOp57
 70
     1
102
RTVSPropertyOp0
 70
     1
102
RTVSPropertyOp1
 70
     1
102
RTVSPropertyOp2
 70
     1
102
RTVSPropertyOp3
 70
     1
102
RTVSPropertyOp4
 70
     1
102
RTVSPropertyOp5
 70
     1
102
RTVSPropertyOp6
 70
     1
102
RTVSPropertyOp7
 70
     1
102
RTVSPropertyOp8
 70
     1
102
RTVSPropertyOp9
 70
     1
102
RTVSPropertyOp10
 70
     1
102
RTVSPropertyOp11
 70
     1
102
RTVSPropertyOp12
 70
     1
102
RTVSPropertyOp13
 70
     1
102
RTVSPropertyOp14
 70
     1
102
RTVSPropertyOp15
 70
     1
102
RTVSPropertyOp16
 70
     1
102
RTVSPropertyOp17
 70
     1
102
RTVSPropertyOp18
 70
     1
102
RTVSPropertyOp19
 70
     1
102
RTVSPropertyOp20
 70
     1
102
RTVSPropertyOp21
 70
     1
102
RTVSPropertyOp22
 70
     1
102
RTVSPropertyOp23
 70
     1
102
RTVSPropertyOp24
 70
     1
102
RTVSPropertyOp25
 70
     1
102
RTVSPropertyOp26
 70
     1
102
RTVSPropertyOp27
 70
     1
102
RTVSPropertyOp28
 70
     1
102
RTVSPropertyOp29
 70
     1
102
RTVSPropertyOp30
 70
     1
102
RTVSPropertyOp31
 70
     1
102
RTVSPropertyOp32
 70
     1
102
RTVSPropertyOp33
 70
     1
102
RTVSPropertyOp34
 70
     1
102
RTVSPropertyOp35
 70
     1
102
RTVSPropertyOp36
 70
     1
102
RTVSPropertyOp37
 70
     1
102
RTVSPropertyOp38
 70
     1
102
RTVSPropertyOp39
 70
     1
102
RTVSPropertyOp40
 70
     1
102
RTVSPropertyOp41
 70
     1
102
RTVSPropertyOp42
 70
     1
102
RTVSPropertyOp43
 70
     1
102
RTVSPropertyOp44
 70
     1
102
RTVSPropertyOp45
 70
     1
102
RTVSPropertyOp46
 70
     1
102
RTVSPropertyOp47
 70
     1
102
RTVSPropertyOp48
 70
     1
102
RTVSPropertyOp49
 70
     1
102
RTVSPropertyOp50
 70
     1
102
RTVSPropertyOp51
 70
     0
102
RTVSPropertyOp52
 70
     0
102
RTVSPropertyOp53
 70
     1
102
RTVSPropertyOp54
 70
     1
102
RTVSPropertyOp55
 70
     1
102
RTVSPropertyOp56
 70
     1
102
RTVSPropertyOp57
 70
     1
102
RTVSPropertyOp58
 70
     1
102
RTVSPropertyOp59
 70
     1
102
RTVSPropertyOp60
 70
     1
102
RTVSPropertyOp61
 70
     1
102
RTVSPropertyOp62
 70
     1
  0
XRECORD
  5
A6A
102
{ACAD_REACTORS
330
A69
102
}
330
A69
100
AcDbXrecord
280
     1
102
RTVSPost2010Prop28
280
     0
102
RTVSPost2010PropOp28
 70
     1
102
RTVSPost2010Prop29
280
     1
102
RTVSPost2010PropOp29
 70
     1
102
RTVSPost2010Prop30
280
     1
102
RTVSPost2010PropOp30
 70
     1
102
RTVSPost2010Prop31
280
     0
102
RTVSPost2010PropOp31
 70
     1
102
RTVSPost2010Prop32
280
     0
102
RTVSPost2010PropOp32
 70
     1
102
RTVSPost2010Prop33
280
     0
102
RTVSPost2010PropOp33
 70
     1
102
RTVSPost2010Prop34
280
     0
102
RTVSPost2010PropOp34
 70
     1
102
RTVSPost2010Prop35
280
     0
102
RTVSPost2010PropOp35
 70
     1
102
RTVSPost2010Prop36
280
     0
102
RTVSPost2010PropOp36
 70
     1
102
RTVSPost2010Prop37
 90
       50
102
RTVSPost2010PropOp37
 70
     1
102
RTVSPost2010Prop38
140
0.0
102
RTVSPost2010PropOp38
 70
     1
102
RTVSPost2010Prop39
140
1.0
102
RTVSPost2010PropOp39
 70
     1
102
RTVSPost2010Prop40
 90
        0
102
RTVSPost2010PropOp40
 70
     1
102
RTVSPost2010Prop41ColorIndex
 90
       18
102
RTVSPost2010Prop41ColorRGB
 90
        0
102
RTVSPost2010PropOp41
 70
     1
102
RTVSPost2010Prop42
 90
       50
102
RTVSPost2010PropOp42
 70
     1
102
RTVSPost2010Prop43
 90
        3
102
RTVSPost2010PropOp43
 70
     1
102
RTVSPost2010Prop44ColorIndex
 90
        5
102
RTVSPost2010Prop44ColorRGB
 90
      255
102
RTVSPost2010PropOp44
 70
     1
102
RTVSPost2010Prop45
280
     0
102
RTVSPost2010PropOp45
 70
     1
102
RTVSPost2010Prop46
 90
       50
102
RTVSPost2010PropOp46
 70
     1
102
RTVSPost2010Prop47
 90
       50
102
RTVSPost2010PropOp47
 70
     1
102
RTVSPost2010Prop48
 90
       50
102
RTVSPost2010PropOp48
 70
     1
102
RTVSPost2010Prop49
280
     0
102
RTVSPost2010PropOp49
 70
     1
102
RTVSPost2010Prop50
 90
       50
102
RTVSPost2010PropOp50
 70
     1
102
RTVSPost2010Prop51ColorIndex
 90
      256
102
RTVSPost2010Prop51ColorRGB
 90
-16777216
102
RTVSPost2010PropOp51
 70
     0
102
RTVSPost2010Prop52
140
1.0
102
RTVSPost2010PropOp52
 70
     0
102
RTVSPost2010Prop53
 90
        2
102
RTVSPost2010PropOp53
 70
     1
102
RTVSPost2010Prop54
  1
strokes_ogs.tif
102
RTVSPost2010PropOp54
 70
     1
102
RTVSPost2010Prop55
280
     0
102
RTVSPost2010PropOp55
 70
     1
102
RTVSPost2010Prop56
140
1.0
102
RTVSPost2010PropOp56
 70
     1
102
RTVSPost2010Prop57
140
1.0
102
RTVSPost2010PropOp57
 70
     1
102
RTVSPropertyOp0
 70
     1
102
RTVSPropertyOp1
 70
     1
102
RTVSPropertyOp2
 70
     1
102
RTVSPropertyOp3
 70
     1
102
RTVSPropertyOp4
 70
     1
102
RTVSPropertyOp5
 70
     1
102
RTVSPropertyOp6
 70
     1
102
RTVSPropertyOp7
 70
     1
102
RTVSPropertyOp8
 70
     1
102
RTVSPropertyOp9
 70
     1
102
RTVSPropertyOp10
 70
     1
102
RTVSPropertyOp11
 70
     1
102
RTVSPropertyOp12
 70
     1
102
RTVSPropertyOp13
 70
     1
102
RTVSPropertyOp14
 70
     1
102
RTVSPropertyOp15
 70
     1
102
RTVSPropertyOp16
 70
     1
102
RTVSPropertyOp17
 70
     1
102
RTVSPropertyOp18
 70
     1
102
RTVSPropertyOp19
 70
     1
102
RTVSPropertyOp20
 70
     1
102
RTVSPropertyOp21
 70
     1
102
RTVSPropertyOp22
 70
     1
102
RTVSPropertyOp23
 70
     1
102
RTVSPropertyOp24
 70
     1
102
RTVSPropertyOp25
 70
     1
102
RTVSPropertyOp26
 70
     1
102
RTVSPropertyOp27
 70
     1
102
RTVSPropertyOp28
 70
     1
102
RTVSPropertyOp29
 70
     1
102
RTVSPropertyOp30
 70
     1
102
RTVSPropertyOp31
 70
     1
102
RTVSPropertyOp32
 70
     1
102
RTVSPropertyOp33
 70
     1
102
RTVSPropertyOp34
 70
     1
102
RTVSPropertyOp35
 70
     1
102
RTVSPropertyOp36
 70
     1
102
RTVSPropertyOp37
 70
     1
102
RTVSPropertyOp38
 70
     1
102
RTVSPropertyOp39
 70
     1
102
RTVSPropertyOp40
 70
     1
102
RTVSPropertyOp41
 70
     1
102
RTVSPropertyOp42
 70
     1
102
RTVSPropertyOp43
 70
     1
102
RTVSPropertyOp44
 70
     1
102
RTVSPropertyOp45
 70
     1
102
RTVSPropertyOp46
 70
     1
102
RTVSPropertyOp47
 70
     1
102
RTVSPropertyOp48
 70
     1
102
RTVSPropertyOp49
 70
     1
102
RTVSPropertyOp50
 70
     1
102
RTVSPropertyOp51
 70
     0
102
RTVSPropertyOp52
 70
     0
102
RTVSPropertyOp53
 70
     1
102
RTVSPropertyOp54
 70
     1
102
RTVSPropertyOp55
 70
     1
102
RTVSPropertyOp56
 70
     1
102
RTVSPropertyOp57
 70
     1
102
RTVSPropertyOp58
 70
     1
102
RTVSPropertyOp59
 70
     1
102
RTVSPropertyOp60
 70
     1
102
RTVSPropertyOp61
 70
     1
102
RTVSPropertyOp62
 70
     1
  0
XRECORD
  5
A60
102
{ACAD_REACTORS
330
A5F
102
}
330
A5F
100
AcDbXrecord
280
     1
102
RTVSPost2010Prop28
280
     0
102
RTVSPost2010PropOp28
 70
     1
102
RTVSPost2010Prop29
280
     1
102
RTVSPost2010PropOp29
 70
     1
102
RTVSPost2010Prop30
280
     1
102
RTVSPost2010PropOp30
 70
     1
102
RTVSPost2010Prop31
280
     0
102
RTVSPost2010PropOp31
 70
     1
102
RTVSPost2010Prop32
280
     0
102
RTVSPost2010PropOp32
 70
     1
102
RTVSPost2010Prop33
280
     0
102
RTVSPost2010PropOp33
 70
     1
102
RTVSPost2010Prop34
280
     0
102
RTVSPost2010PropOp34
 70
     1
102
RTVSPost2010Prop35
280
     0
102
RTVSPost2010PropOp35
 70
     1
102
RTVSPost2010Prop36
280
     0
102
RTVSPost2010PropOp36
 70
     1
102
RTVSPost2010Prop37
 90
       50
102
RTVSPost2010PropOp37
 70
     1
102
RTVSPost2010Prop38
140
0.0
102
RTVSPost2010PropOp38
 70
     1
102
RTVSPost2010Prop39
140
1.0
102
RTVSPost2010PropOp39
 70
     1
102
RTVSPost2010Prop40
 90
        0
102
RTVSPost2010PropOp40
 70
     1
102
RTVSPost2010Prop41ColorIndex
 90
       18
102
RTVSPost2010Prop41ColorRGB
 90
        0
102
RTVSPost2010PropOp41
 70
     1
102
RTVSPost2010Prop42
 90
       50
102
RTVSPost2010PropOp42
 70
     1
102
RTVSPost2010Prop43
 90
        3
102
RTVSPost2010PropOp43
 70
     1
102
RTVSPost2010Prop44ColorIndex
 90
        5
102
RTVSPost2010Prop44ColorRGB
 90
      255
102
RTVSPost2010PropOp44
 70
     1
102
RTVSPost2010Prop45
280
     0
102
RTVSPost2010PropOp45
 70
     1
102
RTVSPost2010Prop46
 90
       50
102
RTVSPost2010PropOp46
 70
     1
102
RTVSPost2010Prop47
 90
       50
102
RTVSPost2010PropOp47
 70
     1
102
RTVSPost2010Prop48
 90
       50
102
RTVSPost2010PropOp48
 70
     1
102
RTVSPost2010Prop49
280
     0
102
RTVSPost2010PropOp49
 70
     1
102
RTVSPost2010Prop50
 90
       50
102
RTVSPost2010PropOp50
 70
     1
102
RTVSPost2010Prop51ColorIndex
 90
      256
102
RTVSPost2010Prop51ColorRGB
 90
-16777216
102
RTVSPost2010PropOp51
 70
     0
102
RTVSPost2010Prop52
140
1.0
102
RTVSPost2010PropOp52
 70
     0
102
RTVSPost2010Prop53
 90
        2
102
RTVSPost2010PropOp53
 70
     1
102
RTVSPost2010Prop54
  1
strokes_ogs.tif
102
RTVSPost2010PropOp54
 70
     1
102
RTVSPost2010Prop55
280
     0
102
RTVSPost2010PropOp55
 70
     1
102
RTVSPost2010Prop56
140
1.0
102
RTVSPost2010PropOp56
 70
     1
102
RTVSPost2010Prop57
140
1.0
102
RTVSPost2010PropOp57
 70
     1
102
RTVSPropertyOp0
 70
     1
102
RTVSPropertyOp1
 70
     1
102
RTVSPropertyOp2
 70
     1
102
RTVSPropertyOp3
 70
     1
102
RTVSPropertyOp4
 70
     1
102
RTVSPropertyOp5
 70
     1
102
RTVSPropertyOp6
 70
     1
102
RTVSPropertyOp7
 70
     1
102
RTVSPropertyOp8
 70
     1
102
RTVSPropertyOp9
 70
     1
102
RTVSPropertyOp10
 70
     1
102
RTVSPropertyOp11
 70
     1
102
RTVSPropertyOp12
 70
     1
102
RTVSPropertyOp13
 70
     1
102
RTVSPropertyOp14
 70
     1
102
RTVSPropertyOp15
 70
     1
102
RTVSPropertyOp16
 70
     1
102
RTVSPropertyOp17
 70
     1
102
RTVSPropertyOp18
 70
     1
102
RTVSPropertyOp19
 70
     1
102
RTVSPropertyOp20
 70
     1
102
RTVSPropertyOp21
 70
     1
102
RTVSPropertyOp22
 70
     1
102
RTVSPropertyOp23
 70
     1
102
RTVSPropertyOp24
 70
     1
102
RTVSPropertyOp25
 70
     1
102
RTVSPropertyOp26
 70
     1
102
RTVSPropertyOp27
 70
     1
102
RTVSPropertyOp28
 70
     1
102
RTVSPropertyOp29
 70
     1
102
RTVSPropertyOp30
 70
     1
102
RTVSPropertyOp31
 70
     1
102
RTVSPropertyOp32
 70
     1
102
RTVSPropertyOp33
 70
     1
102
RTVSPropertyOp34
 70
     1
102
RTVSPropertyOp35
 70
     1
102
RTVSPropertyOp36
 70
     1
102
RTVSPropertyOp37
 70
     1
102
RTVSPropertyOp38
 70
     1
102
RTVSPropertyOp39
 70
     1
102
RTVSPropertyOp40
 70
     1
102
RTVSPropertyOp41
 70
     1
102
RTVSPropertyOp42
 70
     1
102
RTVSPropertyOp43
 70
     1
102
RTVSPropertyOp44
 70
     1
102
RTVSPropertyOp45
 70
     1
102
RTVSPropertyOp46
 70
     1
102
RTVSPropertyOp47
 70
     1
102
RTVSPropertyOp48
 70
     1
102
RTVSPropertyOp49
 70
     1
102
RTVSPropertyOp50
 70
     1
102
RTVSPropertyOp51
 70
     0
102
RTVSPropertyOp52
 70
     0
102
RTVSPropertyOp53
 70
     1
102
RTVSPropertyOp54
 70
     1
102
RTVSPropertyOp55
 70
     1
102
RTVSPropertyOp56
 70
     1
102
RTVSPropertyOp57
 70
     1
102
RTVSPropertyOp58
 70
     1
102
RTVSPropertyOp59
 70
     1
102
RTVSPropertyOp60
 70
     1
102
RTVSPropertyOp61
 70
     1
102
RTVSPropertyOp62
 70
     1
  0
XRECORD
  5
A54
102
{ACAD_REACTORS
330
A53
102
}
330
A53
100
AcDbXrecord
280
     1
102
RTVSPost2010Prop28
280
     0
102
RTVSPost2010PropOp28
 70
     1
102
RTVSPost2010Prop29
280
     1
102
RTVSPost2010PropOp29
 70
     1
102
RTVSPost2010Prop30
280
     1
102
RTVSPost2010PropOp30
 70
     1
102
RTVSPost2010Prop31
280
     0
102
RTVSPost2010PropOp31
 70
     1
102
RTVSPost2010Prop32
280
     0
102
RTVSPost2010PropOp32
 70
     1
102
RTVSPost2010Prop33
280
     0
102
RTVSPost2010PropOp33
 70
     1
102
RTVSPost2010Prop34
280
     0
102
RTVSPost2010PropOp34
 70
     1
102
RTVSPost2010Prop35
280
     0
102
RTVSPost2010PropOp35
 70
     1
102
RTVSPost2010Prop36
280
     0
102
RTVSPost2010PropOp36
 70
     1
102
RTVSPost2010Prop37
 90
       50
102
RTVSPost2010PropOp37
 70
     1
102
RTVSPost2010Prop38
140
0.0
102
RTVSPost2010PropOp38
 70
     1
102
RTVSPost2010Prop39
140
1.0
102
RTVSPost2010PropOp39
 70
     1
102
RTVSPost2010Prop40
 90
        0
102
RTVSPost2010PropOp40
 70
     1
102
RTVSPost2010Prop41ColorIndex
 90
       18
102
RTVSPost2010Prop41ColorRGB
 90
        0
102
RTVSPost2010PropOp41
 70
     1
102
RTVSPost2010Prop42
 90
       50
102
RTVSPost2010PropOp42
 70
     1
102
RTVSPost2010Prop43
 90
        3
102
RTVSPost2010PropOp43
 70
     1
102
RTVSPost2010Prop44ColorIndex
 90
        5
102
RTVSPost2010Prop44ColorRGB
 90
      255
102
RTVSPost2010PropOp44
 70
     1
102
RTVSPost2010Prop45
280
     0
102
RTVSPost2010PropOp45
 70
     1
102
RTVSPost2010Prop46
 90
       50
102
RTVSPost2010PropOp46
 70
     1
102
RTVSPost2010Prop47
 90
       50
102
RTVSPost2010PropOp47
 70
     1
102
RTVSPost2010Prop48
 90
       50
102
RTVSPost2010PropOp48
 70
     1
102
RTVSPost2010Prop49
280
     0
102
RTVSPost2010PropOp49
 70
     1
102
RTVSPost2010Prop50
 90
       50
102
RTVSPost2010PropOp50
 70
     1
102
RTVSPost2010Prop51ColorIndex
 90
      256
102
RTVSPost2010Prop51ColorRGB
 90
-16777216
102
RTVSPost2010PropOp51
 70
     0
102
RTVSPost2010Prop52
140
1.0
102
RTVSPost2010PropOp52
 70
     0
102
RTVSPost2010Prop53
 90
        2
102
RTVSPost2010PropOp53
 70
     1
102
RTVSPost2010Prop54
  1
strokes_ogs.tif
102
RTVSPost2010PropOp54
 70
     1
102
RTVSPost2010Prop55
280
     0
102
RTVSPost2010PropOp55
 70
     1
102
RTVSPost2010Prop56
140
1.0
102
RTVSPost2010PropOp56
 70
     1
102
RTVSPost2010Prop57
140
1.0
102
RTVSPost2010PropOp57
 70
     1
102
RTVSPropertyOp0
 70
     1
102
RTVSPropertyOp1
 70
     1
102
RTVSPropertyOp2
 70
     1
102
RTVSPropertyOp3
 70
     1
102
RTVSPropertyOp4
 70
     1
102
RTVSPropertyOp5
 70
     1
102
RTVSPropertyOp6
 70
     1
102
RTVSPropertyOp7
 70
     1
102
RTVSPropertyOp8
 70
     1
102
RTVSPropertyOp9
 70
     1
102
RTVSPropertyOp10
 70
     1
102
RTVSPropertyOp11
 70
     1
102
RTVSPropertyOp12
 70
     1
102
RTVSPropertyOp13
 70
     1
102
RTVSPropertyOp14
 70
     1
102
RTVSPropertyOp15
 70
     1
102
RTVSPropertyOp16
 70
     1
102
RTVSPropertyOp17
 70
     1
102
RTVSPropertyOp18
 70
     1
102
RTVSPropertyOp19
 70
     1
102
RTVSPropertyOp20
 70
     1
102
RTVSPropertyOp21
 70
     1
102
RTVSPropertyOp22
 70
     1
102
RTVSPropertyOp23
 70
     1
102
RTVSPropertyOp24
 70
     1
102
RTVSPropertyOp25
 70
     1
102
RTVSPropertyOp26
 70
     1
102
RTVSPropertyOp27
 70
     1
102
RTVSPropertyOp28
 70
     1
102
RTVSPropertyOp29
 70
     1
102
RTVSPropertyOp30
 70
     1
102
RTVSPropertyOp31
 70
     1
102
RTVSPropertyOp32
 70
     1
102
RTVSPropertyOp33
 70
     1
102
RTVSPropertyOp34
 70
     1
102
RTVSPropertyOp35
 70
     1
102
RTVSPropertyOp36
 70
     1
102
RTVSPropertyOp37
 70
     1
102
RTVSPropertyOp38
 70
     1
102
RTVSPropertyOp39
 70
     1
102
RTVSPropertyOp40
 70
     1
102
RTVSPropertyOp41
 70
     1
102
RTVSPropertyOp42
 70
     1
102
RTVSPropertyOp43
 70
     1
102
RTVSPropertyOp44
 70
     1
102
RTVSPropertyOp45
 70
     1
102
RTVSPropertyOp46
 70
     1
102
RTVSPropertyOp47
 70
     1
102
RTVSPropertyOp48
 70
     1
102
RTVSPropertyOp49
 70
     1
102
RTVSPropertyOp50
 70
     1
102
RTVSPropertyOp51
 70
     0
102
RTVSPropertyOp52
 70
     0
102
RTVSPropertyOp53
 70
     1
102
RTVSPropertyOp54
 70
     1
102
RTVSPropertyOp55
 70
     1
102
RTVSPropertyOp56
 70
     1
102
RTVSPropertyOp57
 70
     1
102
RTVSPropertyOp58
 70
     1
102
RTVSPropertyOp59
 70
     1
102
RTVSPropertyOp60
 70
     1
102
RTVSPropertyOp61
 70
     1
102
RTVSPropertyOp62
 70
     1
  0
XRECORD
  5
A6C
102
{ACAD_REACTORS
330
A6B
102
}
330
A6B
100
AcDbXrecord
280
     1
102
RTVSPost2010Prop28
280
     0
102
RTVSPost2010PropOp28
 70
     1
102
RTVSPost2010Prop29
280
     1
102
RTVSPost2010PropOp29
 70
     1
102
RTVSPost2010Prop30
280
     1
102
RTVSPost2010PropOp30
 70
     1
102
RTVSPost2010Prop31
280
     0
102
RTVSPost2010PropOp31
 70
     1
102
RTVSPost2010Prop32
280
     0
102
RTVSPost2010PropOp32
 70
     1
102
RTVSPost2010Prop33
280
     0
102
RTVSPost2010PropOp33
 70
     1
102
RTVSPost2010Prop34
280
     0
102
RTVSPost2010PropOp34
 70
     1
102
RTVSPost2010Prop35
280
     0
102
RTVSPost2010PropOp35
 70
     1
102
RTVSPost2010Prop36
280
     0
102
RTVSPost2010PropOp36
 70
     1
102
RTVSPost2010Prop37
 90
       50
102
RTVSPost2010PropOp37
 70
     1
102
RTVSPost2010Prop38
140
0.0
102
RTVSPost2010PropOp38
 70
     1
102
RTVSPost2010Prop39
140
1.0
102
RTVSPost2010PropOp39
 70
     1
102
RTVSPost2010Prop40
 90
        0
102
RTVSPost2010PropOp40
 70
     1
102
RTVSPost2010Prop41ColorIndex
 90
       18
102
RTVSPost2010Prop41ColorRGB
 90
        0
102
RTVSPost2010PropOp41
 70
     1
102
RTVSPost2010Prop42
 90
       50
102
RTVSPost2010PropOp42
 70
     1
102
RTVSPost2010Prop43
 90
        3
102
RTVSPost2010PropOp43
 70
     1
102
RTVSPost2010Prop44ColorIndex
 90
        5
102
RTVSPost2010Prop44ColorRGB
 90
      255
102
RTVSPost2010PropOp44
 70
     1
102
RTVSPost2010Prop45
280
     0
102
RTVSPost2010PropOp45
 70
     1
102
RTVSPost2010Prop46
 90
       50
102
RTVSPost2010PropOp46
 70
     1
102
RTVSPost2010Prop47
 90
       50
102
RTVSPost2010PropOp47
 70
     1
102
RTVSPost2010Prop48
 90
       50
102
RTVSPost2010PropOp48
 70
     1
102
RTVSPost2010Prop49
280
     0
102
RTVSPost2010PropOp49
 70
     1
102
RTVSPost2010Prop50
 90
       50
102
RTVSPost2010PropOp50
 70
     1
102
RTVSPost2010Prop51ColorIndex
 90
      256
102
RTVSPost2010Prop51ColorRGB
 90
-16777216
102
RTVSPost2010PropOp51
 70
     0
102
RTVSPost2010Prop52
140
1.0
102
RTVSPost2010PropOp52
 70
     0
102
RTVSPost2010Prop53
 90
        2
102
RTVSPost2010PropOp53
 70
     1
102
RTVSPost2010Prop54
  1
strokes_ogs.tif
102
RTVSPost2010PropOp54
 70
     1
102
RTVSPost2010Prop55
280
     0
102
RTVSPost2010PropOp55
 70
     1
102
RTVSPost2010Prop56
140
1.0
102
RTVSPost2010PropOp56
 70
     1
102
RTVSPost2010Prop57
140
1.0
102
RTVSPost2010PropOp57
 70
     1
102
RTVSPropertyOp0
 70
     1
102
RTVSPropertyOp1
 70
     1
102
RTVSPropertyOp2
 70
     1
102
RTVSPropertyOp3
 70
     1
102
RTVSPropertyOp4
 70
     1
102
RTVSPropertyOp5
 70
     1
102
RTVSPropertyOp6
 70
     1
102
RTVSPropertyOp7
 70
     1
102
RTVSPropertyOp8
 70
     1
102
RTVSPropertyOp9
 70
     1
102
RTVSPropertyOp10
 70
     1
102
RTVSPropertyOp11
 70
     1
102
RTVSPropertyOp12
 70
     1
102
RTVSPropertyOp13
 70
     1
102
RTVSPropertyOp14
 70
     1
102
RTVSPropertyOp15
 70
     1
102
RTVSPropertyOp16
 70
     1
102
RTVSPropertyOp17
 70
     1
102
RTVSPropertyOp18
 70
     1
102
RTVSPropertyOp19
 70
     1
102
RTVSPropertyOp20
 70
     1
102
RTVSPropertyOp21
 70
     1
102
RTVSPropertyOp22
 70
     1
102
RTVSPropertyOp23
 70
     1
102
RTVSPropertyOp24
 70
     1
102
RTVSPropertyOp25
 70
     1
102
RTVSPropertyOp26
 70
     1
102
RTVSPropertyOp27
 70
     1
102
RTVSPropertyOp28
 70
     1
102
RTVSPropertyOp29
 70
     1
102
RTVSPropertyOp30
 70
     1
102
RTVSPropertyOp31
 70
     1
102
RTVSPropertyOp32
 70
     1
102
RTVSPropertyOp33
 70
     1
102
RTVSPropertyOp34
 70
     1
102
RTVSPropertyOp35
 70
     1
102
RTVSPropertyOp36
 70
     1
102
RTVSPropertyOp37
 70
     1
102
RTVSPropertyOp38
 70
     1
102
RTVSPropertyOp39
 70
     1
102
RTVSPropertyOp40
 70
     1
102
RTVSPropertyOp41
 70
     1
102
RTVSPropertyOp42
 70
     1
102
RTVSPropertyOp43
 70
     1
102
RTVSPropertyOp44
 70
     1
102
RTVSPropertyOp45
 70
     1
102
RTVSPropertyOp46
 70
     1
102
RTVSPropertyOp47
 70
     1
102
RTVSPropertyOp48
 70
     1
102
RTVSPropertyOp49
 70
     1
102
RTVSPropertyOp50
 70
     1
102
RTVSPropertyOp51
 70
     0
102
RTVSPropertyOp52
 70
     0
102
RTVSPropertyOp53
 70
     1
102
RTVSPropertyOp54
 70
     1
102
RTVSPropertyOp55
 70
     1
102
RTVSPropertyOp56
 70
     1
102
RTVSPropertyOp57
 70
     1
102
RTVSPropertyOp58
 70
     1
102
RTVSPropertyOp59
 70
     1
102
RTVSPropertyOp60
 70
     1
102
RTVSPropertyOp61
 70
     1
102
RTVSPropertyOp62
 70
     1
  0
ENDSEC
  0
EOF
